#TITLE:高跟鞋先生;
#SUBTITLE:;
#ARTIST:王蓉;
#TITLETRANSLIT:Mr. High Heels;
#SUBTITLETRANSLIT:;
#ARTISTTRANSLIT:Rollin Wang;
#GENRE:C-Pop;
#CREDIT:chewi;
#BANNER:Mr. High Heels.png;
#BACKGROUND:Mr. High Heels-bg.png;
#LYRICSPATH:;
#CDTITLE:cdtitle.png;
#MUSIC:Mr. High Heels.ogg;
#OFFSET:-0.131000;
#SAMPLESTART:52.636002;
#SAMPLELENGTH:15.000000;
#SELECTABLE:YES;
#BPMS:0.000000=128.000000
;
#STOPS:
;
#BGCHANGES:-0.262=Mr. High Heels.avi=1.000=1=0=0=StretchNoLoop==CrossFade==,
99999=-nosongbg-=1.000=0=0=0 // don't automatically add -songbackground-
;
#KEYSOUNDS:;
#ATTACKS:;

//---------------dance-single - ----------------
#NOTES:
     dance-single:
     :
     Beginner:
     2:
     0.125500,0.203442,0.057796,0.046237,0.000000,76.000000,71.000000,5.000000,4.000000,0.000000,0.000000,0.125500,0.203442,0.057796,0.046237,0.000000,76.000000,71.000000,5.000000,4.000000,0.000000,0.000000:
0000
0000
0000
0000
,
0000
0000
0000
0000
,
0000
0000
0000
0000
,
0000
0000
0000
0000
,
1000
0000
0000
0000
,
1000
0000
0000
0000
,
0100
0100
0100
0000
,
0100
0100
0100
0000
,
0001
0000
0000
0000
,
0001
0000
0000
0000
,
0010
0010
0010
0000
,
0010
0010
0010
0000
,
0110
0000
0000
0000
,
1000
0000
0000
0000
,
0110
0000
0000
0000
,
0001
0000
0000
0000
,
1000
1000
0000
0000
,
0001
0001
0000
0000
,
1000
1000
0000
0000
,
0001
0001
0000
0000
,
0200
0000
0000
0300
,
0100
0000
0000
0000
,
0020
0000
0000
0030
,
0010
0000
0000
0000
,
2000
0000
0000
3000
,
1000
0000
0000
0000
,
0002
0000
0000
0003
,
0001
0000
0000
0000
,
1000
0000
0001
0000
,
1000
0000
0100
0000
,
1000
0000
0001
0000
,
1000
0000
1001
0000
,
0001
0000
1000
0000
,
0001
0000
0100
0000
,
0001
0000
1000
0000
,
0001
0000
1001
0000
,
0010
0000
0010
0000
,
0100
0000
0100
0000
,
0010
0010
0010
0000
,
0100
0000
0100
0000
,
1000
0000
1000
0000
,
0001
0000
0001
0000
,
1000
1000
1000
0000
,
0001
0000
0001
0000
,
1001
0000
0000
0000
;

//---------------dance-single - ----------------
#NOTES:
     dance-single:
     :
     Easy:
     4:
     0.175040,0.178012,0.000000,0.046237,0.000000,106.000000,106.000000,0.000000,4.000000,0.000000,0.000000,0.175040,0.178012,0.000000,0.046237,0.000000,106.000000,106.000000,0.000000,4.000000,0.000000,0.000000:
0000
0000
0000
0000
,
0000
0000
0000
0000
,
0000
0000
0000
0000
,
0000
0000
0000
0000
,
0001
0001
0010
0000
,
1000
1000
0010
0000
,
0001
0001
0100
0000
,
1000
1000
0100
0000
,
0001
0001
1000
0000
,
1000
1000
0001
0000
,
0100
0100
0010
0000
,
0010
0010
0100
0000
,
0010
0010
0010
0000
,
0200
0000
0000
0300
,
0100
0100
0100
0000
,
0002
0000
0000
0003
,
0001
0010
0000
0000
,
1000
0100
0000
0000
,
0001
0010
1000
0100
,
0001
0000
0000
0000
,
0001
1000
0001
0000
,
0002
0100
1003
0000
,
1000
0001
1000
0000
,
2000
0100
3001
0000
,
0100
0000
0001
0000
,
0010
0000
1000
0000
,
0100
0000
1000
0000
,
0010
0000
0001
0000
,
0001
0001
0010
0000
,
1000
1000
0010
0000
,
0001
0001
0100
0000
,
1000
1000
0100
0000
,
0001
0001
1000
0000
,
1000
1000
0001
0000
,
0100
0100
0010
0000
,
0010
0010
0100
0000
,
0010
0010
0010
0000
,
0100
0001
1000
0000
,
0100
0100
0100
0000
,
0010
0001
1000
0000
,
0001
0000
0100
0000
,
1000
0000
0010
0000
,
0001
0000
0010
0000
,
1000
0000
0100
0000
,
0001
0000
0000
0000
;

//---------------dance-single - ----------------
#NOTES:
     dance-single:
     :
     Medium:
     6:
     0.234487,0.279733,0.023118,0.092474,0.000000,142.000000,140.000000,2.000000,8.000000,0.000000,0.000000,0.234487,0.279733,0.023118,0.092474,0.000000,142.000000,140.000000,2.000000,8.000000,0.000000,0.000000:
// measure 0
0000
0000
0000
0000
,  // measure 1
0000
0000
0000
0000
,  // measure 2
0000
0000
0000
0000
,  // measure 3
0000
0000
0000
0000
,  // measure 4
1000
0000
1000
0000
,  // measure 5
1000
0000
0001
0010
,  // measure 6
0100
1000
0010
0001
,  // measure 7
0100
0000
0000
0000
,  // measure 8
1000
0000
1000
0000
,  // measure 9
1000
0000
0010
0010
,  // measure 10
1000
0100
0001
0010
,  // measure 11
1000
0000
0000
0000
,  // measure 12
2000
3200
0320
0230
,  // measure 13
1300
0100
1000
0000
1100
0000
1000
0000
,  // measure 14
0002
0203
0320
0230
,  // measure 15
0301
0100
0001
0000
0100
0000
0101
0000
,  // measure 16
1000
0000
1000
1000
0000
0000
0000
0000
,  // measure 17
0001
0000
0001
0001
0000
0000
0000
0000
,  // measure 18
0010
0000
0010
0000
0000
0000
0100
0010
,  // measure 19
0100
0000
0000
0000
,  // measure 20
0010
0010
0010
0010
,  // measure 21
0001
0001
0001
0001
,  // measure 22
0100
0100
0100
0100
,  // measure 23
1000
1000
1000
1000
,  // measure 24
0010
0001
0100
1000
,  // measure 25
0100
0001
0010
1000
,  // measure 26
0100
0001
0100
1000
,  // measure 27
0001
0000
1000
0000
0001
1000
0001
0000
,  // measure 28
1000
0000
1000
0000
,  // measure 29
1000
0000
0001
0010
,  // measure 30
0100
0001
0010
1000
,  // measure 31
0100
0000
0001
0000
0100
1000
0100
0000
,  // measure 32
1000
0000
1000
0000
,  // measure 33
1000
0000
0001
0001
,  // measure 34
0100
0010
0001
0100
,  // measure 35
1000
0010
0100
1000
,  // measure 36
0010
0001
0010
0000
,  // measure 37
0010
1000
0010
0000
,  // measure 38
1000
0100
0010
0001
,  // measure 39
1000
0000
0100
1000
0100
0000
0000
0000
,  // measure 40
1000
1000
0001
0001
,  // measure 41
0100
0100
0010
0010
,  // measure 42
0100
0010
1000
0001
,  // measure 43
1000
0100
0001
0010
,  // measure 44
0010
0000
0000
0000
;

//---------------dance-single - ----------------
#NOTES:
     dance-single:
     :
     Hard:
     10:
     0.388060,0.432315,0.346777,0.462369,0.005780,235.000000,205.000000,30.000000,40.000000,0.000000,0.000000,0.388060,0.432315,0.346777,0.462369,0.005780,235.000000,205.000000,30.000000,40.000000,0.000000,0.000000:
0000
0000
0000
0000
,
0000
0000
0000
0000
,
0000
0000
0000
0000
,
0000
0000
0000
0000
,
2020
0000
3030
1000
2002
0000
3003
0010
,
0022
0000
0033
0000
0010
0100
1000
0001
,
1000
0000
1001
0000
0001
0001
0001
0001
,
0000
1000
0001
0100
0010
0010
0000
0000
,
2002
0000
3003
1000
2020
0000
3030
0100
,
0202
0000
0303
0000
0010
0100
0001
1000
,
0001
0000
1001
0000
0100
0100
0100
0100
,
0000
0000
0000
0000
,
0010
0001
1000
0100
1000
0000
1100
0000
,
1002
0010
1000
0103
,
0001
0100
0010
0100
0001
1000
0010
0000
,
2010
0001
0100
3001
,
1000
0100
0010
0100
0000
1000
0001
0000
,
0001
0010
0100
0010
0000
0001
1000
0000
,
0100
0010
1000
0001
0000
1000
1000
1000
,
2000
0002
0000
0000
0000
0000
0000
0000
0000
0000
0000
0000
3003
0000
0000
0000
,
1000
0010
0001
0100
,
1000
0010
0001
0010
,
1000
0100
0001
0010
,
1000
0100
0001
0100
,
1000
0100
1000
0100
1000
0100
1000
1000
,
0001
0100
0001
0100
0001
0100
0001
0001
,
0100
0010
0100
0010
1000
0001
1000
0001
,
1000
0100
0010
0001
1000
0000
1001
0000
,
0202
0000
0303
1000
2002
0000
3003
0100
,
0220
0000
0330
0000
0100
0010
0001
1000
,
0001
0000
1001
0000
1000
1000
1000
1000
,
0000
0001
1000
0010
0100
0100
0000
0000
,
2002
0000
3003
0001
0202
0000
0303
0100
,
0220
0000
0330
0000
0100
0010
1000
0001
,
1000
0000
1001
0000
0010
0010
0010
0010
,
0000
0001
0010
0100
1000
1000
1001
0000
,
2002
0000
3003
1000
2200
0000
3300
0001
,
0202
0000
0303
0000
0001
0100
0010
1000
,
0001
0000
0101
0000
0010
0010
0010
0010
,
0000
0100
1000
0010
1000
1000
0000
0000
,
0022
0000
0033
0100
0220
0000
0330
1000
,
2002
0000
3003
0000
0001
1000
0010
0100
,
0010
0000
1010
0000
0100
0100
0100
0100
,
0000
0001
1000
0100
0010
0010
0000
0000
,
0110
0000
0000
0000
;
