#VERSION:0.83;
#TITLE:Movin' on without you;
#SUBTITLE:;
#ARTIST:浜崎あゆみ;
#TITLETRANSLIT:;
#SUBTITLETRANSLIT:;
#ARTISTTRANSLIT:ayumi hamasaki;
#GENRE:;
#ORIGIN:;
#CREDIT:;
#BANNER:Movin' on without you.png;
#BACKGROUND:Movin' on without you-bg.png;
#PREVIEWVID:;
#JACKET:Movin' on without you-jacket.png;
#CDIMAGE:;
#DISCIMAGE:;
#LYRICSPATH:;
#CDTITLE:cdtitle.png;
#MUSIC:Movin' on without you.ogg;
#OFFSET:-0.129000;
#SAMPLESTART:61.081001;
#SAMPLELENGTH:15.000000;
#SELECTABLE:YES;
#BPMS:0.000=126.000000;
#STOPS:;
#DELAYS:;
#WARPS:;
#TIMESIGNATURES:0.000=4=4;
#TICKCOUNTS:0.000=4;
#COMBOS:0.000=1;
#SPEEDS:0.000=1.000=0.000=0;
#SCROLLS:0.000=1.000;
#FAKES:;
#LABELS:0.000=Song Start;
#BGCHANGES:;
#KEYSOUNDS:;
#ATTACKS:
;

//---------------dance-single - ----------------
#NOTEDATA:;
#CHARTNAME:;
#STEPSTYPE:dance-single;
#DESCRIPTION:;
#CHARTSTYLE:;
#DIFFICULTY:Medium;
#METER:7;
#RADARVALUES:0.282731,0.301604,0.094745,0.063163,0.000000,188.000000,179.000000,9.000000,6.000000,0.000000,0.000000,0.000000,0.000000,0.000000,0.282731,0.301604,0.094745,0.063163,0.000000,188.000000,179.000000,9.000000,6.000000,0.000000,0.000000,0.000000,0.000000,0.000000;
#CREDIT:;
#NOTES:
// measure 0
0000
0000
0000
0000
,  // measure 1
0000
0000
0000
0000
,  // measure 2
0000
0000
0000
0000
,  // measure 3
0000
0000
0000
0000
,  // measure 4
1000
0010
0100
1001
,  // measure 5
0001
0010
0100
1001
,  // measure 6
0001
0100
0010
1001
,  // measure 7
1000
0100
0010
1001
,  // measure 8
0002
0100
0100
0103
,  // measure 9
0001
0000
0100
0000
0100
0010
0010
0000
,  // measure 10
2000
0100
0100
3100
,  // measure 11
1000
0000
0100
0000
0100
0010
0010
0000
,  // measure 12
0001
0000
1000
0100
1000
0000
0100
0000
,  // measure 13
0010
0000
0001
1000
0010
0000
0100
0000
,  // measure 14
0001
0000
1000
0010
1000
0000
0010
0000
,  // measure 15
0100
0000
0001
1000
0100
0000
0010
0000
,  // measure 16
0120
0000
0000
0000
,  // measure 17
0032
0000
0000
0000
,  // measure 18
2003
0000
0000
0000
,  // measure 19
3020
0000
0000
0000
,  // measure 20
0130
0100
0100
0100
,  // measure 21
0001
0001
0001
0001
,  // measure 22
1000
0010
1000
0010
,  // measure 23
1000
0001
1000
0001
,  // measure 24
1001
0000
0100
0000
0100
0100
0010
0000
,  // measure 25
1000
0000
1000
0000
0001
0010
0010
0000
,  // measure 26
0010
1000
0100
0001
,  // measure 27
0010
1000
0010
0001
,  // measure 28
0010
0001
0010
0001
,  // measure 29
0100
0000
0010
0000
1000
0001
0100
0000
,  // measure 30
0001
0100
0001
0100
,  // measure 31
0010
0000
1000
0000
0001
0010
0100
0000
,  // measure 32
1000
0100
0010
0001
,  // measure 33
0100
0010
1000
0100
,  // measure 34
1000
0001
1000
1001
,  // measure 35
0001
0010
0100
1000
,  // measure 36
0100
0000
1000
0000
1000
0100
0010
0000
,  // measure 37
0001
0010
0100
1000
,  // measure 38
0010
0100
0001
0010
,  // measure 39
0001
1000
0001
1001
,  // measure 40
0010
0001
0100
0100
,  // measure 41
0010
0000
1000
0000
0001
0010
0100
0000
,  // measure 42
1000
0010
1000
0001
,  // measure 43
0100
0000
0100
0010
1000
0000
0001
0000
,  // measure 44
1000
0000
0010
0000
0100
0001
0010
0000
,  // measure 45
0100
0100
1000
1000
,  // measure 46
0100
0000
0100
0000
0010
0001
0100
0000
,  // measure 47
0001
0001
1000
1001
;

//---------------dance-single - ----------------
#NOTEDATA:;
#CHARTNAME:;
#STEPSTYPE:dance-single;
#DESCRIPTION:;
#CHARTSTYLE:;
#DIFFICULTY:Hard;
#METER:11;
#RADARVALUES:0.427104,0.552941,0.147381,0.421088,0.189490,284.000000,270.000000,14.000000,40.000000,0.000000,0.000000,0.000000,0.000000,0.000000,0.427104,0.552941,0.147381,0.421088,0.189490,284.000000,270.000000,14.000000,40.000000,0.000000,0.000000,0.000000,0.000000,0.000000;
#CREDIT:;
#NOTES:
// measure 0
0000
0000
0000
0000
,  // measure 1
0000
0000
0000
0000
,  // measure 2
0000
0000
0000
0000
,  // measure 3
0000
0000
0000
0000
,  // measure 4
0001
0000
0100
0010
0100
0001
0100
0000
,  // measure 5
0001
0000
0010
0100
0010
1000
0010
0000
,  // measure 6
0100
0000
1000
0010
1000
0100
1000
0000
,  // measure 7
1000
0000
0100
0010
0100
1000
0100
0000
,  // measure 8
2001
0000
0000
0000
3001
0000
0000
0000
1000
0000
0010
0100
0001
0000
0001
0000
,  // measure 9
1002
0000
0000
0000
1003
0000
0000
0000
0010
0000
1000
0001
0010
0000
0010
0000
,  // measure 10
0210
0000
0000
0000
0310
0000
0000
0000
0001
0000
0010
0100
1000
0000
1000
0000
,  // measure 11
2100
3100
0102
0103
,  // measure 12
1002
0000
0000
0000
1003
0000
0000
0000
0001
0000
0100
0010
1000
0000
1000
0000
,  // measure 13
2001
0000
0000
0000
3001
0000
0000
0000
0100
0000
0001
1000
0100
0000
0100
0000
,  // measure 14
0120
0000
0000
0000
0130
0000
0000
0000
1000
0000
0100
0010
0001
0000
0001
0000
,  // measure 15
0012
0013
2010
3010
,  // measure 16
2000
0000
0000
0000
,  // measure 17
3200
0000
0000
0000
,  // measure 18
0302
0000
0000
0000
,  // measure 19
0023
0000
0000
0000
,  // measure 20
1030
1000
0100
0100
,  // measure 21
0010
0010
0001
0001
,  // measure 22
0100
0100
0010
0010
1000
1000
0001
0001
,  // measure 23
1000
1000
0100
0100
1000
1000
0010
0000
,  // measure 24
0100
0000
0000
0000
0110
0000
0000
0000
0010
0000
0000
1000
0001
0000
0010
0000
,  // measure 25
0200
0000
0000
0000
0320
0000
0000
0000
0031
0000
0000
1000
0010
0000
0100
0000
,  // measure 26
0010
0000
1000
0000
0001
0000
0000
0000
0001
0000
0010
0100
0010
0000
0001
0000
,  // measure 27
2000
0000
0000
0000
3020
0000
0000
0000
0130
0000
0000
0001
1000
0000
0010
0000
,  // measure 28
0100
0000
0000
0000
0101
0000
1000
0000
0100
0000
0000
0010
0001
0000
1000
0000
,  // measure 29
0020
0000
0000
0000
0230
0000
0000
0000
0301
0000
0000
0001
1000
0000
0100
0000
,  // measure 30
0020
0000
0000
0000
0230
0000
0000
0000
1300
0000
0000
0001
0100
0000
0100
0000
,  // measure 31
0020
1000
2030
0100
3200
0010
0320
0000
,  // measure 32
0130
0000
0000
0000
0110
0000
0000
0000
0010
0000
0000
0001
1000
0000
0100
0000
,  // measure 33
0020
0000
0000
0000
0230
0000
0000
0000
1300
0000
0000
0001
0100
0000
0010
0000
,  // measure 34
0100
0000
0001
0000
1000
0000
0000
0000
1000
0000
0100
0010
0100
0000
1000
0000
,  // measure 35
0002
0000
0000
0000
0203
0000
0000
0000
0310
0000
0000
1000
0001
0000
0100
0000
,  // measure 36
0010
0000
0000
0000
1010
0000
0001
0000
0010
0000
0000
0100
1000
0000
0001
0000
,  // measure 37
0200
0000
0000
0000
0320
0000
0000
0000
1030
0000
0000
1000
0001
0000
0010
0000
,  // measure 38
0200
0000
0000
0000
0320
0000
0000
0000
0031
0000
0000
1000
0010
0000
0010
0000
,  // measure 39
0200
0001
0302
0010
0023
0100
0230
0000
,  // measure 40
2300
0000
0000
0000
3100
0000
0000
0000
0010
0000
0000
0001
1000
0000
0001
0000
,  // measure 41
1000
0000
0000
0010
0100
0000
0010
0000
1000
0000
0000
0001
1000
0000
0100
0000
,  // measure 42
0020
0000
0000
0000
0031
0000
0000
0000
0100
0000
0000
0001
1000
0000
1000
0000
,  // measure 43
0001
0000
0000
0100
0010
0000
0100
0000
0001
0000
0000
1000
0001
0000
0010
0000
,  // measure 44
0010
0000
0000
0010
0100
0000
1000
0000
1000
0000
0001
0100
0001
0000
0000
0000
,  // measure 45
1000
0000
0000
1000
0010
0000
0100
0000
0100
0000
0001
1000
0001
0000
1000
0000
,  // measure 46
0100
0000
0000
0100
0010
0000
0001
0000
0001
0000
1000
0010
1000
0000
0001
0000
,  // measure 47
0100
0001
0100
0001
0100
0000
0010
0000
1000
0010
1000
0010
1000
0000
0000
0000
;

//---------------dance-single - ----------------
#NOTEDATA:;
#CHARTNAME:;
#STEPSTYPE:dance-single;
#DESCRIPTION:;
#CHARTSTYLE:;
#DIFFICULTY:Easy;
#METER:4;
#RADARVALUES:0.156404,0.225019,0.042109,0.021054,0.000000,104.000000,100.000000,4.000000,2.000000,0.000000,0.000000,0.000000,0.000000,0.000000,0.156404,0.225019,0.042109,0.021054,0.000000,104.000000,100.000000,4.000000,2.000000,0.000000,0.000000,0.000000,0.000000,0.000000;
#CREDIT:;
#NOTES:
// measure 0
0000
0000
0000
0000
,  // measure 1
0000
0000
0000
0000
,  // measure 2
0000
0000
0000
0000
,  // measure 3
0000
0000
0000
0000
,  // measure 4
1000
0000
1000
0000
,  // measure 5
0001
0000
0001
0000
,  // measure 6
0100
0000
0100
0000
,  // measure 7
0010
0000
0010
0000
,  // measure 8
0110
0000
0000
0000
,  // measure 9
0110
0000
0000
0000
,  // measure 10
1001
0000
0000
0000
,  // measure 11
1001
0000
0000
0000
,  // measure 12
1000
0000
0100
0000
,  // measure 13
0001
0000
0100
0000
,  // measure 14
1000
0000
0010
0000
,  // measure 15
0001
0000
0010
0000
,  // measure 16
0020
0000
0000
0030
,  // measure 17
0010
0010
0010
0000
,  // measure 18
0200
0000
0000
0300
,  // measure 19
0100
0100
0100
0000
,  // measure 20
1000
0000
1000
0000
,  // measure 21
0001
0000
0001
0000
,  // measure 22
1000
1000
0001
0001
,  // measure 23
1000
0001
1000
0001
,  // measure 24
1000
0000
1000
0000
,  // measure 25
1000
0100
0010
0000
,  // measure 26
0001
0000
0001
0000
,  // measure 27
0001
0100
0010
0000
,  // measure 28
0100
0000
0100
0000
,  // measure 29
0100
0010
1000
0000
,  // measure 30
0010
0000
0010
0000
,  // measure 31
0010
0100
0001
0000
,  // measure 32
0001
0000
1000
0000
,  // measure 33
0001
1000
0100
0000
,  // measure 34
0010
0000
0100
0000
,  // measure 35
0010
0100
1000
0000
,  // measure 36
0100
0000
0010
0000
,  // measure 37
0100
0010
0001
0000
,  // measure 38
1000
0000
0001
0000
,  // measure 39
1000
0001
0100
0000
,  // measure 40
0100
0000
1000
0000
,  // measure 41
0010
0010
0010
0000
,  // measure 42
0001
0000
0100
0000
,  // measure 43
1000
1000
1000
0000
,  // measure 44
0010
0000
0001
0000
,  // measure 45
0100
0100
0100
0000
,  // measure 46
1000
0000
0010
0000
,  // measure 47
0001
0001
0001
0000
;

//---------------dance-single - ----------------
#NOTEDATA:;
#CHARTNAME:;
#STEPSTYPE:dance-single;
#DESCRIPTION:;
#CHARTSTYLE:;
#DIFFICULTY:Beginner;
#METER:1;
#RADARVALUES:0.072187,0.121063,0.084218,0.000000,0.000000,48.000000,40.000000,8.000000,0.000000,0.000000,0.000000,0.000000,0.000000,0.000000,0.072187,0.121063,0.084218,0.000000,0.000000,48.000000,40.000000,8.000000,0.000000,0.000000,0.000000,0.000000,0.000000,0.000000;
#CREDIT:;
#NOTES:
// measure 0
0000
0000
0000
0000
,  // measure 1
0000
0000
0000
0000
,  // measure 2
0000
0000
0000
0000
,  // measure 3
0000
0000
0000
0000
,  // measure 4
1000
0000
0000
0000
,  // measure 5
1000
0000
0000
0000
,  // measure 6
0001
0000
0000
0000
,  // measure 7
0001
0000
0000
0000
,  // measure 8
1001
0000
0000
0000
,  // measure 9
0000
0000
0000
0000
,  // measure 10
0110
0000
0000
0000
,  // measure 11
0000
0000
0000
0000
,  // measure 12
1001
0000
0000
0000
,  // measure 13
0000
0000
0000
0000
,  // measure 14
0110
0000
0000
0000
,  // measure 15
0000
0000
0000
0000
,  // measure 16
1000
0000
0000
0000
,  // measure 17
1000
0000
0000
0000
,  // measure 18
0001
0000
0000
0000
,  // measure 19
0001
0000
0000
0000
,  // measure 20
0010
0000
0000
0000
,  // measure 21
0010
0000
0000
0000
,  // measure 22
0100
0000
0000
0000
,  // measure 23
0100
0000
0000
0000
,  // measure 24
1000
0000
0000
0000
,  // measure 25
1000
0000
0000
0000
,  // measure 26
1000
0000
1000
0000
,  // measure 27
1000
0000
0000
0000
,  // measure 28
0001
0000
0000
0000
,  // measure 29
0001
0000
0000
0000
,  // measure 30
0001
0000
0001
0000
,  // measure 31
0001
0000
0000
0000
,  // measure 32
0100
0000
0000
0000
,  // measure 33
0100
0000
0000
0000
,  // measure 34
0100
0000
0100
0000
,  // measure 35
0100
0000
0000
0000
,  // measure 36
0010
0000
0000
0000
,  // measure 37
0010
0000
0000
0000
,  // measure 38
0010
0000
0010
0000
,  // measure 39
0010
0000
0000
0000
,  // measure 40
0110
0000
0000
0000
,  // measure 41
0000
0000
0000
0000
,  // measure 42
1001
0000
0000
0000
,  // measure 43
0000
0000
0000
0000
,  // measure 44
0110
0000
0000
0000
,  // measure 45
0000
0000
0000
0000
,  // measure 46
1001
0000
0000
0000
;
