#VERSION:0.81;
#TITLE:More & More feat. 日之内エミ;
#SUBTITLE:;
#ARTIST:宏実;
#TITLETRANSLIT:More & More feat. Emi Hinouchi;
#SUBTITLETRANSLIT:;
#ARTISTTRANSLIT:Hiromi;
#GENRE:;
#ORIGIN:;
#CREDIT:chewi;
#BANNER:More & More feat. Emi Hinouchi.png;
#BACKGROUND:More & More feat. Emi Hinouchi-bg.png;
#PREVIEWVID:;
#JACKET:More & More feat. Emi Hinouchi-jacket.png;
#CDIMAGE:;
#DISCIMAGE:;
#LYRICSPATH:;
#CDTITLE:cdtitle.png;
#MUSIC:More & More feat. Emi Hinouchi.mp3;
#OFFSET:-0.405000;
#SAMPLESTART:48.407001;
#SAMPLELENGTH:15.000000;
#SELECTABLE:YES;
#DISPLAYBPM:120.000000;
#BPMS:0.000=120.000;
#STOPS:;
#DELAYS:;
#WARPS:;
#TIMESIGNATURES:0.000=4=4;
#TICKCOUNTS:0.000=4;
#COMBOS:0.000=1;
#SPEEDS:0.000=1.000=0.000=0;
#SCROLLS:0.000=1.000;
#FAKES:;
#LABELS:0.000=Song Start;
#BGCHANGES:-0.810=More & More feat. Emi Hinouchi.avi=1.000=0=0=1=====,
99999=-nosongbg-=1.000=0=0=0 // don't automatically add -songbackground-
;
#KEYSOUNDS:;
#ATTACKS:
;

//---------------dance-single - ----------------
#NOTEDATA:;
#CHARTNAME:;
#STEPSTYPE:dance-single;
#DESCRIPTION:;
#CHARTSTYLE:;
#DIFFICULTY:Beginner;
#METER:2;
#RADARVALUES:0.127313,0.143442,0.080107,0.100134,0.000000,71.000000,8.000000,10.000000,0.000000,0.000000,0.000000,0.000000,0.000000,0.127313,0.143442,0.080107,0.100134,0.000000,71.000000,8.000000,10.000000,0.000000,0.000000,0.000000,0.000000,0.000000;
#CREDIT:;
#DISPLAYBPM:121.000000;
#NOTES:
0000
0000
0000
0000
,
0000
0000
0000
0000
,
0000
0000
0000
0000
,
0000
0000
0000
0000
,
0020
0000
0000
0030
,
0010
0000
0000
0000
,
0200
0000
0000
0300
,
0100
0000
0000
0000
,
1000
0000
1000
0000
,
1000
0000
1000
0000
,
0001
0000
0001
0000
,
0001
0000
0001
0000
,
1000
0000
1000
0000
,
1000
0000
1000
0000
,
0001
0000
0001
0000
,
0001
0000
0001
0000
,
0100
0000
0100
0000
,
0100
0000
0100
0000
,
0010
0000
0010
0000
,
0010
0000
0010
0000
,
1000
0000
1000
0000
,
0001
0000
0001
0000
,
1000
0000
1000
0000
,
0001
0000
0001
0000
,
0002
0000
0000
0003
,
0001
0001
0001
0000
,
2000
0000
0000
3000
,
1000
1000
1000
0000
,
0020
0000
0000
0030
,
0010
0010
0010
0000
,
0200
0000
0000
0300
,
0100
0100
0100
0000
,
0110
0000
0000
0000
,
0110
0000
0000
0000
,
1001
0000
0000
0000
,
1001
0000
0000
0000
,
0110
0000
0000
0000
,
0110
0000
0000
0000
,
1001
0000
0000
0000
,
1001
0000
0000
0000
,
0002
0000
0000
0003
,
0001
0000
0000
0000
,
2000
0000
0000
3000
,
1000
0000
0000
0000
,
0200
0000
0000
0300
,
0100
0000
0000
0000
,
0020
0000
0000
0030
,
0010
0010
0010
0010
;

//---------------dance-single - ----------------
#NOTEDATA:;
#CHARTNAME:;
#STEPSTYPE:dance-single;
#DESCRIPTION:;
#CHARTSTYLE:;
#DIFFICULTY:Easy;
#METER:4;
#RADARVALUES:0.187394,0.192258,0.080107,0.210282,0.000000,102.000000,8.000000,21.000000,0.000000,0.000000,0.000000,0.000000,0.000000,0.187394,0.192258,0.080107,0.210282,0.000000,102.000000,8.000000,21.000000,0.000000,0.000000,0.000000,0.000000,0.000000;
#CREDIT:;
#DISPLAYBPM:121.000000;
#NOTES:
0000
0000
0000
0000
,
0000
0000
0000
0000
,
0000
0000
0000
0000
,
0000
0000
0000
0000
,
2000
0000
0000
3000
,
0200
0000
0020
0330
,
0020
0000
0001
0000
,
0002
0000
0000
0033
,
0001
0000
1000
0000
,
0001
1000
0100
0000
,
1000
0000
0001
0000
,
1000
0001
0100
0000
,
0010
0000
0100
0000
,
0001
1000
0100
0000
,
0010
0000
0100
0000
,
1000
0100
0010
0001
,
1000
0000
0001
0000
,
1000
0010
0100
0000
,
0001
0000
0100
0000
,
0010
1000
0001
0000
,
1000
0000
0001
0000
,
1000
0100
0010
0000
,
0001
0010
0100
1000
,
0001
0010
0100
1000
,
0002
0000
0203
0000
,
0301
0100
0001
0000
,
2000
0000
3200
0000
,
1300
0100
0010
0001
,
2000
0000
3002
0000
,
1003
0001
1000
0000
,
0002
0000
2003
0000
,
3001
1000
0001
1000
,
1001
0000
1001
0000
,
1000
1000
1000
0000
,
1001
0000
1001
0000
,
0001
1000
0100
0010
,
0110
0000
0110
0000
,
0010
0010
0010
0000
,
0110
0000
0110
0000
,
0010
0100
1000
0001
,
2000
0000
0000
0000
,
3020
0000
0000
0000
,
0032
0000
0000
0000
,
0203
0000
0000
0000
,
2300
0000
0000
0000
,
3020
0000
0000
0000
,
0032
0000
0000
0000
,
0203
0000
0000
0000
,
0300
0000
0000
0000
;

//---------------dance-single - ----------------
#NOTEDATA:;
#CHARTNAME:;
#STEPSTYPE:dance-single;
#DESCRIPTION:;
#CHARTSTYLE:;
#DIFFICULTY:Medium;
#METER:6;
#RADARVALUES:0.286098,0.286884,0.300403,0.090121,0.000000,161.000000,30.000000,9.000000,0.000000,0.000000,0.000000,0.000000,0.000000,0.286098,0.286884,0.300403,0.090121,0.000000,161.000000,30.000000,9.000000,0.000000,0.000000,0.000000,0.000000,0.000000;
#CREDIT:;
#DISPLAYBPM:121.000000;
#NOTES:
// measure 0
0000
0000
0000
0000
,  // measure 1
0000
0000
0000
0000
,  // measure 2
0000
0000
0000
0000
,  // measure 3
0000
0000
0000
0000
,  // measure 4
2001
0000
0000
0000
,  // measure 5
3020
0000
0000
0000
,  // measure 6
0230
0000
0302
0000
,  // measure 7
0203
0010
0301
0010
,  // measure 8
0100
1000
0100
0010
,  // measure 9
0001
0000
1000
0000
0001
0010
0100
0000
,  // measure 10
1000
0001
1000
0010
,  // measure 11
0100
0000
0001
0000
0100
0010
1000
0000
,  // measure 12
0001
0010
0100
0010
,  // measure 13
0001
0000
0100
0000
0010
1000
0100
0000
,  // measure 14
1000
0010
0100
0010
,  // measure 15
1000
0000
0010
0000
0100
0001
0001
0000
,  // measure 16
1000
0001
0010
0100
,  // measure 17
1000
0000
0001
0000
1000
0001
0100
0000
,  // measure 18
0010
0100
0001
1000
,  // measure 19
0010
0000
1000
0000
0001
0010
0100
0000
,  // measure 20
1000
0010
1000
0100
,  // measure 21
0010
0000
0001
0000
0100
0001
0010
0000
,  // measure 22
0100
0000
1000
0000
0001
1000
0001
0000
,  // measure 23
1000
0001
1000
0000
1001
0000
0110
0000
,  // measure 24
0010
1000
0100
0001
,  // measure 25
0010
1000
0100
0000
,  // measure 26
0001
0100
1000
0000
0100
0000
0000
0000
,  // measure 27
0010
0001
0010
0011
,  // measure 28
0010
0001
0100
1000
,  // measure 29
0010
0001
0100
0000
,  // measure 30
1000
0010
0001
0000
0001
0000
0000
0000
,  // measure 31
0010
0100
1000
0100
,  // measure 32
1100
0000
1100
0000
,  // measure 33
1100
1100
1100
0000
,  // measure 34
0101
0000
0101
0000
,  // measure 35
0101
0101
0101
0000
,  // measure 36
0011
0000
0011
0000
,  // measure 37
0011
0011
0011
0000
,  // measure 38
1010
0000
1010
0000
,  // measure 39
1010
1010
1010
0000
,  // measure 40
2000
0100
0001
0100
,  // measure 41
3200
0010
1000
0010
,  // measure 42
0320
0001
0100
0001
,  // measure 43
0032
0100
0010
1000
,  // measure 44
1003
0001
0100
0001
,  // measure 45
1000
0001
0100
0001
,  // measure 46
0101
0000
0101
0000
,  // measure 47
0101
0011
1100
1010
;

//---------------dance-single - ----------------
#NOTEDATA:;
#CHARTNAME:;
#STEPSTYPE:dance-single;
#DESCRIPTION:;
#CHARTSTYLE:;
#DIFFICULTY:Hard;
#METER:11;
#RADARVALUES:0.429146,0.382513,0.300403,0.150201,0.060081,255.000000,30.000000,15.000000,0.000000,0.000000,0.000000,0.000000,0.000000,0.429146,0.382513,0.300403,0.150201,0.060081,255.000000,30.000000,15.000000,0.000000,0.000000,0.000000,0.000000,0.000000;
#CREDIT:;
#DISPLAYBPM:121.000000;
#NOTES:
0000
0000
0000
0000
,
0000
0000
0000
0000
,
0000
0000
0000
0000
,
0000
0000
0000
0000
,
2000
0000
3010
0100
0002
0000
0103
0010
,
2000
0000
0000
0000
0000
3001
1000
0000
,
0001
0000
0000
0000
0010
0000
0000
0000
0001
0000
1000
0000
0001
0000
0100
0010
,
0100
0001
0010
0100
1000
0001
1000
0001
,
0001
0000
0000
0001
0100
0000
0010
0000
1000
0000
0001
0000
0010
0000
0100
0000
,
1000
0000
0000
1000
0100
0000
0010
0000
0001
0000
1000
0000
0100
0000
0010
0000
,
0100
0000
0000
0100
0010
0000
0001
0000
0010
0000
0100
0000
1000
0000
0001
0000
,
1000
0000
0000
1000
0001
0000
0100
0000
0010
0000
0010
0000
0010
0000
0000
0000
,
0100
0000
0000
0100
0010
0000
1000
0000
0001
0000
0010
0000
0100
0000
1000
0000
,
0001
0000
0000
0001
1000
0000
0010
0000
0100
0000
0001
0000
0100
0000
0010
0000
,
1000
0000
0000
1000
0010
0000
0100
0000
0001
0000
1000
0000
0100
0000
0010
0000
,
0001
0000
0000
0001
0010
0000
0100
0000
1000
0000
1000
0000
1000
0000
0000
0000
,
1000
0001
0100
0010
1000
0000
0001
0010
,
0100
0000
1000
0000
0001
0000
1000
0000
0001
1000
0001
0000
1001
0000
0000
0000
,
0001
0100
0010
1000
0001
0000
0100
0010
,
0100
0000
0001
0000
0010
0000
0100
0000
1000
0100
1000
0000
1100
0000
0000
0000
,
1000
0100
0010
0001
1000
0000
0001
1000
,
0010
0000
0100
0000
0001
0000
0100
0000
0001
0100
0001
0000
0101
0000
0000
0000
,
0100
0010
1000
0001
0010
0000
0011
0000
,
0001
0010
0100
1000
1100
0000
0101
0000
,
2000
0000
3001
1000
0020
0000
0130
0001
,
0100
0010
1000
0000
2002
0000
3003
0100
,
0010
0001
0010
0000
0011
0000
0010
0100
,
2000
0000
3010
0100
0002
0000
0103
0000
,
1010
0000
0100
0001
0011
0000
0010
0100
,
1000
0001
2000
0000
3002
0000
1003
0100
,
0010
0001
2000
0000
3002
0000
1003
0010
,
0100
0001
1000
0010
1000
0001
1000
0001
,
1001
0000
0000
0100
0100
0000
0000
1001
,
0000
1001
0000
1001
0100
0000
0100
0000
,
1001
0000
0000
0010
0010
0000
0000
1001
,
0000
1001
0000
1001
0010
0000
0010
0000
,
1001
0000
0000
1000
1000
0000
0000
1001
,
0000
1001
0000
1001
1000
0000
1000
0000
,
1001
0000
0000
0001
0001
0000
0000
1001
,
0000
1001
0000
1001
0001
0000
0001
0000
,
1000
0010
0001
0100
,
1000
0100
0001
0000
0200
0000
0300
0000
,
1000
0100
0001
0010
,
1000
0010
0001
0000
0020
0000
1030
0010
,
0000
0000
0001
0010
0000
0000
1000
0100
,
0000
0000
0001
0100
0000
0000
0000
0000
,
1001
0000
0000
0100
0100
0000
0000
1001
,
0000
1001
0000
1001
0100
0000
0100
0000
;
