#TITLE:Mmm Yeah (feat. Pitbull);
#SUBTITLE:;
#ARTIST:Austin Mahone;
#TITLETRANSLIT:;
#SUBTITLETRANSLIT:;
#ARTISTTRANSLIT:;
#GENRE:Pop;
#CREDIT:chewi;
#BANNER:Mmm Yeah (feat. Pitbull).png;
#BACKGROUND:Mmm Yeah (feat. Pitbull)-bg.png;
#LYRICSPATH:;
#CDTITLE:cdtitle.png;
#MUSIC:Mmm Yeah (feat. Pitbull).ogg;
#OFFSET:-0.245462;
#SAMPLESTART:30.757999;
#SAMPLELENGTH:15.000000;
#SELECTABLE:YES;
#BPMS:0.000000=125.999992
;
#STOPS:
;
#BGCHANGES:0.000=Mmm Yeah (feat. Pitbull).avi=1.000=1=0=0=StretchNoLoop==CrossFade==,
99999=-nosongbg-=1.000=0=0=0 // don't automatically add -songbackground-
;
#KEYSOUNDS:;
#ATTACKS:;

//---------------dance-single - ----------------
#NOTES:
     dance-single:
     :
     Beginner:
     1:
     0.092051,0.128871,0.046025,0.036820,0.000000,61.000000,5.000000,4.000000,0.000000,0.000000,0.000000,0.092051,0.128871,0.046025,0.036820,0.000000,61.000000,5.000000,4.000000,0.000000,0.000000,0.000000:
// measure 0
0000
0000
0000
0000
,  // measure 1
0000
0000
0000
0000
,  // measure 2
0000
0000
0000
0000
,  // measure 3
0000
0000
0000
0000
,  // measure 4
1000
0000
0000
0000
,  // measure 5
0001
0000
0000
0000
,  // measure 6
1000
0000
0000
0000
,  // measure 7
0001
0000
0000
0000
,  // measure 8
1001
0000
0000
0000
,  // measure 9
0100
0000
0000
0000
,  // measure 10
0100
0000
0000
0000
,  // measure 11
0100
0000
0000
0000
,  // measure 12
1001
0000
0000
0000
,  // measure 13
0010
0000
0000
0000
,  // measure 14
0010
0000
0000
0000
,  // measure 15
0010
0000
0000
0000
,  // measure 16
2000
0000
0000
3000
,  // measure 17
1000
0000
0000
0000
,  // measure 18
0002
0000
0000
0003
,  // measure 19
0001
0000
0000
0000
,  // measure 20
0200
0000
0000
0300
,  // measure 21
0100
0000
0000
0000
,  // measure 22
0020
0000
0000
0030
,  // measure 23
0010
0000
0000
0000
,  // measure 24
1000
0000
1000
0000
,  // measure 25
1000
0000
0000
0000
,  // measure 26
0010
0000
0010
0000
,  // measure 27
0010
0000
0000
0000
,  // measure 28
0100
0000
0100
0000
,  // measure 29
0100
0000
0000
0000
,  // measure 30
0001
0000
0001
0000
,  // measure 31
0001
0000
0000
0000
,  // measure 32
0001
0000
0000
0000
,  // measure 33
1000
0000
0000
0000
,  // measure 34
0001
0000
0000
0000
,  // measure 35
1000
0000
0000
0000
,  // measure 36
0010
0000
0000
0000
,  // measure 37
0100
0000
0000
0000
,  // measure 38
0010
0000
0000
0000
,  // measure 39
0100
0000
0000
0000
,  // measure 40
1001
0000
0000
0000
,  // measure 41
1000
0000
0000
0000
,  // measure 42
0001
0000
0000
0000
,  // measure 43
1000
0000
0000
0000
,  // measure 44
0110
0000
0000
0000
,  // measure 45
0010
0000
0000
0000
,  // measure 46
0100
0000
0000
0000
,  // measure 47
0010
0000
0000
0000
,  // measure 48
1000
0000
1000
0000
,  // measure 49
1000
0000
0000
0000
,  // measure 50
0001
0000
0001
0000
,  // measure 51
0001
0000
0000
0000
,  // measure 52
0010
0000
0010
0000
,  // measure 53
0010
0000
0000
0000
,  // measure 54
0100
0000
0100
0000
,  // measure 55
0100
0000
0000
0000
,  // measure 56
0110
0000
0000
0000
;

//---------------dance-single - ----------------
#NOTES:
     dance-single:
     :
     Easy:
     5:
     0.197251,0.231967,0.018410,0.000000,0.000000,148.000000,2.000000,0.000000,0.000000,0.000000,0.000000,0.197251,0.231967,0.018410,0.000000,0.000000,148.000000,2.000000,0.000000,0.000000,0.000000,0.000000:
0000
0000
0000
0000
,
0000
0000
0000
0000
,
0000
0000
0000
0000
,
0000
0000
0000
0000
,
1000
0000
0000
0000
,
0010
0000
0000
0000
,
0100
0000
0000
0000
,
0001
0000
0000
0000
,
1001
0000
0000
0000
,
0010
1000
0100
0000
,
0001
0000
0000
0000
,
0010
1000
0100
0000
,
0001
0000
0001
0000
,
1000
0000
1000
0000
,
0010
0010
0100
0100
,
0110
0000
0000
0000
,
1000
1000
0010
0010
,
1000
1000
0010
0010
,
0100
0100
0001
0001
,
0100
0100
0001
0001
,
1000
1000
0001
0001
,
1000
1000
0001
0001
,
0010
0010
0100
0100
,
0010
0010
0100
0100
,
1000
0000
1000
0000
,
0001
0000
0001
0000
,
0100
0000
0100
0000
,
0010
0000
0010
0000
,
1000
0000
0001
0000
,
1000
0001
1000
0000
,
0001
0000
1000
0000
,
0001
1000
0001
0000
,
0100
0100
0100
0100
,
0100
0000
0010
0000
,
0010
0010
0010
0010
,
0010
0000
1000
0000
,
1000
1000
1000
1000
,
1000
0000
0001
0000
,
0010
0010
0010
0010
,
0010
0000
0000
0000
,
0010
0010
0001
0001
,
0010
0010
0001
0001
,
1000
1000
0100
0100
,
1000
1000
0100
0100
,
1000
1000
0001
0001
,
1000
1000
0001
0001
,
0100
0100
0010
0010
,
0100
0100
0010
0010
,
1000
0000
1000
0000
,
1000
0001
0010
0000
,
0010
0000
0010
0000
,
0100
1000
0001
0000
,
1000
0000
1000
0000
,
0001
0100
0010
0000
,
0100
0000
0100
0000
,
0010
0100
0001
1000
,
0001
0000
0000
0000
;

//---------------dance-single - ----------------
#NOTES:
     dance-single:
     :
     Medium:
     7:
     0.322177,0.386612,0.266946,0.147281,0.000000,200.000000,29.000000,16.000000,0.000000,0.000000,0.000000,0.322177,0.386612,0.266946,0.147281,0.000000,200.000000,29.000000,16.000000,0.000000,0.000000,0.000000:
0000
0000
0000
0000
,
0000
0000
0000
0000
,
0000
0000
0000
0000
,
0000
0000
0000
0000
,
1000
0010
0100
0001
,
1000
1000
0001
0001
,
1000
0100
0010
0001
,
0010
0010
0100
0100
,
0120
0000
0000
0000
,
0032
0000
0000
0000
,
2003
0000
0000
0000
,
3200
0000
0000
0000
,
1300
1000
0001
0001
,
0100
0100
0010
0010
,
1000
0010
0001
0010
,
1000
0000
0000
0000
,
1000
1000
1001
1001
,
0001
0001
1001
1001
,
0010
0010
0110
0110
,
0000
0100
0000
0010
0000
0100
0000
0010
,
1000
1000
1010
1010
,
0001
0001
0101
0101
,
1000
1000
1100
1100
,
0001
0001
0011
0011
,
0020
0032
0013
0010
,
0001
0000
1000
0000
0100
0100
0100
0000
,
2000
3100
0002
0103
,
2000
3010
0002
0013
,
0200
2300
3100
0100
,
1000
0000
0001
0000
0010
0010
0010
0000
,
0002
0013
2000
3010
,
0002
0103
2000
3100
,
1000
0000
0001
0000
0100
0010
1000
0000
,
0001
0010
0100
1000
,
0001
0000
0010
0000
0100
0010
0001
0000
,
1000
0000
0010
0000
0100
0001
0100
0000
,
0010
0010
0100
0100
,
0001
1000
0100
0000
1000
0001
0100
0000
,
0010
0010
1000
1000
,
1001
0000
0000
0000
,
0010
0010
1100
1100
,
0010
0010
0101
0101
,
1000
1000
1001
1001
,
0001
0010
0100
1000
,
0100
0100
0110
0110
,
0010
0010
0011
0011
,
0001
0001
1001
1001
,
1000
0010
0001
0100
,
1000
0010
0100
0100
,
0010
1000
0100
0100
,
0010
0001
0100
0100
,
0001
0100
0001
0000
0100
0001
0100
0000
,
0100
0010
1000
1000
,
0100
0010
0001
0001
,
1000
0100
1000
1000
,
0001
0100
0001
0001
,
1001
0000
0000
0000
;

//---------------dance-single - ----------------
#NOTES:
     dance-single:
     :
     Hard:
     10:
     0.403707,0.438160,0.395817,0.000000,0.000000,264.000000,43.000000,0.000000,0.000000,0.000000,0.000000,0.403707,0.438160,0.395817,0.000000,0.000000,264.000000,43.000000,0.000000,0.000000,0.000000,0.000000:
0000
0000
0000
0000
,
0000
0000
0000
0000
,
0000
0000
0000
0000
,
0000
0000
0000
0000
,
0000
1000
0000
0010
0000
0100
0000
0101
,
0000
0001
0000
0010
0000
0100
0000
1100
,
0000
1000
0000
0001
0000
0100
0000
0110
,
0000
1000
0000
0001
0000
0010
0000
0100
,
0100
0000
0000
0100
0000
0000
0000
0000
,
0010
0000
0000
0010
0000
0000
0000
0000
,
0001
0000
0000
0001
0000
0000
0000
0000
,
1000
0000
0000
1000
0000
0000
0000
0000
,
0001
0100
1000
0100
,
0001
0010
1000
0010
,
0100
0010
0100
0010
1000
0001
1000
0001
,
1001
0000
0000
0000
,
1010
1000
1010
0010
,
1000
0100
0010
0000
0001
0010
0100
0000
,
1100
0100
1100
1000
,
0001
0010
0100
1000
0001
0010
0100
1000
,
1001
1000
1001
0001
,
1001
0100
1001
0100
,
1001
0010
1001
0010
,
1000
0010
0100
0001
1000
0010
0100
0001
,
1000
1000
0001
1001
,
1000
0100
0010
0100
1000
0100
0010
0100
,
1000
1001
0001
1001
,
0001
0100
0010
0100
0001
0100
0010
0100
,
0001
0010
0001
0000
1000
0100
1000
0000
,
0010
0100
0010
0000
0100
0010
0100
0000
,
0010
1000
0010
0000
0100
0001
0100
0000
,
0001
0010
0100
1000
0100
0010
0001
0010
,
0011
0100
0100
0100
,
1010
0100
0100
0100
,
1000
0100
0010
0000
0001
0010
0100
0000
,
1000
0001
0100
0000
0001
1000
0100
0000
,
1001
0100
0010
1000
,
0001
0010
0100
1000
0010
1000
0100
0000
,
1001
1000
0010
0100
,
0001
0100
0010
0000
1000
0100
0010
0001
,
0101
0001
0101
0100
,
0001
0010
0100
0000
1000
0100
0010
0000
,
0011
0010
0011
0001
,
1000
0100
0010
0001
1000
0100
0010
0001
,
1001
0001
1001
1000
,
1001
0010
1001
0010
,
1001
0100
1001
0100
,
0001
0100
0010
1000
0001
0100
0010
1000
,
0001
0001
0001
0000
0011
0000
0011
0000
,
1000
1000
1000
0000
1100
0000
1100
0000
,
0100
0100
0100
0000
0110
0000
0110
0000
,
0001
0010
1000
0001
0100
1000
0001
1000
,
1000
1000
1000
0000
1100
0000
1100
0000
,
0001
0001
0001
0000
0011
0000
0011
0000
,
0010
0010
0010
0000
0110
0000
0110
0000
,
1000
0100
0001
1000
0010
0001
1000
0001
,
0001
0000
0000
0000
;
