#TITLE:Mirror Ball Pop;
#SUBTITLE:;
#ARTIST:Sota Fujimori;
#TITLETRANSLIT:;
#SUBTITLETRANSLIT:;
#ARTISTTRANSLIT:;
#GENRE:;
#CREDIT:Chewphoria~;
#MENUCOLOR:;
#METERTYPE:DDR;
#BANNER:Mirror Ball Pop.png;
#BACKGROUND:Mirror Ball Pop-bg.png;
#LYRICSPATH:;
#CDTITLE:;
#MUSIC:Mirror Ball Pop.mp3;
#OFFSET:-7.537;
#SAMPLESTART:14.678;
#SAMPLELENGTH:15.000;
#SELECTABLE:YES;
#LISTSORT:;
#BPMS:0.000=135.030;
#STOPS:;
#BGCHANGES:;
#ATTACKS:;

//---------------dance-single - Chewphoria~----------------
#NOTES:
     dance-single:
     Chewphoria~:
     Hard:
     10:
     0.481,0.439,0.388,0.038,0.019: // measure 1
1001
0000
0101
0000
,  // measure 2
1001
0000
1100
0000
,  // measure 3
0110
0000
0011
0000
,  // measure 4
0110
0000
1100
0000
,  // measure 5
1000
0100
1000
0100
0010
0100
0010
0100
,  // measure 6
0010
0001
0010
0001
0100
0001
0100
0001
,  // measure 7
0010
0100
0010
0100
0010
1000
0010
1000
,  // measure 8
0001
1000
0001
1000
0010
0100
0010
0100
,  // measure 9
0001
0100
0001
0100
0010
1000
0010
1000
,  // measure 10
0001
1000
0001
1000
0100
0010
0100
0010
,  // measure 11
0001
0010
0001
0010
0001
0100
0001
0100
,  // measure 12
1000
0100
1000
0100
1000
0001
1000
0001
,  // measure 13
0010
0100
0010
0100
0001
0100
0001
0100
,  // measure 14
0010
0100
0010
0100
0010
1000
0010
1000
,  // measure 15
0010
1000
0010
1000
0100
1000
0100
1000
,  // measure 16
1000
0100
1000
0100
0010
0001
0010
0001
,  // measure 17
0001
0010
0001
0010
0001
0100
0001
0100
,  // measure 18
0010
0100
0010
0100
0010
1000
0010
1000
,  // measure 19
1000
0010
1000
0010
1000
0010
1000
0100
,  // measure 20
0010
0001
0010
0001
0010
0100
0010
0100
,  // measure 21
1001
0100
0001
0010
,  // measure 22
1001
0010
0001
0100
,  // measure 23
1000
0100
1000
0000
1000
0010
1000
0000
,  // measure 24
0001
0010
0001
0000
0001
0100
0001
0000
,  // measure 25
0100
0010
1000
0001
0010
0000
0110
0000
,  // measure 26
0010
0100
0001
1000
0010
0000
0110
0000
,  // measure 27
0100
0001
0100
1000
0100
0000
1100
0000
,  // measure 28
1000
0010
0001
0010
1000
0010
0101
0000
,  // measure 29
0101
1010
1001
0000
,  // measure 30
1100
1001
0011
0000
,  // measure 31
1001
0110
1001
0000
,  // measure 32
1010
0101
1001
0000
,  // measure 33
1000
0010
1000
0010
1001
0000
0000
0000
,  // measure 34
0001
0010
0001
0010
0101
0000
0000
0000
,  // measure 35
0001
0000
0000
1000
0001
0000
0000
1000
0001
0000
0000
1000
0010
0000
1000
0000
,  // measure 36
0010
0010
0100
0100
0001
0100
0010
1000
,  // measure 37
1002
0000
0100
0000
0010
0000
1003
0100
,  // measure 38
2100
0000
0001
0000
0010
0000
3001
0100
,  // measure 39
0210
0000
0001
0000
0010
0000
0010
0010
,  // measure 40
0310
0000
0000
0000
;

//---------------dance-single - Chewphoria~----------------
#NOTES:
     dance-single:
     Chewphoria~:
     Medium:
     7:
     0.313,0.342,0.313,0.200,0.000: // measure 1
0101
0000
0100
0000
,  // measure 2
1100
0000
0100
0000
,  // measure 3
1001
0000
0001
0000
,  // measure 4
1001
0000
1000
0000
,  // measure 5
1000
0010
1000
0000
0010
0000
0010
0000
,  // measure 6
0001
0010
0001
0000
0010
0000
0010
0000
,  // measure 7
0001
0100
0001
0000
0100
0000
0100
0000
,  // measure 8
1000
0100
1000
0000
0100
0000
0100
0000
,  // measure 9
0001
1000
0001
0000
1000
0000
1000
0000
,  // measure 10
1000
0001
1000
0000
0001
0000
0001
0000
,  // measure 11
0100
0010
0100
0000
0010
0000
0010
0000
,  // measure 12
0010
0100
0010
0000
0100
0000
0100
0000
,  // measure 13
0202
0000
0000
0300
,  // measure 14
2000
0000
0000
3003
,  // measure 15
2020
0000
0000
0030
,  // measure 16
0002
0000
0000
3003
,  // measure 17
0202
0000
0000
0300
,  // measure 18
2000
0000
0000
3003
,  // measure 19
2020
0000
0000
0030
,  // measure 20
0002
0000
0000
3003
,  // measure 21
1100
0001
0101
1000
,  // measure 22
0010
0001
0100
1000
,  // measure 23
1000
1010
0001
0011
,  // measure 24
0010
1000
0100
0001
,  // measure 25
0010
0100
0010
0000
0100
0010
0100
0000
,  // measure 26
1000
0001
1000
0000
0001
1000
0001
0000
,  // measure 27
0100
0001
0100
0000
0100
1000
0100
0000
,  // measure 28
1000
0001
1000
0000
0001
1000
0001
0000
,  // measure 29
1001
0100
0100
0000
,  // measure 30
1001
0010
0010
0000
,  // measure 31
1100
0001
0001
0000
,  // measure 32
0101
1000
1000
0000
,  // measure 33
1010
0001
0001
0000
,  // measure 34
0011
1000
1000
0000
,  // measure 35
1001
0110
1001
0110
,  // measure 36
0001
0010
1000
0100
,  // measure 37
0012
0010
0010
0013
,  // measure 38
2100
0100
0100
3100
,  // measure 39
1002
1000
1000
2003
,  // measure 40
3000
0000
0000
0000
;

//---------------dance-single - Chewphoria~----------------
#NOTES:
     dance-single:
     Chewphoria~:
     Easy:
     5:
     0.206,0.244,0.088,0.163,0.000: // measure 1
1000
0000
0100
0000
,  // measure 2
0001
0000
0100
0000
,  // measure 3
1000
0000
0010
0000
,  // measure 4
0001
0000
0010
0000
,  // measure 5
2000
0000
0000
3000
,  // measure 6
2000
0000
0000
3000
,  // measure 7
0002
0000
0000
0003
,  // measure 8
0002
0000
0000
0003
,  // measure 9
0100
0010
0100
0100
,  // measure 10
0100
0010
0100
0100
,  // measure 11
0010
0100
0010
0010
,  // measure 12
0010
0100
0010
0010
,  // measure 13
2002
0000
0000
3003
,  // measure 14
1000
0000
0000
0000
,  // measure 15
0220
0000
0000
0330
,  // measure 16
0010
0000
0000
0000
,  // measure 17
2002
0000
0000
3003
,  // measure 18
0001
0000
0000
0000
,  // measure 19
0220
0000
0000
0330
,  // measure 20
0100
0000
0000
0000
,  // measure 21
1000
0010
0001
0000
,  // measure 22
0001
0100
1000
0000
,  // measure 23
1000
0100
0001
0000
,  // measure 24
0001
0010
1000
0000
,  // measure 25
1000
0001
1000
1000
,  // measure 26
0001
1000
0001
0001
,  // measure 27
0100
0010
0100
0000
,  // measure 28
0010
0100
0010
0000
,  // measure 29
1001
1000
0100
0000
,  // measure 30
1000
0001
0100
0000
,  // measure 31
1001
0001
0100
0000
,  // measure 32
0001
0100
1000
0000
,  // measure 33
1001
1000
0100
0000
,  // measure 34
1000
0100
0010
0000
,  // measure 35
1000
1000
0001
0001
,  // measure 36
0200
0000
0000
0300
,  // measure 37
0010
0010
0010
0010
,  // measure 38
1000
0000
0000
0000
,  // measure 39
0100
0100
0100
0100
,  // measure 40
0001
0000
0000
0000
;

//---------------dance-single - Chewphoria~----------------
#NOTES:
     dance-single:
     Chewphoria~:
     Beginner:
     1:
     0.131,0.195,0.100,0.000,0.000:
1000
0000
0000
0000
,
0001
0000
0000
0000
,
0010
0000
0000
0000
,
0100
0000
0000
0000
,
1000
1000
1000
0000
,
1000
0000
0000
0000
,
0001
0001
0001
0000
,
0001
0000
0000
0000
,
0010
0010
0010
0000
,
0010
0000
0000
0000
,
0100
0100
0100
0000
,
0100
0000
0000
0000
,
1000
0000
0000
0000
,
1001
0000
0000
0000
,
0001
0000
0000
0000
,
1001
0000
0000
0000
,
0100
0000
0000
0000
,
0110
0000
0000
0000
,
0010
0000
0000
0000
,
0110
0000
0000
0000
,
1000
1000
1000
0000
,
1000
0001
0000
0000
,
0001
0001
0001
0000
,
0001
1000
0000
0000
,
0100
0000
0010
0000
,
1000
0000
0100
0000
,
0010
0000
0100
0000
,
0001
0000
0010
0000
,
1001
0000
1000
0000
,
1000
0000
0000
0000
,
1001
0000
0001
0000
,
0001
0000
0000
0000
,
0110
0000
0100
0000
,
0010
0000
0000
0000
,
1000
1000
1000
0000
,
0001
1000
0001
0000
,
1001
0000
0000
0000
,
0100
0000
0000
0000
,
0010
0000
0000
0000
,
1000
0000
0000
0000
;
