#TITLE:Miracle Moon ~L.E.D.LIGHT STYLE MIX~;
#SUBTITLE:;
#ARTIST:Togo Project feat.Sana;
#TITLETRANSLIT:Miracle Moon (L.E.D.LIGHT STYLE MIX);
#SUBTITLETRANSLIT:;
#ARTISTTRANSLIT:;
#CREDIT:Chewi☆;
#BANNER:Miracle Moon ~L.E.D.LIGHT STYLE MIX~.png;
#BACKGROUND:Miracle Moon ~L.E.D.LIGHT STYLE MIX~-bg.png;
#LYRICSPATH:;
#CDTITLE:;
#MUSIC:Miracle Moon ~L.E.D.LIGHT STYLE MIX~.mp3;
#OFFSET:-1.235;
#SAMPLESTART:41.213;
#SAMPLELENGTH:15.000;
#SELECTABLE:YES;
#BPMS:0.000=138.000;
#STOPS:56.000=1.304
;
#BGCHANGES:;

//---------------dance-single - Chewi----------------
#NOTES:
     dance-single:
     Chewi:
     Easy:
     3:
     0.098,0.108,0.009,0.093,0.005: // measure 1
0000
0000
0000
0000
,  // measure 2
0000
0000
0000
0000
,  // measure 3
0010
0000
0000
0000
,  // measure 4
0100
0000
0000
0000
,  // measure 5
0010
0000
0000
0000
,  // measure 6
0100
0000
0000
0000
,  // measure 7
1000
0000
0000
0000
,  // measure 8
0100
0000
0000
0000
,  // measure 9
0001
0000
0000
0000
,  // measure 10
0100
0000
0000
0000
,  // measure 11
1000
0000
0000
0000
,  // measure 12
0010
0000
0000
0000
,  // measure 13
0001
0000
0000
0000
,  // measure 14
0010
0000
0000
0000
,  // measure 15
0000
0010
0000
0000
,  // measure 16
0000
0100
0000
0000
,  // measure 17
0000
0010
0000
0010
,  // measure 18
0000
0010
0000
0010
,  // measure 19
0000
2000
0000
0000
,  // measure 20
3000
0002
0000
0000
,  // measure 21
0003
2000
0000
0000
,  // measure 22
3000
1000
0000
0000
,  // measure 23
0000
0001
0000
0000
,  // measure 24
0000
0001
0000
0000
,  // measure 25
0000
1000
0000
0000
,  // measure 26
0000
1000
0000
0000
,  // measure 27
0000
0001
0000
0000
,  // measure 28
0000
1000
0000
0000
,  // measure 29
0000
0010
0000
0000
,  // measure 30
0000
0200
0000
0000
,  // measure 31
0000
0300
0000
0100
,  // measure 32
0000
0020
0000
0000
,  // measure 33
0000
0030
0000
0010
,  // measure 34
0000
0010
0000
0000
,  // measure 35
0000
0010
0000
0000
,  // measure 36
0000
0100
0000
0000
,  // measure 37
0000
0100
0000
0000
,  // measure 38
0000
0001
0000
0000
,  // measure 39
0000
0100
0000
0000
,  // measure 40
0000
1000
0000
0000
,  // measure 41
0000
0001
0000
0001
,  // measure 42
0000
0001
0000
0000
,  // measure 43
0000
1000
0000
1000
,  // measure 44
0000
1000
0000
0000
,  // measure 45
0000
0100
0000
0100
,  // measure 46
0000
0100
0000
0000
,  // measure 47
0000
0010
0000
0010
,  // measure 48
0000
0020
0000
0000
,  // measure 49
0030
0010
0000
0000
,  // measure 50
0000
0002
0000
0000
,  // measure 51
0003
0001
0000
0000
,  // measure 52
0000
0200
0000
0000
,  // measure 53
0300
0100
0000
0000
,  // measure 54
0000
0020
0000
0000
,  // measure 55
0030
0010
0000
0000
,  // measure 56
0000
0001
0000
0000
,  // measure 57
0000
1000
0000
0000
,  // measure 58
0000
0000
0000
0000
0000
0000
0000
0000
0000
0000
0000
0000
0000
0000
0000
0000
0000
0000
0000
0000
0000
0000
0000
0000
0000
0000
0000
0000
0000
0000
0000
0000
0000
0000
0000
0000
0000
0000
0000
0000
0000
0000
0000
0000
0000
0000
0000
0000
1001
2000
0000
0000
0000
0000
0000
0000
0000
0000
0000
0000
0000
0000
0000
0000
0000
0000
0000
0000
0000
0000
0000
0000
0000
0000
0000
0000
0000
0000
0000
0000
0000
0000
0000
0000
0000
0000
0000
0000
0000
0000
0000
0000
0000
0000
0000
0000
0000
0000
0000
0000
0000
0000
0000
0000
0000
0000
0000
0000
0000
0000
0000
0000
0000
0000
0000
0000
0000
0000
0000
0000
0000
0000
0000
0000
0000
0000
0000
0000
0000
0000
0000
0000
0000
0000
0000
0000
0000
0000
0000
0000
0000
0000
0000
0000
0000
0000
0000
0000
0000
0000
0000
0000
0000
0000
0000
0000
0000
0000
0000
0000
0000
0000
0000
0000
0000
0000
0000
0000
0000
0000
0000
0000
0000
0000
0000
0000
0000
0000
0000
0000
0000
0000
0000
0000
0000
0000
0000
0000
0000
0000
0000
0000
,  // measure 59
0000
3000
0000
0000
;

//---------------dance-single - Chewi----------------
#NOTES:
     dance-single:
     Chewi:
     Medium:
     6:
     0.241,0.246,0.056,0.120,0.005: // measure 1
0000
0000
0000
0000
,  // measure 2
0000
0000
0000
0000
,  // measure 3
2000
0000
0000
0000
,  // measure 4
3002
0000
0000
0000
,  // measure 5
0203
0000
0000
0000
,  // measure 6
0302
0000
0000
0000
,  // measure 7
1003
1000
1000
1000
,  // measure 8
0001
0001
0001
0001
,  // measure 9
0010
0100
0010
0100
,  // measure 10
0010
0001
0100
1000
,  // measure 11
0010
0010
0010
0010
,  // measure 12
0100
0100
0100
0100
,  // measure 13
0001
0100
0001
0100
,  // measure 14
0001
0010
0100
1000
,  // measure 15
0000
1001
0000
0000
,  // measure 16
0000
1001
0000
0000
,  // measure 17
0000
1001
0000
0110
,  // measure 18
0000
0100
0100
0010
,  // measure 19
0010
2000
0000
0001
,  // measure 20
0000
3002
0000
1000
,  // measure 21
0000
2003
0000
0100
,  // measure 22
0000
0200
0000
0000
,  // measure 23
3300
0100
0100
0010
,  // measure 24
0010
0001
0001
0010
,  // measure 25
0010
0001
0100
1000
,  // measure 26
0010
0000
0010
0001
,  // measure 27
0100
1000
0010
1000
,  // measure 28
0010
0100
0010
0100
,  // measure 29
0010
1000
0010
1000
,  // measure 30
0010
2000
0000
0000
,  // measure 31
0000
3000
1000
1000
,  // measure 32
0000
0002
0000
0000
,  // measure 33
0000
0003
0001
0001
,  // measure 34
0000
1000
0100
0010
,  // measure 35
0001
1000
0100
0010
,  // measure 36
0001
1000
0100
0001
,  // measure 37
0100
1000
0100
0001
,  // measure 38
0010
1000
0010
0001
,  // measure 39
0010
1000
0010
0001
,  // measure 40
0010
0010
0000
0010
,  // measure 41
0000
0010
0100
1000
,  // measure 42
0100
1000
0000
1000
,  // measure 43
0000
1000
0001
0100
,  // measure 44
0010
0100
0000
0100
,  // measure 45
0000
0100
0001
0010
,  // measure 46
0100
0010
0000
0010
,  // measure 47
0000
0010
0100
0010
,  // measure 48
0001
1000
0000
0001
,  // measure 49
0000
1000
0001
1000
,  // measure 50
1001
0010
0000
0100
,  // measure 51
0000
0010
0100
0010
,  // measure 52
0110
0100
0000
0001
,  // measure 53
0000
0001
0100
0001
,  // measure 54
0010
0100
0000
1000
,  // measure 55
0000
0010
1000
0100
,  // measure 56
1000
0020
0000
0000
,  // measure 57
0000
0230
0000
0000
,  // measure 58
0000
0000
0000
0000
0310
0000
0000
0000
0100
0000
0000
0000
0010
0000
0000
0010
,  // measure 59
0000
0020
0000
0000
0000
0000
0000
0000
,  // measure 60
0030
0000
0000
0000
;

//---------------dance-single - Chewi----------------
#NOTES:
     dance-single:
     Chewi:
     Hard:
     8:
     0.301,0.382,0.148,0.222,0.005:
0000
0000
0000
0000
,
0000
0000
0000
0000
,
2000
0000
0000
0000
,
3002
0000
0000
0000
,
0203
0000
0000
0000
,
0320
0000
0000
0000
,
0130
0000
0100
0000
0100
0100
0100
0000
,
0010
0000
0010
0000
0010
0010
0010
0000
,
1000
0000
1000
0000
1000
1000
1000
0000
,
0001
0000
0001
0000
0001
0001
0001
0000
,
1000
0000
0100
0000
1000
0100
1000
0000
,
0100
0000
0010
0000
0100
0010
0100
0000
,
0010
0000
0001
0000
0010
0001
0010
0000
,
0001
0000
1000
0000
0001
1000
0001
0000
,
0000
1001
0000
0000
,
0000
1001
0000
0000
,
0000
0110
0000
0110
,
0000
0010
1000
0100
,
0001
0020
0000
0000
,
0000
0230
0000
0000
,
0000
0302
0000
0000
,
0000
1003
0000
0000
,
0000
0000
1000
0000
0100
0000
0010
0001
,
0200
0301
0101
1000
,
1100
0000
0001
0000
0010
0000
0100
1000
,
0020
1030
1010
0001
,
0101
0000
0100
0000
0010
0000
0100
0001
,
0020
0000
0031
0000
0010
0000
0100
1000
,
0002
0000
1003
0000
0001
0000
1000
0001
,
0100
0010
0200
0000
0000
0000
0000
0000
,
0300
0010
0010
0000
,
0000
0020
0000
0000
,
0030
1000
1000
0000
,
0000
0000
1000
0100
1000
0000
0100
1000
,
0100
0000
1000
0100
0010
0001
0000
0010
,
0001
0011
0000
1100
,
0000
0101
0000
1010
,
0000
0100
0100
0010
,
0010
1000
1000
0001
,
0001
0020
0000
0032
,
0000
0000
0013
0100
1000
0000
0100
0000
,
1100
2000
0000
3200
,
0000
0000
1300
0010
0100
0000
0001
0000
,
0101
0200
0000
0320
,
0000
0000
0130
0010
1000
0000
0001
0000
,
1001
2000
0000
3002
,
0000
0000
0013
0001
0100
0000
0001
0000
,
0101
0100
0100
0100
,
0100
0010
0010
0010
,
0010
1000
0100
0001
,
0100
1000
0010
0001
,
0010
0100
0100
0100
,
0100
0001
0001
0001
,
0001
0010
1000
0010
,
0001
1000
0010
0001
,
0010
0200
0000
0000
,
0000
0320
0000
0000
,
0000
0000
0000
0000
0031
0000
0000
0000
1000
0000
0000
0000
0001
0000
0000
1000
,
0000
0001
2000
0000
0000
0000
0000
0000
,
3000
0000
0000
0000
;

//---------------dance-single - Chewi----------------
#NOTES:
     dance-single:
     Chewi:
     Beginner:
     1:
     0.073,0.081,0.019,0.000,0.000: // measure 1
0000
0000
0000
0000
,  // measure 2
0000
0000
0000
0000
,  // measure 3
1000
0000
0000
0000
,  // measure 4
0000
0000
0000
0000
,  // measure 5
0001
0000
0000
0000
,  // measure 6
0000
0000
0000
0000
,  // measure 7
0001
0000
0000
0000
,  // measure 8
0001
0000
0000
0000
,  // measure 9
0001
0000
0000
0000
,  // measure 10
0001
0000
0000
0000
,  // measure 11
1000
0000
0000
0000
,  // measure 12
1000
0000
0000
0000
,  // measure 13
1000
0000
0000
0000
,  // measure 14
1000
0000
0000
0000
,  // measure 15
0000
0010
0000
0000
,  // measure 16
0000
0010
0000
0000
,  // measure 17
0000
0010
0000
0000
,  // measure 18
0000
0010
0000
0000
,  // measure 19
0000
1000
0000
0000
,  // measure 20
0000
1000
0000
0000
,  // measure 21
0000
0001
0000
0000
,  // measure 22
0000
1000
0000
0000
,  // measure 23
0000
1000
0000
0000
,  // measure 24
0000
1000
0000
0000
,  // measure 25
0000
0001
0000
0000
,  // measure 26
0000
0001
0000
0000
,  // measure 27
0000
0010
0000
0000
,  // measure 28
0000
0010
0000
0000
,  // measure 29
0000
0010
0000
0000
,  // measure 30
0000
1001
0000
0000
,  // measure 31
0000
0000
0000
0000
,  // measure 32
0000
1001
0000
0000
,  // measure 33
0000
0000
0000
0000
,  // measure 34
0000
0010
0000
0000
,  // measure 35
0000
0010
0000
0000
,  // measure 36
0000
1000
0000
0000
,  // measure 37
0000
0001
0000
0000
,  // measure 38
0000
1000
0000
0000
,  // measure 39
0000
0001
0000
0000
,  // measure 40
0000
1000
0000
0000
,  // measure 41
0000
0010
0000
0000
,  // measure 42
0000
0010
0000
0000
,  // measure 43
0000
0001
0000
0000
,  // measure 44
0000
0010
0000
0000
,  // measure 45
0000
1000
0000
0000
,  // measure 46
0000
0010
0000
0000
,  // measure 47
0000
0001
0000
0000
,  // measure 48
0000
0001
0000
0000
,  // measure 49
0000
0001
0000
0000
,  // measure 50
0000
1000
0000
0000
,  // measure 51
0000
1000
0000
0000
,  // measure 52
0000
0001
0000
0000
,  // measure 53
0000
0001
0000
0000
,  // measure 54
0000
1000
0000
0000
,  // measure 55
0000
1000
0000
0000
,  // measure 56
0000
0001
0000
0000
,  // measure 57
0000
0010
0000
0000
,  // measure 58
0000
1000
0000
0000
,  // measure 59
0000
0010
0000
0000
;
