#TITLE:みんなのうた;
#SUBTITLE:;
#ARTIST:きゃりーぱみゅぱみゅ;
#TITLETRANSLIT:Minna no Uta;
#SUBTITLETRANSLIT:;
#ARTISTTRANSLIT:Kyarypamyupamyu;
#GENRE:J-Pop;
#CREDIT:chewi;
#BANNER:Minna no Uta.png;
#BACKGROUND:Minna no Uta-bg.png;
#LYRICSPATH:;
#CDTITLE:cdtitle.png;
#MUSIC:Minna no Uta.ogg;
#OFFSET:-0.019506;
#SAMPLESTART:66.488998;
#SAMPLELENGTH:15.000000;
#SELECTABLE:YES;
#DISPLAYBPM:130.000000;
#BPMS:0.000000=130.000000
;
#STOPS:
;
#BGCHANGES:;
#KEYSOUNDS:;
#ATTACKS:;

//---------------dance-single - ----------------
#NOTES:
     dance-single:
     :
     Beginner:
     2:
     0.106747,0.133069,0.000000,0.040944,0.000000,73.000000,73.000000,0.000000,4.000000,0.000000,0.000000,0.106747,0.133069,0.000000,0.040944,0.000000,73.000000,73.000000,0.000000,4.000000,0.000000,0.000000:
// measure 0
0000
0000
0000
0000
,  // measure 1
0000
0000
0000
0000
,  // measure 2
0000
0000
0000
0000
,  // measure 3
0000
0000
0000
0000
,  // measure 4
1000
0000
0000
0000
,  // measure 5
1000
0000
0000
0000
,  // measure 6
0001
0000
0000
0000
,  // measure 7
0001
0000
0000
0000
,  // measure 8
0100
0000
0000
0000
,  // measure 9
0100
0000
0000
0000
,  // measure 10
0010
0000
0000
0000
,  // measure 11
0010
0000
0000
0000
,  // measure 12
1000
0000
1000
0000
,  // measure 13
1000
0000
1000
0000
,  // measure 14
0001
0000
0001
0000
,  // measure 15
0001
0000
0001
0000
,  // measure 16
0010
0000
0010
0000
,  // measure 17
0010
0000
0010
0000
,  // measure 18
0100
0000
0100
0000
,  // measure 19
0100
0000
0100
0000
,  // measure 20
0200
0000
0000
0300
,  // measure 21
0100
0000
0000
0000
,  // measure 22
0020
0000
0000
0030
,  // measure 23
0010
0000
0000
0000
,  // measure 24
0002
0000
0000
0003
,  // measure 25
0001
0000
0000
0000
,  // measure 26
2000
0000
0000
3000
,  // measure 27
1000
0000
0000
0000
,  // measure 28
1000
0000
1000
0000
,  // measure 29
0010
0000
0010
0000
,  // measure 30
0001
0000
0001
0000
,  // measure 31
0100
0000
0100
0000
,  // measure 32
1000
0000
1000
0000
,  // measure 33
0100
0000
0100
0000
,  // measure 34
0001
0000
0001
0000
,  // measure 35
0010
0000
0010
0000
,  // measure 36
0010
0000
0000
0000
,  // measure 37
0100
0100
0100
0000
,  // measure 38
0100
0000
0000
0000
,  // measure 39
0010
0010
0010
0000
,  // measure 40
0001
0000
0000
0000
,  // measure 41
1000
1000
1000
0000
,  // measure 42
1000
0000
0000
0000
,  // measure 43
0001
0001
0001
0000
,  // measure 44
0001
0000
0000
0000
,  // measure 45
0001
0000
0000
0000
,  // measure 46
1000
0000
0000
0000
,  // measure 47
1000
0000
0000
0000
,  // measure 48
0010
0000
0000
0000
,  // measure 49
0010
0000
0000
0000
,  // measure 50
0100
0000
0000
0000
,  // measure 51
0100
0000
0000
0000
,  // measure 52
1000
0000
0000
0000
;

//---------------dance-single - ----------------
#NOTES:
     dance-single:
     :
     Hard:
     11:
     0.425527,0.505661,0.307081,0.204721,0.163777,291.000000,261.000000,30.000000,20.000000,33.000000,0.000000,0.425527,0.505661,0.307081,0.204721,0.163777,291.000000,261.000000,30.000000,20.000000,33.000000,0.000000:
// measure 0
0000
0000
0000
0000
,  // measure 1
0000
0000
0000
0000
,  // measure 2
0000
0000
0000
0000
,  // measure 3
0000
0000
0000
0000
,  // measure 4
0101
0000
0000
0010
0001
0010
0001
0000
,  // measure 5
0011
0000
0000
0100
1000
0100
1000
0000
,  // measure 6
1001
0000
0000
1000
0100
0010
0100
0000
,  // measure 7
1001
0000
0000
0001
0100
0010
0100
0000
,  // measure 8
0110
0000
0100
0010
1000
0010
1000
0000
,  // measure 9
0110
0000
0010
0100
0001
0100
0001
0000
,  // measure 10
0101
0000
1000
0100
0010
0001
0010
0000
,  // measure 11
1100
0000
0001
0100
0010
1000
0010
0000
,  // measure 12
M00M
0000
M000
0000
000M
M000
0M00
0000
,  // measure 13
1001
0000
1000
0000
0001
1000
0100
0000
,  // measure 14
M000
0M00
000M
0M00
M000
0M00
000M
0000
,  // measure 15
1000
0100
0001
0100
1000
0100
0001
0000
,  // measure 16
0M00
00M0
0M00
00M0
0M00
00M0
0M00
00M0
0M00
00M0
0000
0000
,  // measure 17
0100
0010
0100
0010
0100
0010
0100
0010
0100
0010
0000
0000
,  // measure 18
M000
000M
M000
000M
M000
000M
M000
000M
M000
000M
0000
0000
,  // measure 19
1000
0001
1000
0001
1000
0001
1000
0001
1000
0001
0000
0000
,  // measure 20
2000
3002
0203
0301
,  // measure 21
0001
0010
0100
1000
0100
0000
1100
0000
,  // measure 22
2000
3002
0023
0031
,  // measure 23
1000
0001
0100
0010
0100
0001
1000
0000
,  // measure 24
0020
0230
0302
1003
,  // measure 25
0001
1000
0100
1000
0001
0000
0101
0000
,  // measure 26
0010
0100
0001
1000
0001
0001
1000
1000
,  // measure 27
0001
0010
0100
1000
0100
0000
1100
1000
,  // measure 28
0002
2003
3020
1030
,  // measure 29
1000
0100
0010
0001
0010
0000
0011
0000
,  // measure 30
0002
2003
3200
1300
,  // measure 31
0001
1000
0010
0100
0010
1000
0001
0000
,  // measure 32
0200
0320
2030
3001
,  // measure 33
1000
0001
0010
0001
1000
0000
1010
0000
,  // measure 34
0100
0010
1000
0001
1000
1000
0001
0001
,  // measure 35
1000
0100
0010
0001
0010
0000
0011
0001
,  // measure 36
1001
0000
1000
0100
1100
0000
0001
0100
,  // measure 37
0101
1000
0010
0001
,  // measure 38
0011
0000
1000
0100
1100
0000
0001
0100
,  // measure 39
0101
1000
0010
0001
,  // measure 40
1001
0000
0010
0100
0110
0000
0100
0010
,  // measure 41
0110
1000
0001
0010
,  // measure 42
1001
0000
0001
1000
1100
0000
1000
0001
,  // measure 43
0101
0100
0010
1000
,  // measure 44
0001
1000
0001
0000
1000
1000
0100
0000
,  // measure 45
0010
0000
0000
0100
0000
0000
1000
0000
0001
0000
0000
0000
0100
0000
0110
0000
,  // measure 46
1000
0001
1000
0000
0001
0001
0100
0000
,  // measure 47
0100
0001
1000
0010
2000
0000
3002
0000
,  // measure 48
0103
0000
0010
0100
0010
0010
0100
0000
,  // measure 49
0010
0000
0000
0100
0000
0000
0001
0000
1000
0000
0000
0000
0001
0000
1001
0000
,  // measure 50
0001
0000
0100
0010
0100
0001
0100
0000
,  // measure 51
0001
1000
0001
1000
0001
1000
0001
1000
0001
1000
0000
0000
,  // measure 52
1001
0000
0000
0000
;

//---------------dance-single - ----------------
#NOTES:
     dance-single:
     :
     Easy:
     5:
     0.160852,0.186296,0.010236,0.000000,0.000000,110.000000,109.000000,1.000000,0.000000,0.000000,0.000000,0.160852,0.186296,0.010236,0.000000,0.000000,110.000000,109.000000,1.000000,0.000000,0.000000,0.000000:
// measure 0
0000
0000
0000
0000
,  // measure 1
0000
0000
0000
0000
,  // measure 2
0000
0000
0000
0000
,  // measure 3
0000
0000
0000
0000
,  // measure 4
1000
0000
0000
0000
,  // measure 5
1000
1000
1000
0000
,  // measure 6
0001
0000
0000
0000
,  // measure 7
0001
0001
0001
0000
,  // measure 8
0100
0000
0000
0000
,  // measure 9
0100
0100
0100
0000
,  // measure 10
0010
0000
0000
0000
,  // measure 11
0010
0010
0010
0000
,  // measure 12
1000
0000
1000
0000
,  // measure 13
1000
0001
1000
0000
,  // measure 14
0001
0000
0001
0000
,  // measure 15
0001
1000
0001
0000
,  // measure 16
0010
0000
0010
0000
,  // measure 17
0010
0100
0010
0000
,  // measure 18
0100
0000
0100
0000
,  // measure 19
0100
0010
0100
0000
,  // measure 20
1000
0000
0001
0000
,  // measure 21
1000
0000
0100
0000
,  // measure 22
1000
0000
0001
0000
,  // measure 23
1000
0000
0010
0000
,  // measure 24
1000
0000
0001
0000
,  // measure 25
0010
0000
0001
0000
,  // measure 26
1000
0000
0001
0000
,  // measure 27
0100
0000
0001
0000
,  // measure 28
0100
0000
0010
0000
,  // measure 29
1000
0000
0001
0000
,  // measure 30
0010
0000
0100
0000
,  // measure 31
1000
0000
0001
0000
,  // measure 32
1000
0000
0100
0000
,  // measure 33
0010
0000
0001
0000
,  // measure 34
1000
0000
0100
0000
,  // measure 35
0001
0000
0100
0000
,  // measure 36
0100
0000
0100
0000
,  // measure 37
0100
0100
0010
0000
,  // measure 38
0010
0000
0010
0000
,  // measure 39
0010
0010
0100
0000
,  // measure 40
0001
0000
1000
0000
,  // measure 41
0001
1000
0100
0000
,  // measure 42
1000
0000
0001
0000
,  // measure 43
1000
0001
0100
0000
,  // measure 44
0100
0000
0100
0000
,  // measure 45
0100
0100
0100
0000
,  // measure 46
0010
0000
0010
0000
,  // measure 47
0010
0010
0010
0000
,  // measure 48
1000
0000
1000
0000
,  // measure 49
1000
1000
1000
0000
,  // measure 50
0001
0000
0001
0000
,  // measure 51
0001
0001
0001
0000
,  // measure 52
1001
0000
0000
0000
;

//---------------dance-single - ----------------
#NOTES:
     dance-single:
     :
     Medium:
     7:
     0.279298,0.292751,0.133069,0.040944,0.000000,191.000000,178.000000,13.000000,4.000000,0.000000,0.000000,0.279298,0.292751,0.133069,0.040944,0.000000,191.000000,178.000000,13.000000,4.000000,0.000000,0.000000:
// measure 0
0000
0000
0000
0000
,  // measure 1
0000
0000
0000
0000
,  // measure 2
0000
0000
0000
0000
,  // measure 3
0000
0000
0000
0000
,  // measure 4
2000
0000
3001
1001
,  // measure 5
0002
0000
1003
1001
,  // measure 6
0200
0000
0310
0110
,  // measure 7
0020
0000
0130
0110
,  // measure 8
0100
0010
1000
1000
,  // measure 9
0010
0100
0001
0001
,  // measure 10
1000
0100
0010
0010
,  // measure 11
0001
0010
0100
0100
,  // measure 12
1000
0000
0001
0000
1000
0001
1000
0000
,  // measure 13
0001
0000
0001
0000
1000
0001
1000
0000
,  // measure 14
0001
0000
0100
0000
0001
1000
0100
0000
,  // measure 15
1000
0000
0001
0000
1000
0100
0010
0000
,  // measure 16
0001
0010
0100
1000
,  // measure 17
0001
0100
0010
1000
,  // measure 18
0001
0100
0010
0100
,  // measure 19
0001
1000
0100
0010
,  // measure 20
0100
0100
0100
0000
,  // measure 21
0010
0000
0100
1000
0010
0000
0000
0000
,  // measure 22
0100
0100
0100
0000
,  // measure 23
0100
0000
0001
0010
0100
0000
0000
0000
,  // measure 24
1000
0001
0100
0100
,  // measure 25
0001
1000
0010
0010
,  // measure 26
1000
0100
0001
0010
,  // measure 27
1000
0100
0001
0010
,  // measure 28
1000
0100
1000
0000
,  // measure 29
0001
0000
0100
0001
0100
0000
0000
0000
,  // measure 30
0100
0010
1000
0000
,  // measure 31
0001
0000
1000
0100
0010
0000
0000
0000
,  // measure 32
0001
0010
0100
0000
,  // measure 33
1000
0000
0100
1000
0100
0000
0000
0000
,  // measure 34
0001
1000
0010
0010
,  // measure 35
1000
0001
0100
0100
,  // measure 36
0101
0000
0101
0000
,  // measure 37
1000
0100
1000
0010
,  // measure 38
1100
0000
1100
0000
,  // measure 39
1000
0100
1000
0010
,  // measure 40
1010
0000
0011
0000
,  // measure 41
1000
0001
0100
0100
,  // measure 42
0110
0000
1001
0000
,  // measure 43
1000
0001
0100
0100
,  // measure 44
0010
0000
0000
0000
0010
1000
0010
0000
,  // measure 45
0100
0000
0000
0000
0100
0001
0100
0000
,  // measure 46
0001
0000
0000
0000
1000
0001
1000
0000
,  // measure 47
0001
0000
0000
0000
1000
0100
1000
0000
,  // measure 48
0001
0000
0000
0000
0010
0001
0010
0000
,  // measure 49
0100
0000
0000
0000
1000
0100
1000
0000
,  // measure 50
0001
0000
0000
0000
1000
0001
1000
0000
,  // measure 51
0010
0000
0100
0000
,  // measure 52
0110
0000
0000
0000
;
