#VERSION:0.83;
#TITLE:Milk Bath;
#SUBTITLE:;
#ARTIST:Petite Meller;
#TITLETRANSLIT:;
#SUBTITLETRANSLIT:;
#ARTISTTRANSLIT:;
#GENRE:Pop;
#ORIGIN:;
#CREDIT:chewi;
#BANNER:Milk Bath.png;
#BACKGROUND:Milk Bath-bg.png;
#PREVIEWVID:;
#JACKET:Milk Bath-jacket.png;
#CDIMAGE:;
#DISCIMAGE:;
#LYRICSPATH:;
#CDTITLE:cdtitle.png;
#MUSIC:Milk Bath.ogg;
#OFFSET:-0.078000;
#SAMPLESTART:33.401001;
#SAMPLELENGTH:15.000000;
#SELECTABLE:YES;
#DISPLAYBPM:50.000000:100.000000;
#BPMS:0.000=100.000,
101.000=50.000,
115.000=100.000;
#STOPS:20.000=1.800,
115.000=1.800;
#DELAYS:;
#WARPS:;
#TIMESIGNATURES:0.000=4=4;
#TICKCOUNTS:0.000=4;
#COMBOS:0.000=1;
#SPEEDS:0.000=1.000=0.000=0;
#SCROLLS:0.000=1.000;
#FAKES:;
#LABELS:0.000=Song Start;
#BGCHANGES:;
#KEYSOUNDS:;
#ATTACKS:
;

//---------------dance-single - ----------------
#NOTEDATA:;
#CHARTNAME:;
#STEPSTYPE:dance-single;
#DESCRIPTION:;
#CHARTSTYLE:;
#DIFFICULTY:Beginner;
#METER:1;
#RADARVALUES:0.036794,0.044268,0.000000,0.014309,0.000000,36.000000,36.000000,0.000000,2.000000,0.000000,0.000000,0.000000,0.000000,0.000000,0.036794,0.044268,0.000000,0.014309,0.000000,36.000000,36.000000,0.000000,2.000000,0.000000,0.000000,0.000000,0.000000,0.000000;
#CREDIT:;
#DISPLAYBPM:100.000000;
#NOTES:
// measure 0
0000
0000
0000
0000
,  // measure 1
0000
0000
0000
0000
,  // measure 2
1000
0000
0000
0000
,  // measure 3
0100
0000
0000
0000
,  // measure 4
0010
0000
0000
0000
,  // measure 5
0001
0001
0000
0000
,  // measure 6
0000
0010
0000
0000
,  // measure 7
0000
0100
0000
0000
,  // measure 8
0000
1000
0000
0000
,  // measure 9
0000
2000
0000
0000
,  // measure 10
3000
1000
0000
0000
,  // measure 11
0000
0002
0000
0000
,  // measure 12
0003
0001
0000
0000
,  // measure 13
0000
0100
0000
0100
,  // measure 14
0000
0100
0000
0100
,  // measure 15
0000
0010
0000
0010
,  // measure 16
0000
0010
0000
0010
,  // measure 17
0000
0100
0000
0100
,  // measure 18
0000
0100
0000
0100
,  // measure 19
0000
0010
0000
0010
,  // measure 20
0000
0010
0000
0010
,  // measure 21
0000
1000
0000
1000
,  // measure 22
0000
1000
0000
1000
,  // measure 23
0000
0001
0000
0001
,  // measure 24
0000
0001
0000
0001
;

//---------------dance-single - ----------------
#NOTEDATA:;
#CHARTNAME:;
#STEPSTYPE:dance-single;
#DESCRIPTION:;
#CHARTSTYLE:;
#DIFFICULTY:Easy;
#METER:3;
#RADARVALUES:0.119581,0.132088,0.000000,0.200323,0.000000,117.000000,117.000000,0.000000,28.000000,0.000000,0.000000,0.000000,0.000000,0.000000,0.119581,0.132088,0.000000,0.200323,0.000000,117.000000,117.000000,0.000000,28.000000,0.000000,0.000000,0.000000,0.000000,0.000000;
#CREDIT:;
#DISPLAYBPM:100.000000;
#NOTES:
// measure 0
0000
0000
0000
0000
,  // measure 1
0000
0000
0000
0000
,  // measure 2
1000
0000
0100
0000
,  // measure 3
0001
0000
0100
0000
,  // measure 4
1000
0000
0001
0000
,  // measure 5
1000
0001
0000
0010
,  // measure 6
0000
1000
0000
0010
,  // measure 7
0000
0001
0000
1000
,  // measure 8
0001
1000
0000
0001
,  // measure 9
0001
0100
0000
0100
,  // measure 10
0000
0010
0000
0010
,  // measure 11
0000
1000
0000
1000
,  // measure 12
0000
0001
0000
0001
,  // measure 13
0000
0002
0003
0001
,  // measure 14
0000
0020
0030
0010
,  // measure 15
0000
0002
0003
0001
,  // measure 16
0000
0010
0010
0100
,  // measure 17
0100
2000
3000
1000
,  // measure 18
0000
0200
0300
0100
,  // measure 19
0000
2000
3000
1000
,  // measure 20
0000
0100
0100
0010
,  // measure 21
0010
0002
0003
0001
,  // measure 22
0000
2000
3000
1000
,  // measure 23
0000
0002
0003
0001
,  // measure 24
0000
0100
0100
0100
,  // measure 25
0100
0100
0000
0010
,  // measure 26
0000
0100
0000
0010
,  // measure 27
0000
1000
0000
0001
,  // measure 28
0000
1000
0000
0001
,  // measure 29
0002
0000
0000
0003
,  // measure 30
0020
0000
0000
0030
,  // measure 31
0200
0000
0000
0300
,  // measure 32
2000
0000
0000
3000
,  // measure 33
0002
0003
0001
0000
,  // measure 34
0020
0030
0010
0000
,  // measure 35
0002
0003
0001
0000
,  // measure 36
0010
0010
0100
0100
,  // measure 37
2000
3000
1000
0000
,  // measure 38
0200
0300
0100
0000
,  // measure 39
2000
3000
1000
0000
,  // measure 40
0001
0001
1000
1000
,  // measure 41
2000
3000
1000
0000
,  // measure 42
0200
0300
0100
0000
,  // measure 43
2000
3000
1000
0000
,  // measure 44
0100
0100
0010
0010
,  // measure 45
0002
0003
0001
0000
,  // measure 46
0020
0030
0010
0000
,  // measure 47
0002
0003
0001
0000
,  // measure 48
0010
0010
0100
0100
,  // measure 49
2000
3000
1000
0000
,  // measure 50
0002
0003
0001
0000
,  // measure 51
2000
3000
1000
0000
,  // measure 52
0010
0010
0010
0010
;

//---------------dance-single - ----------------
#NOTEDATA:;
#CHARTNAME:;
#STEPSTYPE:dance-single;
#DESCRIPTION:;
#CHARTSTYLE:;
#DIFFICULTY:Medium;
#METER:6;
#RADARVALUES:0.212588,0.207567,0.014309,0.207478,0.000000,208.000000,206.000000,2.000000,29.000000,0.000000,0.000000,0.000000,0.000000,0.000000,0.212588,0.207567,0.014309,0.207478,0.000000,208.000000,206.000000,2.000000,29.000000,0.000000,0.000000,0.000000,0.000000,0.000000;
#CREDIT:;
#DISPLAYBPM:100.000000;
#NOTES:
// measure 0
0000
0000
0000
0000
,  // measure 1
0000
0000
0000
0000
,  // measure 2
2000
0000
3000
0000
1000
1000
1000
0000
,  // measure 3
0002
0000
0003
0000
0001
0001
0001
0000
,  // measure 4
0200
0000
0300
0000
0100
0100
0100
0000
,  // measure 5
0110
0000
0020
0000
0030
0000
0010
0010
,  // measure 6
0010
0000
2000
0000
3000
0000
1000
1000
,  // measure 7
1000
0000
0002
0000
0003
0000
0001
0001
,  // measure 8
0001
1001
1000
0001
,  // measure 9
0100
0000
0100
0000
0000
0100
0010
0000
,  // measure 10
0000
0010
1000
0000
0000
1000
0001
0000
,  // measure 11
0000
0001
0100
0000
0000
0100
0010
0000
,  // measure 12
0000
1000
0001
0000
1000
0000
0010
0000
,  // measure 13
0010
0001
0010
1000
,  // measure 14
0100
0001
0010
1000
,  // measure 15
0010
0001
0010
1000
,  // measure 16
0010
0000
0001
0000
0001
0000
1000
0001
,  // measure 17
1000
0001
0100
1000
,  // measure 18
0010
0001
0100
1000
,  // measure 19
0100
0001
0100
1000
,  // measure 20
0100
0000
0010
0000
0001
0000
1000
0100
,  // measure 21
1000
0100
0010
0100
,  // measure 22
0001
0100
0010
0100
,  // measure 23
1000
0000
0100
0000
0010
0000
0100
0100
,  // measure 24
0100
0000
0010
0000
0100
0000
0010
0010
,  // measure 25
0010
0020
0000
0230
,  // measure 26
0000
2300
0000
3002
,  // measure 27
0000
0203
0000
0320
,  // measure 28
0000
2030
0000
3000
,  // measure 29
0002
0203
0302
0203
,  // measure 30
0320
2030
3020
2030
,  // measure 31
3020
2030
3002
2003
,  // measure 32
3200
2300
3002
0023
,  // measure 33
1030
0100
0001
0010
,  // measure 34
1000
0100
0001
0100
,  // measure 35
1000
0100
0001
0100
,  // measure 36
1000
0000
1000
0000
0001
1000
0001
0000
,  // measure 37
1000
0010
0001
0100
,  // measure 38
1000
0010
0001
0010
,  // measure 39
1000
0010
0001
0010
,  // measure 40
0100
0000
1000
0000
0001
0010
0001
0000
,  // measure 41
0010
1000
0100
0001
,  // measure 42
0010
1000
0100
1000
,  // measure 43
0010
1000
0100
1000
,  // measure 44
0010
0000
0010
0000
0100
0010
0100
0000
,  // measure 45
0010
0001
0100
1000
,  // measure 46
0010
0001
0100
0001
,  // measure 47
0010
1000
0100
0001
,  // measure 48
0100
0000
1000
0000
0001
1000
0001
0000
,  // measure 49
1000
0000
1000
0000
0001
0100
0001
0000
,  // measure 50
0001
0000
0001
0000
1000
0010
1000
0000
,  // measure 51
1000
0100
0010
0001
,  // measure 52
0001
0010
0100
1000
;

//---------------dance-single - ----------------
#NOTEDATA:;
#CHARTNAME:;
#STEPSTYPE:dance-single;
#DESCRIPTION:;
#CHARTSTYLE:;
#DIFFICULTY:Hard;
#METER:10;
#RADARVALUES:0.316838,0.340460,0.050081,0.071544,0.075121,310.000000,303.000000,7.000000,10.000000,0.000000,0.000000,0.000000,0.000000,0.000000,0.316838,0.340460,0.050081,0.071544,0.075121,310.000000,303.000000,7.000000,10.000000,0.000000,0.000000,0.000000,0.000000,0.000000;
#CREDIT:;
#DISPLAYBPM:100.000000;
#NOTES:
// measure 0
0000
0000
0000
0000
,  // measure 1
0000
0000
0000
0000
,  // measure 2
1000
0000
0000
1000
0000
0000
0000
0000
1000
0000
0100
0000
0010
0000
0001
0000
,  // measure 3
0010
0000
0000
0010
0000
0000
0000
0000
0001
0000
0010
0000
0100
0000
1000
0000
,  // measure 4
0001
0000
0000
0001
0000
0000
0000
0000
1000
0000
0001
0000
0100
0000
0010
0000
,  // measure 5
0110
0000
0000
0000
0010
0000
0000
0010
0000
0000
0000
0000
0100
0000
0001
0000
,  // measure 6
1000
0000
0010
0000
1000
0000
0000
1000
0000
0000
0000
0000
0100
0000
1000
0000
,  // measure 7
0001
0000
0010
0000
0100
0000
0000
0100
0000
0000
0000
0000
1000
0000
0010
0000
,  // measure 8
0001
0000
1000
0000
0100
0000
0000
0100
0000
0000
0000
0000
0001
0000
1000
0000
,  // measure 9
0001
0000
1000
0000
0010
0000
0000
0010
0000
0000
0101
0000
0001
0000
0000
0001
,  // measure 10
0000
0000
0011
0000
0100
0000
0000
0100
0000
0000
1100
0000
1000
0000
0000
1000
,  // measure 11
0000
0000
1001
0000
0100
0000
0000
0100
0000
0000
0110
0000
0010
0000
0000
1000
,  // measure 12
0000
1001
0001
0010
0001
1000
0100
0000
,  // measure 13
0000
0000
1000
1000
0100
0000
1000
0001
,  // measure 14
0010
0000
0001
0001
0010
0000
0001
1000
,  // measure 15
0100
0000
1000
1000
0001
0000
0100
0010
,  // measure 16
1000
0000
0010
0100
0001
0010
0100
0001
,  // measure 17
0010
1000
0100
0100
1000
0000
1000
0001
,  // measure 18
0100
0000
0100
0100
0010
0000
1000
0010
,  // measure 19
1000
0000
0010
0010
0001
0000
0010
0100
,  // measure 20
1000
0000
0100
1000
0010
0100
1000
0010
,  // measure 21
0001
1000
0100
0010
0100
0000
0100
0010
,  // measure 22
0001
0000
0100
0010
0100
0000
0010
0100
,  // measure 23
0001
0000
1000
0100
0010
0000
0001
0010
,  // measure 24
0100
0000
1000
0100
1000
0100
0001
0100
,  // measure 25
0001
0100
0200
0000
0000
0000
0320
0000
,  // measure 26
0000
0032
0000
2003
,  // measure 27
0000
3002
0203
0302
,  // measure 28
2003
3020
2030
3001
,  // measure 29
0001
0000
0001
0000
0010
0100
1000
0000
,  // measure 30
0010
0000
0010
0000
0100
0001
1000
0000
,  // measure 31
1000
0000
1000
0000
0010
0100
0001
0000
,  // measure 32
0100
0000
0100
0000
0010
1000
0001
0000
,  // measure 33
0001
0001
0010
0000
0001
1000
0100
0000
,  // measure 34
1000
1000
0100
0000
1000
0001
0010
0000
,  // measure 35
0001
0001
1000
0000
0010
0100
0001
0000
,  // measure 36
0100
0010
1000
0100
0010
1000
0100
0001
,  // measure 37
0010
0010
0001
0000
0001
1000
0010
0000
,  // measure 38
0010
0010
0100
0000
0001
0100
0001
0000
,  // measure 39
0100
0100
1000
0000
0100
0010
0001
0000
,  // measure 40
0010
0001
0100
0010
0001
0100
1000
0010
,  // measure 41
0100
0100
0001
0000
0100
0010
1000
0000
,  // measure 42
0010
0010
1000
0000
0010
0100
0001
0000
,  // measure 43
0100
0100
0010
0000
1000
0001
0010
0000
,  // measure 44
0100
1000
0010
0001
0100
1000
0010
0100
,  // measure 45
0001
0001
0100
0000
0100
0010
1000
0000
,  // measure 46
1000
1000
0001
0000
0010
0100
0010
0000
,  // measure 47
0100
0100
1000
0000
1000
0001
0100
0000
,  // measure 48
0001
0100
1000
0010
0001
0100
1000
0100
,  // measure 49
0001
0000
0000
0100
0000
0000
0001
0000
1000
0000
0000
0100
0000
0000
1000
0000
,  // measure 50
0100
0000
0000
0010
0000
0000
0001
0000
0010
0000
0000
0100
0000
0000
1000
0000
,  // measure 51
0100
0000
0000
1000
0000
0000
0001
0000
1000
0000
0000
0001
0000
0000
0100
0000
,  // measure 52
0010
0000
0000
1000
0000
0000
0010
0000
0100
0000
0000
0001
0000
0000
0100
0000
;
