#TITLE:Midnight Tears (nuepic*hard Radio Edit);
#SUBTITLE:;
#ARTIST:cittan*;
#TITLETRANSLIT:;
#SUBTITLETRANSLIT:;
#ARTISTTRANSLIT:;
#GENRE:;
#CREDIT:Chewi☆;
#MENUCOLOR:;
#METERTYPE:DDR X;
#BANNER:Midnight Tears (nuepic-hard Radio Edit).png;
#BACKGROUND:Midnight Tears (nuepic-hard Radio Edit)-bg.png;
#LYRICSPATH:;
#CDTITLE:;
#MUSIC:Midnight Tears (nuepic-hard Radio Edit).mp3;
#OFFSET:-0.525;
#SAMPLESTART:58.854;
#SAMPLELENGTH:15.000;
#SELECTABLE:YES;
#LISTSORT:;
#DISPLAYBPM:140.000;
#BPMS:0.000=140.000;
#STOPS:64.000=3.000
,129.000=1.314
;
#BGCHANGES:;
#ATTACKS:;

//---------------dance-single - Chewi----------------
#NOTES:
     dance-single:
     Chewi:
     Beginner:
     3:
     0.129,0.179,0.074,0.105,0.000:
0000
0000
0000
0000
,
0000
0000
0000
0000
,
0000
0000
0000
0000
,
0000
0000
0000
0000
,
0010
0000
0000
0000
,
0010
0000
0000
0000
,
0100
0000
0000
0000
,
0100
0000
0000
0000
,
1000
0000
1000
0000
,
0001
0000
0001
0000
,
1000
0000
1000
0000
,
0001
0000
1000
0000
,
0020
0000
0000
0030
,
0020
0000
0000
0030
,
0200
0000
0000
0300
,
0200
0000
0000
0300
,
0110
2000
0000
0000
,
0000
3000
0000
0000
,
0000
0002
0000
0000
,
0000
0003
0000
0000
,
0000
0200
0000
0000
,
0000
0300
0000
0000
,
0000
0020
0000
0000
,
0000
0030
0000
0000
,
0000
0010
0000
1000
,
0000
0100
0000
0000
,
0000
0010
0000
0001
,
0000
0100
0000
0000
,
0000
1001
0000
0000
,
0000
0110
0000
0000
,
0000
1001
0000
0000
,
0000
0110
0000
0000
,
0000
1001
1000
0000
,
0001
0000
1000
1000
,
1000
0000
0001
0000
,
1000
0000
0001
0001
,
0001
0000
0100
0000
,
0010
0000
0100
0100
,
0100
0000
0010
0000
,
0100
0000
0010
0010
,
0010
0000
0010
0000
,
0010
0000
0100
0000
,
0100
0000
1000
0000
,
1000
0000
0001
0000
,
0001
0000
0200
0000
,
0300
0000
0020
0000
,
0030
0000
1000
1000
,
1000
1000
1000
0000
,
0001
0000
1001
0000
;

//---------------dance-single - Chewi----------------
#NOTES:
     dance-single:
     Chewi:
     Easy:
     5:
     0.241,0.255,0.042,0.242,0.000:
0000
0000
0000
0000
,
0000
0000
0000
0000
,
0000
0000
0000
0000
,
0000
0000
0000
0000
,
1000
0000
0100
0000
,
0001
0000
0010
0000
,
1000
0000
0010
0000
,
0001
0000
0100
0000
,
2000
0000
3200
0000
,
2300
0000
0001
3001
,
0002
0000
0203
0000
,
0302
0000
1000
1003
,
0010
0010
1000
1000
,
0100
0100
0001
0001
,
0010
0100
1000
0001
,
0100
0010
1000
0001
,
1001
2000
0000
0000
,
3000
1000
1000
0001
,
0001
0200
0000
0000
,
0300
0100
0100
0010
,
0010
0020
0000
0000
,
0030
0010
0010
1000
,
1000
2000
0000
0000
,
3000
1000
1000
0001
,
0001
1000
0100
0001
,
0100
1000
0100
0001
,
0100
1000
0001
1000
,
0000
0001
1000
0001
,
0000
1000
0010
0001
,
0010
1000
0010
0001
,
0010
1000
0001
1000
,
0000
0001
1000
0001
,
0000
0110
0020
0000
,
2030
0000
3001
0010
,
0100
1000
0200
0000
,
2300
0000
3010
0100
,
0001
0100
0020
0000
,
0230
0000
0301
0010
,
0100
1000
0200
0000
,
2300
0000
3010
1000
,
0001
1001
0020
0000
,
0230
0000
0301
0100
,
0010
1000
0002
0000
,
2003
0000
3001
0010
,
0100
1000
0100
0001
,
0010
0000
0010
1000
,
0100
0000
0100
0100
,
0010
0010
0002
0000
,
1003
0000
1001
0000
;

//---------------dance-single - Chewi----------------
#NOTES:
     dance-single:
     Chewi:
     Medium:
     7:
     0.331,0.332,0.168,0.137,0.000: // measure 1
0000
0000
0000
0000
,  // measure 2
0000
0000
0000
0000
,  // measure 3
0000
0000
0000
0000
,  // measure 4
0000
0000
0000
0000
,  // measure 5
2000
0000
3100
0000
1000
0001
0100
0000
,  // measure 6
0002
0103
0020
1030
,  // measure 7
2000
0000
3001
0000
1000
0100
0010
0000
,  // measure 8
0002
0013
0200
1300
,  // measure 9
0001
1000
0001
0000
1000
0000
1100
0000
,  // measure 10
1000
0001
0100
0010
,  // measure 11
1000
0010
0100
0000
0001
0000
0101
0000
,  // measure 12
1000
0100
0010
0100
,  // measure 13
1000
0100
1000
0000
0100
0000
0001
0000
,  // measure 14
0010
1000
0100
0010
,  // measure 15
0001
0010
0001
0000
0010
0000
0100
0000
,  // measure 16
1000
0001
1000
0010
,  // measure 17
0110
0000
0010
0000
0000
0100
0000
0000
,  // measure 18
0000
0010
0000
0000
1000
0100
0010
0000
,  // measure 19
0001
0000
1000
0000
0000
0001
0000
0000
,  // measure 20
0000
1000
0000
0000
1000
0010
0100
0000
,  // measure 21
0001
0000
1000
0000
0000
0010
0000
0000
,  // measure 22
0100
0000
0000
0000
0100
0010
1000
0000
,  // measure 23
0100
0000
0010
0000
0000
0001
0000
0000
,  // measure 24
0010
0000
0000
0000
1000
0010
0100
0000
,  // measure 25
0001
0100
0100
0001
,  // measure 26
0001
0010
0010
1000
,  // measure 27
1000
0000
0100
0000
0010
0000
0100
1000
,  // measure 28
0010
0000
0100
0000
0001
0000
0100
0010
,  // measure 29
0100
1001
0010
0010
,  // measure 30
0010
1001
0100
0100
,  // measure 31
0100
1001
0010
1001
,  // measure 32
0100
0001
0010
1000
,  // measure 33
0100
0001
0010
0100
,  // measure 34
0001
0100
0010
0000
1000
0000
1100
0000
,  // measure 35
0001
0101
1000
0010
,  // measure 36
0100
0001
0010
0000
0001
0000
0011
0000
,  // measure 37
1000
1100
0001
1000
,  // measure 38
0010
0100
0001
0000
0100
0000
0110
0000
,  // measure 39
0010
1010
1000
0100
,  // measure 40
0010
0100
1000
0000
0100
0000
1100
0000
,  // measure 41
1000
0000
1100
0000
0001
1000
0001
0000
,  // measure 42
1000
0010
0200
0301
,  // measure 43
0002
0000
1003
0000
0001
0010
0100
0000
,  // measure 44
1000
0010
2000
3100
,  // measure 45
0020
0000
0031
0000
1000
0100
1000
0100
,  // measure 46
1000
0000
0000
0000
0001
0100
0001
0100
,  // measure 47
0001
0000
0000
0000
0000
0010
0000
1000
,  // measure 48
0000
0100
0000
1000
0020
0000
2030
0000
,  // measure 49
3002
1003
1001
0000
;

//---------------dance-single - Chewi----------------
#NOTES:
     dance-single:
     Chewi:
     Hard:
     11:
     0.478,0.460,0.200,0.000,0.000:
0000
0000
0000
0000
,
0000
0000
0000
0000
,
0000
0000
0000
0000
,
0000
0000
0000
0000
,
1000
0100
0010
0100
1000
0000
1100
0000
,
0001
0100
0010
0100
0001
0000
0101
0000
,
0001
0010
1000
0100
0001
0000
0011
0000
,
0001
0100
1000
0010
0001
0000
0101
0000
,
0100
0010
0100
0010
1000
0001
1000
0001
,
1000
0100
0010
0000
0001
0010
0100
0000
,
1000
0100
1000
0100
1000
0010
1000
0010
,
1000
0010
0100
0000
0001
0100
0010
0000
,
1001
0000
1000
0000
1100
0000
0100
0010
,
0011
0000
0010
0000
1100
0000
0100
1000
,
1010
1000
0100
0000
0011
0001
0100
0000
,
0010
0010
0100
0100
0010
1000
0001
1000
,
0001
0000
1000
0100
0010
0001
0000
0010
,
0011
0000
0001
0010
0100
1000
0001
0010
,
0100
1000
0010
0100
0001
0100
0000
0001
,
0101
0000
0100
0001
0010
1000
0100
0001
,
0010
1000
0100
0010
0100
1000
0000
0010
,
1010
0000
1000
0100
0010
0001
1000
0100
,
0010
0001
1000
0010
0100
0001
0000
0001
,
0011
0000
0010
0100
1000
0001
0010
0001
,
0100
0010
0100
0100
0100
0000
0100
0010
,
0100
0000
0010
0010
0010
0000
0010
0100
,
0010
0000
1000
0100
0001
0000
0010
1000
,
0100
0000
0001
0010
1000
0000
0100
0001
,
0010
0000
1000
0100
0010
0100
1000
0100
,
0010
0100
1000
0010
0100
0010
1000
0010
,
0100
0010
1000
1000
0001
0001
0010
0010
,
0100
0100
1100
1000
0010
0000
0101
0100
,
0010
0000
0110
0000
1000
0010
1000
0100
,
1000
0010
1000
0100
0010
0001
0010
0000
,
0001
0010
0001
0000
0001
0100
0001
0010
,
0001
0100
0010
1000
0100
0010
0100
0000
,
0010
0100
0010
0000
0010
0100
1000
0001
,
0100
0010
1000
0001
1000
0010
1000
0000
,
0010
1000
0010
0000
1000
0010
0100
0001
,
1000
0100
0010
0001
0100
0001
0100
0000
,
0001
0100
0101
0000
0100
0010
1000
0001
,
0010
0100
1000
0010
1000
0100
1000
0000
,
0100
1000
0100
0000
1000
0100
0001
0010
,
1000
0100
0010
0001
0100
0001
0100
0000
,
0001
0100
0001
0000
0100
0100
0100
0000
,
0010
1000
0001
0000
1000
1000
1000
0000
,
0100
0010
0001
0000
1000
1000
1000
1000
,
0001
0001
0001
0001
0100
0010
0100
0000
,
0010
0100
0010
0000
0110
0000
0000
0000
;
