#VERSION:0.83;
#TITLE:Miami;
#SUBTITLE:;
#ARTIST:Will Smith;
#TITLETRANSLIT:;
#SUBTITLETRANSLIT:;
#ARTISTTRANSLIT:;
#GENRE:90s Rap-Pop;
#ORIGIN:;
#CREDIT:chewi;
#BANNER:Miami.png;
#BACKGROUND:Miami-bg.png;
#PREVIEWVID:;
#JACKET:Miami-jacket.png;
#CDIMAGE:;
#DISCIMAGE:;
#LYRICSPATH:;
#CDTITLE:cdtitle.png;
#MUSIC:Miami.ogg;
#OFFSET:-0.246984;
#SAMPLESTART:53.511002;
#SAMPLELENGTH:15.000000;
#SELECTABLE:YES;
#DISPLAYBPM:107.000000;
#BPMS:0.000=107.000,
2.000=110.429,
3.000=107.000,
4.000=108.119,
7.000=109.262,
10.000=107.000,
13.000=110.429,
14.000=107.000,
16.000=109.262,
17.000=107.000,
18.000=110.429,
19.000=107.000,
22.000=110.429,
23.000=107.000,
25.000=109.262,
26.000=107.000,
27.000=108.119,
28.000=110.429,
29.000=109.262,
30.000=107.000,
32.000=110.429,
33.000=107.000,
34.000=108.119,
35.000=107.000,
36.000=109.262,
37.000=107.000,
38.000=108.119,
39.000=107.000,
40.000=109.262,
41.000=108.119,
42.000=109.262,
43.000=108.119,
45.000=107.000,
46.000=110.429,
47.000=105.904,
48.000=109.843,
49.000=108.688,
50.000=107.837,
51.000=108.119,
55.000=108.403,
56.000=108.119,
58.000=107.837,
59.000=108.688,
60.000=108.119,
61.000=106.724,
62.000=109.262,
63.000=108.403,
64.000=108.119,
65.000=107.837,
66.000=108.403,
67.000=108.119,
68.000=107.837,
69.000=108.688,
70.000=107.837,
71.000=108.119,
72.000=107.837,
73.000=108.688,
74.000=107.837,
75.000=108.403,
76.000=107.837,
77.000=108.119,
79.000=108.688,
80.000=107.837,
81.000=107.000,
82.000=109.552,
83.000=108.119,
85.000=107.837,
86.000=108.119,
87.000=108.688,
88.000=107.837,
89.000=108.119,
90.000=108.403,
91.000=108.119,
93.000=107.837,
94.000=108.119,
96.000=108.403,
98.000=107.837,
99.000=108.119,
100.000=107.837,
101.000=108.403,
104.000=107.960,
105.000=108.119,
107.000=108.261,
108.000=107.978,
109.000=108.403,
110.000=107.837,
111.000=106.862,
112.000=109.407,
113.000=108.545,
114.000=107.837,
115.000=108.403,
116.000=108.261,
117.000=107.000,
118.000=108.831,
119.000=108.688,
120.000=107.978,
121.000=108.403,
122.000=108.119,
123.000=108.261,
124.000=107.837,
125.000=108.403,
126.000=107.978,
127.000=108.261,
128.000=107.837,
129.000=108.545,
130.000=107.978,
131.000=108.261,
132.000=108.119,
134.000=107.978,
135.000=108.403,
136.000=107.978,
137.000=108.403,
138.000=108.119,
139.000=108.403,
140.000=107.837,
141.000=108.545,
142.000=107.837,
143.000=106.862,
144.000=109.262,
145.000=107.278,
146.000=109.262,
147.000=107.000,
148.000=109.407,
149.000=108.545,
150.000=107.557,
151.000=107.139,
152.000=109.552,
153.000=106.862,
154.000=109.407,
155.000=106.724,
156.000=109.697,
157.000=107.000,
158.000=109.407,
159.000=107.000;
#STOPS:;
#DELAYS:;
#WARPS:;
#TIMESIGNATURES:0.000=4=4;
#TICKCOUNTS:0.000=4;
#COMBOS:0.000=1;
#SPEEDS:0.000=1.000=0.000=0;
#SCROLLS:0.000=1.000;
#FAKES:;
#LABELS:0.000=Song Start;
#BGCHANGES:-0.492=Miami.avi=1.000=1=0=0=StretchNoLoop==CrossFade==,
160.000=Miami-bg.png=1.000=1=0=1===CrossFade==,
99999=-nosongbg-=1.000=0=0=0 // don't automatically add -songbackground-
;
#KEYSOUNDS:;
#ATTACKS:
;

//---------------dance-single - ----------------
#NOTEDATA:;
#CHARTNAME:;
#STEPSTYPE:dance-single;
#DESCRIPTION:;
#CHARTSTYLE:;
#DIFFICULTY:Beginner;
#METER:1;
#RADARVALUES:0.064277,0.111799,0.000000,0.098768,0.000000,41.000000,41.000000,0.000000,9.000000,0.000000,0.000000,0.000000,0.000000,0.000000,0.064277,0.111799,0.000000,0.098768,0.000000,41.000000,41.000000,0.000000,9.000000,0.000000,0.000000,0.000000,0.000000,0.000000;
#CREDIT:;
#DISPLAYBPM:0.000000:107.000000;
#NOTES:
// measure 0
0000
0000
0000
0000
,  // measure 1
0000
0000
0000
0000
,  // measure 2
0000
0000
0000
0000
,  // measure 3
0000
0000
0000
0000
,  // measure 4
1000
0000
0000
0000
,  // measure 5
0100
0000
0000
0000
,  // measure 6
1000
0000
0000
0000
,  // measure 7
0010
0000
0000
0000
,  // measure 8
0001
0000
0000
0000
,  // measure 9
0010
0000
0000
0000
,  // measure 10
0001
0000
0000
0000
,  // measure 11
0100
0000
0000
0000
,  // measure 12
1000
0000
0000
0000
,  // measure 13
0100
0000
0000
0000
,  // measure 14
1000
0000
0000
0000
,  // measure 15
0010
0000
0000
0000
,  // measure 16
0010
0000
0000
0000
,  // measure 17
0100
0000
0000
0000
,  // measure 18
0001
0000
0000
0000
,  // measure 19
1000
0000
0000
0000
,  // measure 20
0100
0000
0000
0000
,  // measure 21
0010
0000
0000
0000
,  // measure 22
0001
0000
0000
0000
,  // measure 23
1000
0000
0000
0000
,  // measure 24
0002
0000
0000
0003
,  // measure 25
0001
0000
0000
0000
,  // measure 26
2000
0000
0000
3000
,  // measure 27
1000
0000
0000
0000
,  // measure 28
0020
0000
0000
0030
,  // measure 29
0010
0000
0000
0000
,  // measure 30
0200
0000
0000
0300
,  // measure 31
0100
0000
0000
0000
,  // measure 32
0100
0000
0100
0000
,  // measure 33
0010
0000
0010
0000
,  // measure 34
2000
0000
0000
3000
,  // measure 35
0002
0000
0000
0003
,  // measure 36
1000
0000
1000
0000
,  // measure 37
0001
0000
0001
0000
,  // measure 38
0020
0000
0000
0030
,  // measure 39
0200
0000
0000
0300
,  // measure 40
0020
0000
0000
0030
;

//---------------dance-single - ----------------
#NOTEDATA:;
#CHARTNAME:;
#STEPSTYPE:dance-single;
#DESCRIPTION:;
#CHARTSTYLE:;
#DIFFICULTY:Hard;
#METER:8;
#RADARVALUES:0.348038,0.380118,0.142664,0.065845,0.010974,222.000000,209.000000,13.000000,6.000000,0.000000,0.000000,0.000000,0.000000,0.000000,0.348038,0.380118,0.142664,0.065845,0.010974,222.000000,209.000000,13.000000,6.000000,0.000000,0.000000,0.000000,0.000000,0.000000;
#CREDIT:;
#DISPLAYBPM:0.000000:107.000000;
#NOTES:
// measure 0
0000
0000
0000
0000
,  // measure 1
0000
0000
0000
0000
,  // measure 2
0000
0000
0000
0000
,  // measure 3
0000
0000
0000
0000
,  // measure 4
2000
0000
3100
0000
1000
1000
0100
0000
,  // measure 5
0002
0000
0103
0000
0001
0001
0100
0000
,  // measure 6
2000
0000
3010
0000
1000
1000
0010
0000
,  // measure 7
0002
0000
0013
0000
0001
0001
0010
0000
,  // measure 8
0001
0010
0001
0000
1000
0000
1100
0000
,  // measure 9
1000
0000
0001
0000
0100
0010
1000
0000
,  // measure 10
0001
0100
0001
0000
1000
0000
1100
0000
,  // measure 11
1000
0000
0100
0000
0010
0100
1000
0001
,  // measure 12
0100
0001
0100
0000
0001
0000
1001
0000
,  // measure 13
1000
0000
0100
0000
0010
0001
1000
0000
,  // measure 14
0001
0100
0001
0000
0100
0000
0110
0000
,  // measure 15
0010
0000
1000
0000
0001
0010
0100
0010
,  // measure 16
0100
1000
0100
0000
1000
0000
1100
0000
,  // measure 17
0001
0000
1000
0000
0010
0100
0001
0000
,  // measure 18
1000
0010
1000
0000
0001
0000
0011
0000
,  // measure 19
0001
0000
0010
0000
0100
0010
0001
1000
,  // measure 20
0010
1000
0010
0000
1000
0000
1001
0000
,  // measure 21
0001
0000
0010
0000
0100
1000
0001
0000
,  // measure 22
1000
0010
1000
0000
0010
0000
0110
0000
,  // measure 23
0100
0000
0001
0000
1000
0100
0010
0100
,  // measure 24
1000
0010
0001
0000
1000
0000
1001
0000
,  // measure 25
0001
0010
1000
0000
0001
0000
1001
0000
,  // measure 26
1000
0000
0100
0000
0010
0000
0001
0000
1000
0000
0100
0000
1000
0000
0000
1000
,  // measure 27
0001
0010
0100
1000
0001
0010
0000
0000
,  // measure 28
1000
0100
0001
0000
1000
0000
1001
0000
,  // measure 29
0001
0100
1000
0000
0001
0000
1001
0000
,  // measure 30
1000
0010
0100
0001
1000
0100
0000
0000
,  // measure 31
1000
0001
0010
0100
1000
0010
0000
0000
,  // measure 32
1000
0010
1000
0010
0100
0010
0100
0010
,  // measure 33
1000
0010
1000
0010
0100
0010
0100
0010
,  // measure 34
1000
0000
0100
0000
0010
0000
0001
0000
1000
0000
0001
0000
1000
0000
0000
1000
,  // measure 35
0001
0010
0100
1000
0001
1000
0000
0000
,  // measure 36
0001
0100
0001
0100
0010
0100
0010
0100
,  // measure 37
0001
0100
0001
0100
0010
0100
0010
0100
,  // measure 38
0100
0010
0100
0001
1000
0010
0000
0000
,  // measure 39
1000
0100
0010
0001
1000
0100
0000
0000
,  // measure 40
2002
0000
0000
3003
;

//---------------dance-single - ----------------
#NOTEDATA:;
#CHARTNAME:;
#STEPSTYPE:dance-single;
#DESCRIPTION:;
#CHARTSTYLE:;
#DIFFICULTY:Easy;
#METER:3;
#RADARVALUES:0.141097,0.178879,0.010974,0.021948,0.000000,90.000000,89.000000,1.000000,2.000000,0.000000,0.000000,0.000000,0.000000,0.000000,0.141097,0.178879,0.010974,0.021948,0.000000,90.000000,89.000000,1.000000,2.000000,0.000000,0.000000,0.000000,0.000000,0.000000;
#CREDIT:;
#DISPLAYBPM:0.000000:107.000000;
#NOTES:
// measure 0
0000
0000
0000
0000
,  // measure 1
0000
0000
0000
0000
,  // measure 2
0000
0000
0000
0000
,  // measure 3
0000
0000
0000
0000
,  // measure 4
1000
0000
1000
0000
,  // measure 5
0100
0100
0100
0000
,  // measure 6
0001
0000
0001
0000
,  // measure 7
0100
0100
0100
0000
,  // measure 8
0010
0000
1000
0000
,  // measure 9
0010
0000
1000
0000
,  // measure 10
0001
0000
0100
0000
,  // measure 11
0001
0000
0100
0000
,  // measure 12
0010
0000
1000
0000
,  // measure 13
0001
0000
0010
0000
,  // measure 14
0100
0000
1000
0000
,  // measure 15
0001
0000
0010
0000
,  // measure 16
0001
0000
0010
0000
,  // measure 17
0001
0001
0001
0000
,  // measure 18
1000
0000
0100
0000
,  // measure 19
1000
1000
1000
0000
,  // measure 20
0001
0000
1000
0000
,  // measure 21
0001
0001
0001
0000
,  // measure 22
0001
0000
1000
0000
,  // measure 23
1000
1000
1000
0000
,  // measure 24
1000
0000
0010
0000
,  // measure 25
0100
0000
1000
0000
,  // measure 26
0010
0000
0010
0000
,  // measure 27
0010
0010
0010
0000
,  // measure 28
0100
0000
0001
0000
,  // measure 29
0010
0000
0100
0000
,  // measure 30
0001
0000
0010
0000
,  // measure 31
0010
0010
0010
0000
,  // measure 32
0100
0010
0100
0000
,  // measure 33
0100
0100
0100
0000
,  // measure 34
0010
0100
0010
0000
,  // measure 35
0010
0010
0010
0000
,  // measure 36
1000
0001
1000
0000
,  // measure 37
0001
0001
0001
0000
,  // measure 38
1000
0001
1000
0000
,  // measure 39
1000
1000
1000
0000
,  // measure 40
2002
0000
0000
3003
;

//---------------dance-single - ----------------
#NOTEDATA:;
#CHARTNAME:;
#STEPSTYPE:dance-single;
#DESCRIPTION:;
#CHARTSTYLE:;
#DIFFICULTY:Medium;
#METER:5;
#RADARVALUES:0.249271,0.245959,0.054871,0.021948,0.000000,159.000000,154.000000,5.000000,2.000000,0.000000,0.000000,0.000000,0.000000,0.000000,0.249271,0.245959,0.054871,0.021948,0.000000,159.000000,154.000000,5.000000,2.000000,0.000000,0.000000,0.000000,0.000000,0.000000;
#CREDIT:;
#DISPLAYBPM:0.000000:107.000000;
#NOTES:
// measure 0
0000
0000
0000
0000
,  // measure 1
0000
0000
0000
0000
,  // measure 2
0000
0000
0000
0000
,  // measure 3
0000
0000
0000
0000
,  // measure 4
1000
0100
0010
0100
,  // measure 5
1000
0100
1000
1100
,  // measure 6
0001
0100
0010
0100
,  // measure 7
0001
0100
0001
0101
,  // measure 8
1000
0001
0010
0010
,  // measure 9
0001
1000
0100
0100
,  // measure 10
1000
0001
0100
0100
,  // measure 11
0001
1000
0010
0010
,  // measure 12
1000
0010
0100
0100
,  // measure 13
0010
1000
0100
0100
,  // measure 14
0010
0001
0100
0100
,  // measure 15
0001
0010
0100
0100
,  // measure 16
1000
0100
1000
0000
1000
0000
1000
0000
,  // measure 17
0001
0100
0001
0000
0001
0000
0001
0000
,  // measure 18
0100
0010
0100
0000
0010
0000
0010
0000
,  // measure 19
0010
0100
0010
0000
0100
0000
0100
0000
,  // measure 20
1000
0100
0010
0100
,  // measure 21
1000
0001
0010
0100
,  // measure 22
0010
0001
0100
0010
,  // measure 23
1000
0000
0001
0000
1000
0001
1000
0000
,  // measure 24
1001
1000
0100
1000
,  // measure 25
0001
1000
0100
1000
,  // measure 26
0001
0000
1000
0000
0001
0001
0000
0000
,  // measure 27
0001
0000
1000
1000
1000
0000
1100
0000
,  // measure 28
0001
1000
0010
0100
,  // measure 29
0010
1000
0001
0010
,  // measure 30
0100
0000
0010
0000
0100
0100
0000
0000
,  // measure 31
0100
0000
0010
0000
0010
0010
0010
0000
,  // measure 32
0001
0010
0100
1000
,  // measure 33
0001
0010
0100
1000
,  // measure 34
0001
0000
1000
0000
0001
0001
0000
0000
,  // measure 35
1000
0000
1000
1000
1000
0000
1000
0000
,  // measure 36
1000
0001
0100
0010
,  // measure 37
0100
0001
1000
0100
,  // measure 38
0010
0000
0100
0000
0010
0010
0000
0000
,  // measure 39
0100
0000
0010
0000
0100
0100
0100
0000
,  // measure 40
0220
0000
0000
0330
;
