#TITLE:み;
#SUBTITLE:;
#ARTIST:きゃりーぱみゅぱみゅ;
#TITLETRANSLIT:Mi;
#SUBTITLETRANSLIT:;
#ARTISTTRANSLIT:Kyarypamyupamyu;
#GENRE:Harajuku Electropop;
#CREDIT:chewi;
#BANNER:Mi.png;
#BACKGROUND:Mi-bg.png;
#LYRICSPATH:;
#CDTITLE:cdtitle.png;
#MUSIC:Mi.ogg;
#OFFSET:0.000000;
#SAMPLESTART:6.877000;
#SAMPLELENGTH:15.000000;
#SELECTABLE:YES;
#BPMS:0.000000=140.000000
;
#STOPS:
;
#BGCHANGES:;
#KEYSOUNDS:;
#ATTACKS:;

//---------------dance-single - ----------------
#NOTES:
     dance-single:
     :
     Beginner:
     2:
     0.150957,0.139857,0.041439,0.124318,0.000000,86.000000,4.000000,12.000000,0.000000,0.000000,0.000000,0.150957,0.139857,0.041439,0.124318,0.000000,86.000000,4.000000,12.000000,0.000000,0.000000,0.000000:
// measure 0
0000
0000
0000
0000
,  // measure 1
0000
0000
0000
0000
,  // measure 2
0000
0000
0000
0000
,  // measure 3
0000
0000
0000
0000
,  // measure 4
2000
0000
0000
3000
,  // measure 5
2000
0000
0000
3000
,  // measure 6
1000
0000
1000
0000
,  // measure 7
1000
1000
1000
0000
,  // measure 8
0002
0000
0000
0003
,  // measure 9
0002
0000
0000
0003
,  // measure 10
0001
0000
0001
0000
,  // measure 11
0001
0001
0001
0000
,  // measure 12
0010
0000
0010
0000
,  // measure 13
0010
0000
0010
0000
,  // measure 14
0100
0000
0100
0000
,  // measure 15
0100
0000
0100
0000
,  // measure 16
1000
0000
1000
0000
,  // measure 17
1000
0000
1000
0000
,  // measure 18
0001
0000
0001
0000
,  // measure 19
0001
0000
0001
0000
,  // measure 20
0000
0000
0000
0000
,  // measure 21
1000
1000
1000
0000
,  // measure 22
1000
0000
0000
0000
,  // measure 23
0010
0010
0010
0000
,  // measure 24
0010
0000
0000
0000
,  // measure 25
0001
0001
0001
0000
,  // measure 26
0001
0000
0000
0000
,  // measure 27
0100
0100
0100
0000
,  // measure 28
0100
0000
0000
0000
,  // measure 29
0110
0000
0000
0000
,  // measure 30
0110
0000
0000
0000
,  // measure 31
0010
0000
0010
0000
,  // measure 32
0010
0000
0000
0000
,  // measure 33
1001
0000
0000
0000
,  // measure 34
1001
0000
0000
0000
,  // measure 35
1000
0000
1000
0000
,  // measure 36
1000
0000
0000
0000
,  // measure 37
0002
0000
0000
0003
,  // measure 38
0002
0000
0000
0003
,  // measure 39
0001
0000
0001
0000
,  // measure 40
0001
0001
0001
0000
,  // measure 41
2000
0000
0000
3000
,  // measure 42
2000
0000
0000
3000
,  // measure 43
1000
0000
1000
0000
,  // measure 44
1000
1000
1000
0000
,  // measure 45
0020
0000
0000
0030
,  // measure 46
0020
0000
0000
0030
,  // measure 47
0010
0000
0010
0000
,  // measure 48
0010
0010
0010
0000
,  // measure 49
0200
0000
0000
0300
,  // measure 50
0200
0000
0000
0300
,  // measure 51
0100
0000
0100
0000
,  // measure 52
0100
0100
0100
0000
,  // measure 53
0010
0000
0000
0000
,  // measure 54
0010
0000
0000
0000
;

//---------------dance-single - ----------------
#NOTES:
     dance-single:
     :
     Easy:
     5:
     0.224956,0.195800,0.051799,0.000000,0.000000,147.000000,5.000000,0.000000,0.000000,0.000000,0.000000,0.224956,0.195800,0.051799,0.000000,0.000000,147.000000,5.000000,0.000000,0.000000,0.000000,0.000000:
0000
0000
0000
0000
,
0000
0000
0000
0000
,
0000
0000
0000
0000
,
0000
0000
0000
0000
,
1000
1000
1000
0000
,
0001
0100
0001
0000
,
0001
0001
0001
0000
,
1000
0010
1000
0000
,
0010
0010
0010
0000
,
0010
0100
0001
0000
,
0100
0100
0100
0000
,
0100
0010
1000
0000
,
1001
0000
1000
0000
,
0001
1000
0100
0000
,
1001
0000
0001
0000
,
1000
0001
0010
0000
,
0110
0000
0100
0000
,
0010
0100
1000
0000
,
0110
0000
0100
0000
,
0100
0010
0001
0000
,
0001
0000
0000
0000
,
0001
0100
1000
0000
,
1000
0010
0001
0000
,
0001
0010
1000
0100
,
0001
0010
1000
0000
,
1000
0010
0001
0000
,
0001
0100
1000
0000
,
1000
0010
0001
0100
,
1000
0010
0001
0010
,
0010
0000
0010
0000
,
0010
0000
0010
0100
,
1000
0000
1000
0000
,
1000
0000
1000
0001
,
0100
0000
0100
0000
,
0100
0000
0100
0010
,
1000
0000
1000
0000
,
0001
0001
0001
0000
,
0001
1000
0001
0000
,
1000
0100
1000
0000
,
1000
0001
1000
0000
,
1000
0010
1000
0000
,
0001
0100
0001
0000
,
0100
0010
0100
0000
,
0100
0001
0100
0000
,
0010
0100
0010
0000
,
0010
1000
0100
0000
,
0010
0001
0100
0000
,
0010
0100
0001
0010
,
0100
1000
0010
0000
,
0010
1000
0100
0000
,
0010
0001
0100
0000
,
0100
0010
1000
0001
,
1000
0010
0100
0000
,
0100
0100
0100
0100
,
0110
0000
0000
0000
;

//---------------dance-single - ----------------
#NOTES:
     dance-single:
     :
     Medium:
     7:
     0.406992,0.447543,0.258995,0.466191,0.000000,205.000000,25.000000,45.000000,0.000000,0.000000,0.000000,0.406992,0.447543,0.258995,0.466191,0.000000,205.000000,25.000000,45.000000,0.000000,0.000000,0.000000:
0000
0000
0000
0000
,
0000
0000
0000
0000
,
0000
0000
0000
0000
,
0000
0000
0000
0000
,
2000
3002
2003
3000
,
0001
1000
0001
0000
1000
0000
0000
0000
,
0001
0000
1000
0001
1000
0000
0001
0000
,
1000
0001
1000
0000
1001
0000
0000
0000
,
0200
0320
0230
0300
,
0010
0100
0010
0000
0100
0000
0000
0000
,
0010
0000
0100
0000
0010
0100
0010
0000
,
0100
0000
0010
0100
0010
0000
0110
0000
,
0020
2030
3200
0302
,
0023
2030
3200
0302
,
0013
0100
1000
0000
0010
0100
0001
0000
,
0100
0001
0100
0001
0100
0000
0002
0000
,
0203
0320
2030
3002
,
0023
0230
2300
3002
,
0013
0001
0010
0000
0001
0010
0001
0000
,
1000
0001
1000
0001
1000
0000
0000
0000
,
1001
0000
0000
0000
,
1001
1100
1010
0000
,
1001
0101
0011
0000
,
1001
0000
0110
0000
,
1001
0000
0110
0000
,
1010
0101
1100
0000
,
0011
1001
1010
0000
,
0110
0000
1001
0000
,
1000
0100
0001
0100
,
0110
0000
0000
0010
0100
0000
0000
0100
,
0010
0000
0000
0010
0100
0000
0100
0000
,
0010
0000
0000
1000
0010
0000
0000
0010
,
1000
0000
0000
1000
0010
0000
0100
0000
,
0001
0000
0000
0100
0001
0000
0000
0001
,
0100
0000
0000
0100
0001
0000
1000
0000
,
0100
0000
0000
0010
0100
0000
0000
0100
,
0010
0000
0010
0100
0010
0000
0100
0000
,
0002
2003
3002
0003
,
1000
0001
1000
0000
0001
0000
0000
0000
,
1000
0000
0001
1000
0001
0000
1000
0000
,
0001
1000
0001
0000
1001
0000
0000
0000
,
0020
0230
0320
0030
,
0100
0010
0100
0000
0010
0000
0000
0000
,
0100
0000
0010
0000
0100
0010
0100
0000
,
0010
0000
0100
0010
0100
0000
0110
0000
,
0200
0302
0023
2030
,
3200
0302
0023
2030
,
3100
0010
0001
0000
0100
0010
1000
0000
,
0010
1000
0010
1000
0010
0000
0000
0000
,
0002
0023
2030
3200
,
0302
0023
2030
3200
,
0301
1000
0010
0000
1000
0001
0100
0000
,
0100
0010
0100
0010
0100
0000
0000
0000
,
0100
0000
0010
1000
0001
0000
1000
0000
,
1001
0000
0000
0000
;

//---------------dance-single - ----------------
#NOTES:
     dance-single:
     :
     Hard:
     12:
     0.483950,0.503486,0.476551,0.145037,0.093238,267.000000,46.000000,14.000000,0.000000,0.000000,0.000000,0.483950,0.503486,0.476551,0.145037,0.093238,267.000000,46.000000,14.000000,0.000000,0.000000,0.000000:
0000
0000
0000
0000
,
0000
0000
0000
0000
,
0000
0000
0000
0000
,
0000
0000
0000
0000
,
1100
0000
0010
0001
0200
0000
0300
0000
,
0010
0100
0001
1000
1001
0000
0000
0000
,
0101
0000
0000
1000
0020
0000
0230
0000
,
0301
0010
0100
0010
0002
0000
0003
0000
,
0011
0000
0100
1000
0010
0000
0000
0000
,
0100
0010
1000
0001
1001
0000
0000
0000
,
1010
0000
0000
0001
0200
0000
0320
0000
,
1030
0100
0010
0100
2000
0000
3000
0000
,
1001
0000
0100
0010
0100
0000
0011
0000
,
0001
0000
0100
0000
0010
0000
1000
0001
0100
0000
0000
0000
0101
0000
0000
0000
,
0010
0100
0001
0000
0010
0100
1000
0000
,
0001
0010
1000
0010
0001
0000
0000
0000
,
1001
0000
0100
0010
0100
0000
0101
0000
,
1000
0000
0010
0000
0100
0000
0001
1000
0010
0000
0000
0000
1010
0000
0000
0000
,
0100
0010
1000
0000
0100
0010
0001
0000
,
1000
0100
0001
0100
1000
0000
0000
0000
,
1001
0000
0000
0000
0000
0000
0000
0000
1000
0100
1000
0100
1000
0000
0000
0000
,
0001
0000
0000
0001
0010
0000
0100
0000
1000
0000
0000
0000
0000
0000
0000
0000
,
1000
0100
0010
0001
1000
0000
0001
0000
0101
0000
0000
0000
0000
0000
0000
0000
,
0100
0000
0000
0100
0010
0000
1000
0000
0001
0000
0000
0000
0000
0000
0000
0000
,
0001
0011
1000
1010
0100
0000
0000
0000
,
1000
0000
0000
1000
0001
0000
0100
0000
0010
0000
0000
0000
0000
0000
0000
0000
,
0100
0010
1000
0001
1000
0000
0010
0000
0100
0000
0000
0000
0000
0000
0000
0000
,
0100
0000
0000
0100
0001
0000
0010
0000
0100
0000
0000
0000
0000
0000
0000
0000
,
1000
0000
1100
0000
0001
0000
0101
0000
0010
0100
0001
0000
1000
0010
0100
0000
,
0101
0000
0000
0010
1100
0000
0000
0010
,
0101
0000
0000
1000
0100
0010
0001
1000
,
1100
0000
0000
0001
0101
0000
0000
0100
,
0110
0000
0000
0010
1000
0001
1000
0010
,
0101
0000
0000
0010
1100
0000
0000
0001
,
0101
0000
0000
1000
1100
0001
0101
1000
,
1001
0000
0000
0010
1100
0000
0000
0100
,
0011
0000
0000
0000
1000
0000
0010
0000
0100
0000
0000
0000
0001
0100
0010
1000
,
0010
0000
1000
0010
0002
0000
0003
0000
,
1000
0001
0010
0100
0110
0000
0000
0000
,
0011
0000
0000
0100
2000
0000
3002
0000
,
0013
0001
1000
0100
0020
0000
0030
0000
,
0011
0000
0001
0100
0010
0000
0000
0000
,
1000
0010
0100
0010
0110
0000
0000
0000
,
1010
0000
0000
0010
2000
0000
3002
0000
,
0103
0001
1000
0001
0020
0000
0030
0000
,
0110
0000
0100
1000
0100
0000
0101
0000
,
0010
0000
1000
0000
0001
0000
0100
0010
1000
0000
0000
0000
1001
0000
0000
0000
,
1000
0001
0010
0000
0001
1000
0100
0000
,
1000
0010
0100
0010
1000
0000
0000
0000
,
0110
0000
0001
1000
0001
0000
0101
0000
,
0100
0000
0001
0000
1000
0000
0010
0100
0001
0000
0000
0000
0101
0000
0000
0000
,
0001
1000
0100
0000
1000
0001
0010
0000
,
0100
1000
0010
1000
0100
0000
0000
0000
,
1001
0000
1000
0100
0010
0000
0011
0000
,
0101
0000
0000
0000
;
