#TITLE:Mesmerised;
#SUBTITLE:;
#ARTIST:Becky Miller;
#TITLETRANSLIT:;
#SUBTITLETRANSLIT:;
#ARTISTTRANSLIT:;
#GENRE:;
#CREDIT:Chewi☆;
#MENUCOLOR:#FFFFFF;
#METERTYPE:DDR X;
#BANNER:Mesmerised.png;
#BACKGROUND:Mesmerised-bg.png;
#LYRICSPATH:;
#CDTITLE:./CDTITLES/DanceDanceRevolution skyMIX3 -breeze-.png;
#MUSIC:Mesmerised.mp3;
#OFFSET:-0.589;
#SAMPLESTART:33.700;
#SAMPLELENGTH:15.000;
#SELECTABLE:YES;
#LISTSORT:;
#DISPLAYBPM:145.000;
#BPMS:0.000=145.000;
#STOPS:;
#BGCHANGES:;
#ATTACKS:;

//---------------dance-single - Chewi----------------
#NOTES:
     dance-single:
     Chewi:
     Beginner:
     2:
     0.099,0.138,0.012,0.069,0.000: // measure 1
0000
0000
0000
0000
,  // measure 2
0000
0000
0000
0000
,  // measure 3
0000
0000
0000
0000
,  // measure 4
0000
0000
0000
0000
,  // measure 5
1000
0000
0000
0000
,  // measure 6
0001
0000
0000
0000
,  // measure 7
1000
0000
0000
0000
,  // measure 8
0001
0000
0000
0000
,  // measure 9
0001
0000
0000
0000
,  // measure 10
1000
0000
0000
0000
,  // measure 11
0001
0000
0000
0000
,  // measure 12
1000
0000
0000
0000
,  // measure 13
2000
0000
0000
3000
,  // measure 14
1000
0000
0000
0000
,  // measure 15
0002
0000
0000
0003
,  // measure 16
0001
0000
0000
0000
,  // measure 17
0020
0000
0000
0030
,  // measure 18
0010
0000
0000
0000
,  // measure 19
0200
0000
0000
0300
,  // measure 20
0100
0000
0000
0000
,  // measure 21
0010
0000
0000
0000
,  // measure 22
0100
0000
0000
0000
,  // measure 23
0010
0000
0000
0000
,  // measure 24
0100
0000
0000
0000
,  // measure 25
0100
0000
0000
0000
,  // measure 26
0010
0000
0000
0000
,  // measure 27
0100
0000
0000
0000
,  // measure 28
0010
0000
0000
0000
,  // measure 29
1000
0000
1000
0000
,  // measure 30
1000
0000
1000
0000
,  // measure 31
0010
0000
0010
0000
,  // measure 32
0010
0000
0010
0000
,  // measure 33
0001
0000
0001
0000
,  // measure 34
0001
0000
0001
0000
,  // measure 35
1000
0000
1000
0000
,  // measure 36
1000
0000
1000
0000
,  // measure 37
0100
0000
0000
0000
,  // measure 38
0010
0000
0000
0000
,  // measure 39
0100
0000
0000
0000
,  // measure 40
0010
0000
0000
0000
,  // measure 41
0100
0000
0000
0000
,  // measure 42
1000
0000
0000
0000
,  // measure 43
1000
0000
0000
0000
,  // measure 44
0001
0000
0000
0000
,  // measure 45
0020
0000
0000
0030
,  // measure 46
0010
0000
0000
0000
,  // measure 47
0200
0000
0000
0300
,  // measure 48
0100
0000
0000
0000
,  // measure 49
1001
0000
0000
0000
;

//---------------dance-single - Chewi----------------
#NOTES:
     dance-single:
     Chewi:
     Easy:
     4:
     0.242,0.288,0.000,0.115,0.000: // measure 1
0000
0000
0000
0000
,  // measure 2
0000
0000
0000
0000
,  // measure 3
0000
0000
0000
0000
,  // measure 4
0000
0000
0000
0000
,  // measure 5
1000
0010
1000
0010
,  // measure 6
0001
0010
0001
0010
,  // measure 7
1000
0010
1000
0010
,  // measure 8
0001
0010
0001
0010
,  // measure 9
0001
0100
0001
0100
,  // measure 10
1000
0100
1000
0100
,  // measure 11
0001
0100
0001
0100
,  // measure 12
1000
0100
1000
0100
,  // measure 13
2000
0000
0001
0000
,  // measure 14
0001
0000
0001
3001
,  // measure 15
0002
0000
1000
0000
,  // measure 16
1000
0000
1000
1003
,  // measure 17
0020
0000
0100
0000
,  // measure 18
0100
0000
0100
0100
,  // measure 19
0230
0000
0010
0000
,  // measure 20
0020
0000
0000
0330
,  // measure 21
0010
1000
0100
0000
,  // measure 22
0100
0100
0100
0000
,  // measure 23
0010
0001
0100
0000
,  // measure 24
0100
0100
0100
0000
,  // measure 25
0100
1000
0010
0000
,  // measure 26
0010
0010
0010
0000
,  // measure 27
0100
0001
0010
0000
,  // measure 28
0010
0010
0010
0000
,  // measure 29
1000
0100
1000
0100
,  // measure 30
1000
0100
1000
0200
,  // measure 31
0310
0001
0010
0001
,  // measure 32
0010
0001
0010
0001
,  // measure 33
0001
0100
0001
0100
,  // measure 34
0001
0100
0001
0200
,  // measure 35
1300
0010
1000
0010
,  // measure 36
1000
0010
1000
0010
,  // measure 37
0100
0000
0001
0000
,  // measure 38
0010
0000
0001
0000
,  // measure 39
0100
0000
1000
0000
,  // measure 40
0010
0000
1000
0000
,  // measure 41
0100
0001
0010
0000
,  // measure 42
1000
1000
0001
0000
,  // measure 43
1000
0100
0010
0000
,  // measure 44
0001
0001
1000
0000
,  // measure 45
0020
0000
0000
0030
,  // measure 46
0001
0010
1000
0010
,  // measure 47
0200
0000
0000
0300
,  // measure 48
0001
0100
1000
0100
,  // measure 49
0002
0000
0000
0000
,  // measure 50
0000
0000
0000
0000
,  // measure 51
0000
0003
0000
0000
0000
0000
0000
0000
0000
0000
0000
0000
0000
0000
0000
0000
0000
0000
0000
0000
0000
0000
0000
0000
0000
0000
0000
0000
0000
0000
0000
0000
0000
0000
0000
0000
0000
0000
0000
0000
0000
0000
0000
0000
0000
0000
0000
0000
0000
0000
0000
0000
0000
0000
0000
0000
0000
0000
0000
0000
0000
0000
0000
0000
0000
0000
0000
0000
0000
0000
0000
0000
0000
0000
0000
0000
0000
0000
0000
0000
0000
0000
0000
0000
0000
0000
0000
0000
0000
0000
0000
0000
0000
0000
0000
0000
0000
0000
0000
0000
0000
0000
0000
0000
0000
0000
0000
0000
0000
0000
0000
0000
0000
0000
0000
0000
0000
0000
0000
0000
0000
0000
0000
0000
0000
0000
0000
0000
0000
0000
0000
0000
0000
0000
0000
0000
0000
0000
0000
0000
0000
0000
0000
0000
0000
0000
0000
0000
0000
0000
0000
0000
0000
0000
0000
0000
0000
0000
0000
0000
0000
0000
0000
0000
0000
0000
0000
0000
0000
0000
0000
0000
0000
0000
0000
0000
0000
0000
0000
0000
0000
0000
0000
0000
0000
0000
0000
0000
0000
0000
0000
0000
;

//---------------dance-single - Chewi----------------
#NOTES:
     dance-single:
     Chewi:
     Medium:
     8:
     0.352,0.431,0.207,0.242,0.000: // measure 1
0000
0000
0000
0000
,  // measure 2
0000
0000
0000
0000
,  // measure 3
0000
0000
0000
0000
,  // measure 4
0000
0000
0000
0000
,  // measure 5
1000
0010
0001
0010
,  // measure 6
1000
0100
0001
0100
,  // measure 7
0010
0100
0001
1000
,  // measure 8
0100
0010
0001
1000
,  // measure 9
0100
1000
0010
0001
,  // measure 10
0100
0001
0010
1000
,  // measure 11
0010
0100
0001
1000
,  // measure 12
0100
0010
0001
0010
,  // measure 13
0011
0001
0001
0001
,  // measure 14
0001
0000
0001
0000
0001
0000
0001
1000
,  // measure 15
0010
0010
0010
0010
,  // measure 16
0100
0100
0100
0100
,  // measure 17
1010
0010
0010
0010
,  // measure 18
0010
0000
0010
0000
0010
0000
0010
1000
,  // measure 19
0100
0100
0100
0100
,  // measure 20
2002
0000
0000
3003
,  // measure 21
1000
0001
1000
0000
0010
0000
0000
0000
,  // measure 22
0100
0010
0100
0000
0001
0000
0000
0000
,  // measure 23
0002
0023
0230
2300
,  // measure 24
3200
0300
0000
0000
,  // measure 25
1000
0100
1000
0000
0001
0000
0000
0000
,  // measure 26
0001
0100
0001
0000
1000
0000
0000
0000
,  // measure 27
2000
3020
0230
0302
,  // measure 28
0203
0300
0000
0000
,  // measure 29
0010
1010
0100
0101
,  // measure 30
0010
0000
0011
0000
0100
0000
1100
0100
,  // measure 31
1100
0010
0101
0010
,  // measure 32
1001
0000
0100
0000
0010
0010
0100
0100
,  // measure 33
0010
1100
0010
0101
,  // measure 34
1000
0000
1100
0000
0001
0000
0101
0010
,  // measure 35
0110
0010
1001
1000
,  // measure 36
0110
0010
0011
0010
,  // measure 37
2000
0000
0100
0000
0010
3010
0000
0000
,  // measure 38
0002
0000
0100
0000
0010
0013
0000
0000
,  // measure 39
2000
0000
0001
0000
0010
3010
0000
0000
,  // measure 40
0002
0000
1000
0000
0100
0100
0103
0000
,  // measure 41
0020
0000
0100
0000
1000
1000
0030
0000
,  // measure 42
2000
0000
0100
0000
0001
3001
0000
0000
,  // measure 43
0002
0000
0100
0000
0010
0013
0000
0000
,  // measure 44
2000
0000
0010
0000
0001
3001
0000
0000
,  // measure 45
0000
0001
0000
0100
0000
0010
0000
1000
,  // measure 46
0000
0001
0000
0010
0000
0100
0000
1000
,  // measure 47
0000
0100
0000
0001
0000
0100
0000
1000
,  // measure 48
0000
0010
0000
0001
0000
0010
0000
1000
,  // measure 49
0020
0000
0000
0000
,  // measure 50
0000
0000
0000
0000
,  // measure 51
0030
0000
0000
0000
;

//---------------dance-single - Chewi----------------
#NOTES:
     dance-single:
     Chewi:
     Hard:
     10:
     0.462,0.489,0.150,0.035,0.000: // measure 1
0000
0000
0000
0000
,  // measure 2
0000
0000
0000
0000
,  // measure 3
0000
0000
0000
0000
,  // measure 4
0000
0000
0000
0000
,  // measure 5
1000
0100
1000
0000
0100
0001
0100
0000
,  // measure 6
0001
0010
0001
0000
0010
1000
0010
0000
,  // measure 7
1000
0010
1000
0000
0010
0001
0010
0000
,  // measure 8
0001
0100
0001
0000
0100
1000
0100
0000
,  // measure 9
1000
0001
1000
0000
0001
1000
0001
0000
,  // measure 10
0010
0100
0010
0000
0100
0010
0100
0000
,  // measure 11
0010
1000
0010
0000
0100
0001
0100
0000
,  // measure 12
0010
0001
0010
0000
0100
1000
0100
0000
,  // measure 13
1100
0101
1100
0101
,  // measure 14
1000
0000
0010
0000
0001
0000
0010
0010
,  // measure 15
0011
1010
0011
1010
,  // measure 16
1000
0100
0001
0010
,  // measure 17
0110
1001
0110
1001
,  // measure 18
1000
0000
0100
0000
0010
0000
0001
0001
,  // measure 19
0010
0000
0100
0000
1000
0000
0010
0001
,  // measure 20
0200
0000
0000
0300
,  // measure 21
0010
0100
1000
0000
0001
1000
0000
0000
,  // measure 22
0010
0100
0001
0000
1000
0001
0000
0000
,  // measure 23
1000
0100
0010
0000
0001
0001
0000
0000
,  // measure 24
1000
0010
0100
0000
0001
0001
1000
1000
,  // measure 25
0001
0100
0010
0000
1000
0001
0000
0000
,  // measure 26
1000
0100
0010
0000
0001
0010
0000
0000
,  // measure 27
0100
0010
0001
0000
0100
0100
0000
0000
,  // measure 28
0010
1000
0100
0000
0010
0010
0100
0100
,  // measure 29
0010
0001
0010
0001
0010
0001
0010
0001
,  // measure 30
0100
0001
0100
0001
0100
0001
0100
0001
,  // measure 31
0100
1000
0100
1000
0100
1000
0100
1000
,  // measure 32
0010
1000
0010
1000
0010
1000
0010
1000
,  // measure 33
0010
0100
0010
0100
0010
0100
0010
0100
,  // measure 34
0001
1000
0001
1000
0001
1000
0001
1000
,  // measure 35
0001
0010
0001
0010
0001
0010
0001
0010
,  // measure 36
0100
1000
0100
1000
0100
0001
0100
0001
,  // measure 37
0010
0100
0010
0000
0001
0001
0100
0000
,  // measure 38
0010
1000
0100
0000
1000
1000
0100
0000
,  // measure 39
1000
0001
0100
0000
0010
0010
0100
0000
,  // measure 40
0001
1000
0100
0000
0010
0010
0100
0100
,  // measure 41
0010
0001
0100
0000
1000
0010
0000
0000
,  // measure 42
1000
0100
0001
0000
0010
1000
0000
0000
,  // measure 43
0100
0010
0001
0000
1000
1000
0000
0000
,  // measure 44
1000
0010
0100
0000
0001
1000
0001
1000
,  // measure 45
0001
0010
0100
1000
0100
1000
0100
0010
,  // measure 46
0000
1000
0100
0010
0001
0010
0001
0010
,  // measure 47
0000
0001
1000
0010
0100
0010
0100
0010
,  // measure 48
0000
0100
0001
0010
0100
1000
0010
1000
,  // measure 49
2002
0000
0000
0000
,  // measure 50
0000
0000
0000
0000
,  // measure 51
3003
0000
0000
0000
;
