#TITLE:Mermaid girl;
#SUBTITLE:;
#ARTIST:Cream puff;
#TITLETRANSLIT:;
#SUBTITLETRANSLIT:;
#ARTISTTRANSLIT:;
#GENRE:;
#CREDIT:Chewi☆;
#MENUCOLOR:#FFFFFF;
#METERTYPE:DDR X;
#BANNER:Mermaid girl.png;
#BACKGROUND:Mermaid girl-bg.png;
#LYRICSPATH:;
#CDTITLE:./CDTITLES/DanceDanceRevolution skyMIX3 -breeze-.png;
#MUSIC:Mermaid girl.mp3;
#OFFSET:-3.829;
#SAMPLESTART:60.397;
#SAMPLELENGTH:15.000;
#SELECTABLE:YES;
#LISTSORT:;
#DISPLAYBPM:140.000;
#BPMS:0.000=140.000;
#STOPS:;
#BGCHANGES:;
#ATTACKS:;

//---------------dance-single - Chewi----------------
#NOTES:
     dance-single:
     Chewi:
     Beginner:
     1:
     0.082,0.108,0.057,0.000,0.000:
0000
0000
0000
0000
,
0000
0000
0000
0000
,
0000
0000
0000
0000
,
0000
0000
0000
0000
,
1000
0000
0000
0000
,
0010
0000
0000
0000
,
0001
0000
0000
0000
,
0100
0000
0000
0000
,
0010
0000
0000
0000
,
0010
0000
0000
0000
,
0010
0000
0000
0000
,
0010
0000
0000
0000
,
0100
0000
0000
0000
,
1000
0000
0000
0000
,
1000
0000
0000
0000
,
0010
0000
0000
0000
,
0001
0000
0000
0000
,
0010
0000
0000
0000
,
0010
0000
0000
0000
,
0100
0000
0000
0000
,
0100
0000
0000
0000
,
0010
0000
0000
0000
,
1000
0000
0000
0000
,
1000
0000
0000
0000
,
0010
0000
0000
0000
,
0100
0000
0000
0000
,
1000
0000
0000
0000
,
0001
0000
0000
0000
,
0100
0000
0000
0000
,
0100
0000
0000
0000
,
0010
0000
0000
0000
,
0001
0000
0000
0000
,
1000
0000
0000
0000
,
1000
0000
0000
0000
,
0010
0000
0000
0000
,
0001
0000
0000
0000
,
0100
0000
0000
0000
,
0001
0000
0000
0000
,
1000
0000
0000
0000
,
1000
0000
0000
0000
,
0001
0000
0000
0000
,
0110
0000
0000
0000
,
1000
0000
0000
0000
,
1001
0000
0000
0000
,
0001
0000
0000
0000
,
0110
0000
0000
0000
,
0010
0000
0000
0000
,
1001
0000
0000
0000
,
0100
0000
0000
0000
,
1000
0000
0000
0000
,
0001
0000
0000
0000
,
0100
0000
0000
0000
,
0110
0000
0000
0000
,
0010
0000
0000
0000
,
0100
0000
0000
0000
,
0001
0000
0000
0000
,
1001
0000
0000
0000
,
1000
0000
0000
0000
,
1000
0000
0000
0000
,
0100
0000
0000
0000
,
0001
0000
0000
0000
,
0010
0000
0000
0000
,
1000
0000
0000
0000
,
0100
0000
0000
0000
,
1000
0000
0000
0000
,
1000
0000
0000
0000
,
1001
0000
0000
0000
;

//---------------dance-single - Chewi----------------
#NOTES:
     dance-single:
     Chewi:
     Easy:
     4:
     0.202,0.250,0.074,0.115,0.000: // measure 1
0000
0000
0000
0000
,  // measure 2
0000
0000
0000
0000
,  // measure 3
0000
0000
0000
0000
,  // measure 4
0000
0000
0000
0000
,  // measure 5
1000
0100
1000
0000
,  // measure 6
0010
0010
0010
0000
,  // measure 7
0001
0010
0001
0000
,  // measure 8
0100
0100
0100
0000
,  // measure 9
0010
1000
0100
0001
,  // measure 10
0010
0000
0010
0000
,  // measure 11
0010
0001
0100
1000
,  // measure 12
0010
0000
0010
0000
,  // measure 13
0100
0010
1000
0001
,  // measure 14
1000
0000
0001
0000
,  // measure 15
1000
0100
0010
0001
,  // measure 16
0010
0000
0100
0000
,  // measure 17
0002
2003
3000
0000
,  // measure 18
0010
0000
1000
0000
,  // measure 19
0010
0001
0010
0000
,  // measure 20
0100
0000
1000
0000
,  // measure 21
0100
0001
0100
0000
,  // measure 22
0010
0000
0100
0000
,  // measure 23
1000
0001
1001
0000
,  // measure 24
1000
0100
0010
0001
,  // measure 25
0010
0000
0000
0000
,  // measure 26
0100
0100
0100
0100
,  // measure 27
1000
0000
0010
0000
,  // measure 28
0001
0001
0001
0001
,  // measure 29
0100
0000
1000
0000
,  // measure 30
0100
0100
0100
0100
,  // measure 31
0010
0100
0110
0000
,  // measure 32
0001
0000
1000
0001
,  // measure 33
2000
3002
0003
0000
,  // measure 34
1000
1000
1000
0000
,  // measure 35
0010
0100
0010
0000
,  // measure 36
0001
0001
0001
0000
,  // measure 37
0100
0010
0100
0000
,  // measure 38
0001
0000
0010
0000
,  // measure 39
1000
0000
0100
0000
,  // measure 40
1000
0000
0010
0000
,  // measure 41
0001
0000
0100
0000
,  // measure 42
0110
0000
0000
0000
,  // measure 43
2000
0000
0000
3000
,  // measure 44
1001
0000
0000
0000
,  // measure 45
0002
0000
0000
0003
,  // measure 46
0110
0000
0000
0000
,  // measure 47
0010
0100
0010
0000
,  // measure 48
1001
0000
0000
0000
,  // measure 49
0100
0010
0100
0000
,  // measure 50
2000
0000
0000
3000
,  // measure 51
0002
0000
0000
0003
,  // measure 52
0200
0000
0000
0300
,  // measure 53
0110
0000
0000
0000
,  // measure 54
0020
0000
0000
0030
,  // measure 55
0200
0000
0000
0300
,  // measure 56
0002
0000
0000
0003
,  // measure 57
1001
0000
0000
0000
,  // measure 58
1000
1000
0001
0001
,  // measure 59
1000
0100
0010
0000
,  // measure 60
0100
0000
0001
0000
,  // measure 61
0001
0010
0100
0000
,  // measure 62
0010
0000
0100
0000
,  // measure 63
1000
0001
0100
0010
,  // measure 64
0100
0000
0010
0000
,  // measure 65
1000
0010
0001
0010
,  // measure 66
1000
0000
0001
1000
,  // measure 67
2002
0000
0000
0000
,  // measure 68
0000
0000
0000
3003
;

//---------------dance-single - Chewi----------------
#NOTES:
     dance-single:
     Chewi:
     Medium:
     6:
     0.296,0.333,0.131,0.131,0.000: // measure 1
0000
0000
0000
0000
,  // measure 2
0000
0000
0000
0000
,  // measure 3
0000
0000
0000
0000
,  // measure 4
0000
0000
0000
0000
,  // measure 5
1000
0100
0010
0001
,  // measure 6
0001
0010
0100
0000
,  // measure 7
1000
0100
0001
0010
,  // measure 8
1000
0010
0001
0000
,  // measure 9
0100
0000
0100
0000
0010
0100
0010
0000
,  // measure 10
0010
0000
0010
0000
0100
0010
0100
0000
,  // measure 11
0002
0103
2000
3010
,  // measure 12
0100
0010
1001
0000
,  // measure 13
1000
0000
0100
0000
1000
0100
1000
0000
,  // measure 14
0001
0000
0010
0000
0001
0010
0001
0000
,  // measure 15
0001
0001
1000
1000
,  // measure 16
0020
0130
0200
0310
,  // measure 17
0110
1001
0000
0000
,  // measure 18
1000
0100
0010
0001
,  // measure 19
1000
0001
1000
0000
0110
0000
0000
0000
,  // measure 20
0001
0100
0010
1000
,  // measure 21
1001
0000
0010
0100
0000
0000
0000
0000
,  // measure 22
0100
0010
0001
1000
,  // measure 23
0110
1001
0110
0000
,  // measure 24
0001
0010
0100
1000
,  // measure 25
1100
0101
0000
0000
,  // measure 26
0100
0100
0010
0010
,  // measure 27
1000
0001
0100
0000
0001
1000
0100
0000
,  // measure 28
1000
1000
0001
0001
,  // measure 29
0020
0000
0000
0030
,  // measure 30
0100
0010
0001
0100
,  // measure 31
0110
1001
0110
0000
,  // measure 32
0100
1000
0010
0001
,  // measure 33
0020
0000
0000
0030
,  // measure 34
0100
0000
0100
0000
0100
0100
0100
0000
,  // measure 35
0010
0001
0100
1000
,  // measure 36
0010
0000
0010
0000
0010
0010
0010
0000
,  // measure 37
1000
0100
0001
0010
,  // measure 38
0100
0000
0010
0000
0001
1000
0001
0000
,  // measure 39
0100
1000
0010
0001
,  // measure 40
0100
0000
0001
0000
0010
0001
0010
0000
,  // measure 41
1000
0100
0001
0010
,  // measure 42
0100
0100
0010
0010
,  // measure 43
1001
0000
0000
0000
0000
0001
0001
0000
,  // measure 44
1000
0010
0100
0001
,  // measure 45
0101
0000
0100
0000
,  // measure 46
1000
0100
0010
0001
,  // measure 47
0010
0100
1000
0010
,  // measure 48
0100
0010
1000
0001
,  // measure 49
1000
0000
0100
0000
0010
0001
0010
0000
,  // measure 50
0002
0000
0000
0000
,  // measure 51
0203
0000
0000
0000
,  // measure 52
2300
0000
0000
0000
,  // measure 53
3020
0000
0000
0000
,  // measure 54
2030
0000
0000
0000
,  // measure 55
3200
0000
0000
0000
,  // measure 56
0302
0000
0000
0000
,  // measure 57
0023
0000
0000
0000
,  // measure 58
0130
0000
0100
0000
0100
0100
0100
0000
,  // measure 59
0010
1000
0010
0001
,  // measure 60
0010
0001
0100
1000
,  // measure 61
0100
0001
0100
1000
,  // measure 62
0100
0001
0010
1000
,  // measure 63
0100
0000
0010
0000
0001
0010
0100
0000
,  // measure 64
1000
0010
0001
0010
,  // measure 65
1000
0000
0100
0000
0010
0100
1000
0000
,  // measure 66
0001
0000
1000
0000
0010
0010
0010
0000
,  // measure 67
0220
0000
0000
0000
,  // measure 68
0000
0000
0000
0330
;

//---------------dance-single - Chewi----------------
#NOTES:
     dance-single:
     Chewi:
     Hard:
     10:
     0.350,0.388,0.213,0.164,0.000: // measure 1
0000
0000
0000
0000
,  // measure 2
0000
0000
0000
0000
,  // measure 3
0000
0000
0000
0000
,  // measure 4
0000
0000
0000
0000
,  // measure 5
1000
0100
1000
0100
,  // measure 6
0001
0010
0001
0000
,  // measure 7
0001
0100
0001
0100
,  // measure 8
1000
0000
0010
0000
1000
1000
0010
0000
,  // measure 9
1000
1000
1000
0000
0001
0010
0100
0000
,  // measure 10
0010
0101
0010
1100
,  // measure 11
0001
1000
0100
0000
0010
0010
0010
0000
,  // measure 12
0100
0011
0100
1010
,  // measure 13
0001
1000
0100
0000
1000
1000
1000
0000
,  // measure 14
0100
0001
0010
1000
,  // measure 15
1000
0001
0010
0000
0100
0100
0100
0000
,  // measure 16
0010
0001
0100
1000
,  // measure 17
2010
0002
0000
3003
,  // measure 18
0001
0010
0100
1000
,  // measure 19
0100
0100
1000
1000
0000
0000
1000
0000
,  // measure 20
0001
0100
0010
1000
,  // measure 21
1001
0010
0110
0000
,  // measure 22
0100
0000
0010
0000
0001
0000
1000
0100
,  // measure 23
0011
1010
0011
1000
,  // measure 24
0100
0000
0001
0000
0100
0000
0010
0010
,  // measure 25
0020
0200
0000
0330
,  // measure 26
0010
1000
0010
1000
,  // measure 27
0100
0001
0010
1000
,  // measure 28
0010
1000
0010
1000
,  // measure 29
0010
0001
0100
1000
,  // measure 30
0100
0010
0001
1000
,  // measure 31
1001
0000
0110
0000
1001
1000
1000
0000
,  // measure 32
0001
0010
0100
1000
,  // measure 33
0200
0020
0000
0330
,  // measure 34
0010
0000
0010
0000
0010
0001
0100
0000
,  // measure 35
1000
1100
0010
0011
,  // measure 36
0100
0000
0100
0000
0001
0010
1000
0000
,  // measure 37
0100
0110
0001
1001
,  // measure 38
0010
0000
0010
0000
1000
0100
0001
0000
,  // measure 39
0010
0110
1000
1001
,  // measure 40
0100
0000
0100
0000
0010
1000
0001
0000
,  // measure 41
1000
0100
0010
0001
1000
0100
0010
0001
,  // measure 42
1000
0010
0100
0001
,  // measure 43
0202
0000
0000
0000
0300
0010
0013
0000
,  // measure 44
0100
0010
0001
1000
,  // measure 45
2001
0010
0200
3300
,  // measure 46
1000
0000
0100
0000
0010
0001
0100
0000
,  // measure 47
0100
0000
0010
0000
1000
0010
0100
0000
,  // measure 48
0001
0000
1000
0000
0001
1000
0100
0000
,  // measure 49
1000
0000
0001
0000
1000
0001
0010
0000
,  // measure 50
0220
0000
0000
0300
,  // measure 51
0002
0000
0000
0030
,  // measure 52
0200
0000
0000
0003
,  // measure 53
0020
0000
0000
0300
,  // measure 54
2000
0000
0000
3030
,  // measure 55
1000
1001
0100
0000
,  // measure 56
0001
1000
0100
0000
1000
0001
0010
0000
,  // measure 57
0220
0000
0000
0330
,  // measure 58
0001
0000
1000
0000
0001
1000
0001
0000
,  // measure 59
1000
0000
0010
0000
0001
0010
1000
0000
,  // measure 60
0100
0001
0010
1000
,  // measure 61
0001
0000
1000
0000
0100
0010
0100
0000
,  // measure 62
0010
0001
0101
0000
,  // measure 63
0100
0000
0010
0000
1000
0001
1000
0000
,  // measure 64
0100
0000
0010
0000
0100
1000
0010
0000
,  // measure 65
0100
0000
0001
0000
1000
0001
1000
0000
,  // measure 66
0010
0000
0001
0000
0100
0001
0100
0000
,  // measure 67
0220
0000
0000
0000
,  // measure 68
0000
0000
0000
0330
;
