#TITLE:MEMORIES;
#SUBTITLE:;
#ARTIST:DAVID GUETTA feat. Kid Cudi;
#TITLETRANSLIT:;
#SUBTITLETRANSLIT:;
#ARTISTTRANSLIT:;
#GENRE:;
#CREDIT:Chewphoria~;
#MENUCOLOR:;
#METERTYPE:DDR;
#BANNER:MEMORIES.png;
#BACKGROUND:MEMORIES-bg.png;
#LYRICSPATH:;
#CDTITLE:;
#MUSIC:MEMORIES.mp3;
#OFFSET:-0.433;
#SAMPLESTART:44.695;
#SAMPLELENGTH:15.000;
#SELECTABLE:YES;
#LISTSORT:;
#BPMS:0.000=130.140;
#STOPS:;
#BGCHANGES:-1.500=MEMORIES.avi=1.000=1=0=0,
176.000=MEMORIES-bg.png=1.000=1=0=1,
99999=-nosongbg-=1.000=0=0=0 // don't automatically add -songbackground-
;
#ATTACKS:;

//---------------dance-single - Chewphoria~----------------
#NOTES:
     dance-single:
     Chewphoria~:
     Beginner:
     1:
     0.104,0.129,0.095,0.000,0.000: // measure 1
0000
0000
0000
0000
,  // measure 2
0000
0000
0000
0000
,  // measure 3
0000
0000
0000
0000
,  // measure 4
0000
0000
0000
0000
,  // measure 5
1000
0000
0000
0000
,  // measure 6
1000
0000
0000
0000
,  // measure 7
0001
0000
0000
0000
,  // measure 8
0001
0000
0000
0000
,  // measure 9
0100
0000
0100
0000
,  // measure 10
0100
0000
0000
0000
,  // measure 11
0010
0000
0010
0000
,  // measure 12
0010
0000
0000
0000
,  // measure 13
1000
0000
1000
0000
,  // measure 14
1000
0000
0000
0000
,  // measure 15
1001
0000
0000
0000
,  // measure 16
1001
0000
0000
0000
,  // measure 17
0001
0001
0000
0000
,  // measure 18
0100
0000
0000
0000
,  // measure 19
0100
0100
0000
0000
,  // measure 20
1000
0000
0000
0000
,  // measure 21
1000
1000
0000
0000
,  // measure 22
0010
0000
0000
0000
,  // measure 23
0010
0010
0000
0000
,  // measure 24
0001
0000
0000
0000
,  // measure 25
1001
0000
0000
0000
,  // measure 26
0100
0000
0000
0000
,  // measure 27
1001
0000
0000
0000
,  // measure 28
0010
0000
0000
0000
,  // measure 29
0110
0000
0000
0000
,  // measure 30
1000
0000
0000
0000
,  // measure 31
0110
0000
0000
0000
,  // measure 32
0001
0000
0000
0000
,  // measure 33
1000
0000
1000
0000
,  // measure 34
1000
0000
0000
0000
,  // measure 35
0100
0000
0100
0000
,  // measure 36
0100
0000
0000
0000
,  // measure 37
1000
0000
1000
0000
,  // measure 38
1000
0000
0000
0000
,  // measure 39
0001
0000
0001
0000
,  // measure 40
0001
0000
0000
0000
,  // measure 41
1001
0000
0000
0000
,  // measure 42
0100
0000
0100
0000
,  // measure 43
0000
0000
0110
0000
,  // measure 44
0010
0000
0010
0000
;

//---------------dance-single - Chewphoria~----------------
#NOTES:
     dance-single:
     Chewphoria~:
     Easy:
     3:
     0.209,0.234,0.024,0.071,0.000: // measure 1
0000
0000
0000
0000
,  // measure 2
0000
0000
0000
0000
,  // measure 3
0000
0000
0000
0000
,  // measure 4
0000
0000
0000
0000
,  // measure 5
1000
0000
0010
0000
,  // measure 6
0001
0000
0010
0000
,  // measure 7
1000
0000
0010
0000
,  // measure 8
0001
0000
0010
0000
,  // measure 9
0001
0000
0001
0000
,  // measure 10
0001
1000
1000
0000
,  // measure 11
1000
0000
1000
0000
,  // measure 12
1000
0001
0001
0000
,  // measure 13
0001
0001
1000
1000
,  // measure 14
0001
0001
0001
0000
,  // measure 15
1000
0001
1000
0001
,  // measure 16
1000
0000
0100
0000
,  // measure 17
0000
0001
0000
0100
,  // measure 18
0000
1000
0000
0100
,  // measure 19
0000
0001
0000
0100
,  // measure 20
0000
1000
0000
0100
,  // measure 21
0000
0001
0001
0001
,  // measure 22
1000
1000
1000
0000
,  // measure 23
0020
0030
0200
0300
,  // measure 24
0020
0030
0200
0300
,  // measure 25
0001
1000
0001
1000
,  // measure 26
0001
0100
1000
0100
,  // measure 27
1000
0001
1000
0001
,  // measure 28
1000
0100
0001
0100
,  // measure 29
0001
1000
0001
1000
,  // measure 30
0001
0010
1000
0010
,  // measure 31
1000
0001
1000
0001
,  // measure 32
1000
0010
1000
0010
,  // measure 33
1000
0100
0010
0000
,  // measure 34
0001
0000
0001
0000
,  // measure 35
0001
0100
0010
0000
,  // measure 36
1000
0000
1000
0000
,  // measure 37
1000
0001
1000
0000
,  // measure 38
1000
0000
1001
0000
,  // measure 39
1000
0001
0010
0000
,  // measure 40
1000
0100
0010
0000
,  // measure 41
2000
3001
0100
0100
,  // measure 42
0010
0000
0010
0000
,  // measure 43
0002
1003
0100
0100
,  // measure 44
0010
0000
0100
0110
;

//---------------dance-single - Chewphoria~----------------
#NOTES:
     dance-single:
     Chewphoria~:
     Medium:
     6:
     0.328,0.442,0.167,0.071,0.000: // measure 1
0000
0000
0000
0000
,  // measure 2
0000
0000
0000
0000
,  // measure 3
0000
0000
0000
0000
,  // measure 4
0000
0000
0000
0000
,  // measure 5
1000
0000
0100
0000
0010
0001
0010
0000
,  // measure 6
1000
0000
0100
0000
0010
0001
0010
0000
,  // measure 7
0100
0010
1000
0010
,  // measure 8
0100
0001
0010
0110
,  // measure 9
0100
1000
0100
1000
0010
0000
0100
0000
,  // measure 10
0110
0110
1001
0000
,  // measure 11
1000
0000
0100
0000
1000
0001
0100
0000
,  // measure 12
0001
0010
0001
1001
,  // measure 13
0100
0010
0001
0100
,  // measure 14
0010
0000
1000
0001
0010
0000
0110
0000
,  // measure 15
1000
0100
0001
0010
,  // measure 16
1000
0100
0001
0100
,  // measure 17
0001
0001
0000
0000
1000
1000
0000
0000
,  // measure 18
0001
0001
0000
0000
1000
1000
0000
0000
,  // measure 19
0010
0010
0000
0000
0100
0100
0000
0000
,  // measure 20
0010
0010
0000
0000
0100
0100
0000
0000
,  // measure 21
0201
0310
1020
0130
,  // measure 22
1200
0310
0021
0031
,  // measure 23
0001
0100
0010
1000
,  // measure 24
0001
1000
0010
0100
,  // measure 25
0001
0000
1000
0000
1000
0001
1000
0000
,  // measure 26
0001
0100
1000
0100
,  // measure 27
0001
0000
1000
0000
0001
1000
0001
0000
,  // measure 28
0010
0100
1000
0100
,  // measure 29
0100
1000
0001
1000
,  // measure 30
1000
0001
0100
0010
,  // measure 31
0001
0001
0100
0001
,  // measure 32
0001
1000
0100
0010
,  // measure 33
0100
1000
0001
1000
,  // measure 34
1000
0010
1000
0000
0001
0000
0100
0000
,  // measure 35
1000
0100
0010
0100
,  // measure 36
1000
0000
0001
0000
1000
0010
1000
0000
,  // measure 37
0001
0100
0010
0001
,  // measure 38
0010
0001
0010
0000
1000
0000
0100
0000
,  // measure 39
1000
0000
0100
0000
0001
0100
1000
0000
,  // measure 40
0001
0000
0100
0000
1000
0100
0001
0000
,  // measure 41
0012
0103
0010
1010
,  // measure 42
1000
0100
0010
0001
,  // measure 43
2100
3010
1000
1010
,  // measure 44
0010
0000
0100
0000
0001
0100
1000
0000
;

//---------------dance-single - Chewphoria~----------------
#NOTES:
     dance-single:
     Chewphoria~:
     Hard:
     9:
     0.459,0.468,0.226,0.048,0.006: // measure 1
0000
0000
0000
0000
,  // measure 2
0000
0000
0000
0000
,  // measure 3
0000
0000
0000
0000
,  // measure 4
0000
0000
0000
0000
,  // measure 5
1000
0100
1000
0100
0010
0100
0010
0001
,  // measure 6
1000
0010
1000
0010
0100
0010
0100
0001
,  // measure 7
0001
0100
0001
0100
0010
1000
0010
1000
,  // measure 8
0100
0010
0001
0001
1000
0010
0100
0110
,  // measure 9
0001
0000
0100
0000
1000
0001
0100
0000
,  // measure 10
1000
0000
0001
0000
0100
1001
0100
1001
,  // measure 11
0010
0000
0100
0000
0001
1000
0010
0000
,  // measure 12
0100
0000
0100
0000
0100
0000
0100
0000
0010
0000
0100
0000
0001
1000
0001
0000
,  // measure 13
1000
0100
0001
0100
,  // measure 14
1000
0010
0001
0100
,  // measure 15
1000
0001
0101
0000
1000
1000
0010
0000
,  // measure 16
0001
1000
1100
0000
0001
0010
0010
0000
,  // measure 17
1000
0001
0101
0000
1000
1000
0010
0000
,  // measure 18
0001
0001
0001
0000
1000
1000
1000
0000
,  // measure 19
0010
1000
1001
0000
0100
0001
0001
0000
,  // measure 20
0100
0010
0110
0000
0001
1000
0001
0000
,  // measure 21
1000
0001
1000
0000
0001
0010
0001
0000
,  // measure 22
1000
0100
1100
0000
0001
0100
0101
0000
,  // measure 23
0001
1000
1100
0000
0001
0010
0010
0000
,  // measure 24
1000
0001
0101
0000
1000
1000
0010
0000
,  // measure 25
1000
0100
0010
0100
1000
0010
0100
0010
,  // measure 26
0100
0001
0010
0001
0100
0001
1001
0000
,  // measure 27
0100
0010
0100
0001
0100
0010
0100
0001
,  // measure 28
0010
0100
1000
0001
1000
0000
1001
0000
,  // measure 29
0001
0000
0100
0000
0001
0010
0100
0000
,  // measure 30
1000
0001
0100
0010
1000
0100
0010
0000
,  // measure 31
1000
1100
0001
0101
,  // measure 32
0001
0010
0100
1000
0001
0100
0010
0000
,  // measure 33
1000
0000
0100
0000
0001
0010
0100
0000
,  // measure 34
1000
0001
0100
0001
1000
0100
1000
0000
,  // measure 35
1000
0000
0100
0000
1000
0010
0100
0000
,  // measure 36
0001
1000
0100
0010
0001
0100
0010
0000
,  // measure 37
0001
0000
0100
0000
1000
0010
0100
0000
,  // measure 38
0001
1000
0100
0100
1000
0001
0100
0100
,  // measure 39
0012
0000
0103
0000
1000
0001
0010
0100
,  // measure 40
2000
0000
3010
0000
0100
0001
0100
0000
,  // measure 41
2010
0000
3100
0000
0001
1000
0001
0000
,  // measure 42
0010
0100
0010
0001
1000
0010
0100
0000
,  // measure 43
0002
0000
0013
0000
0100
1000
0100
0000
,  // measure 44
0010
0000
0011
0000
1000
0001
0010
0000
;
