#TITLE:女々しくて;
#SUBTITLE:;
#ARTIST:PARTY☆ROCKERS;
#TITLETRANSLIT:Memeshikute;
#SUBTITLETRANSLIT:;
#ARTISTTRANSLIT:PARTY ROCKERS;
#CREDIT:Chewi☆;
#BANNER:Memeshikute.png;
#BACKGROUND:Memeshikute-bg.png;
#LYRICSPATH:;
#CDTITLE:;
#MUSIC:Memeshikute.mp3;
#OFFSET:-0.145;
#SAMPLESTART:43.789;
#SAMPLELENGTH:15.000;
#SELECTABLE:YES;
#BPMS:0.000=143.000;
#STOPS:;
#BGCHANGES:;

//---------------dance-single - ----------------
#NOTES:
     dance-single:
     :
     Beginner:
     1:
     0.137,0.206,0.052,0.021,0.000: // measure 1
0000
0000
0000
0000
,  // measure 2
0000
0000
0000
0000
,  // measure 3
0001
0000
0000
0000
,  // measure 4
1000
0000
0000
0000
,  // measure 5
0001
0000
0000
0000
,  // measure 6
1000
0000
0000
0000
,  // measure 7
0010
0000
0000
0000
,  // measure 8
0100
0000
0000
0000
,  // measure 9
0010
0000
0000
0000
,  // measure 10
0100
0000
0000
0000
,  // measure 11
0001
0000
0000
0000
,  // measure 12
0001
0000
0000
0000
,  // measure 13
1000
0000
0000
0000
,  // measure 14
1000
0000
0000
0000
,  // measure 15
0001
0000
0000
0000
,  // measure 16
0001
0000
0000
0000
,  // measure 17
1000
0000
0000
0000
,  // measure 18
1000
0000
0000
0000
,  // measure 19
0010
0000
0010
0000
,  // measure 20
0010
0000
0000
0000
,  // measure 21
0001
0000
0001
0000
,  // measure 22
0001
0000
0000
0000
,  // measure 23
0100
0000
0100
0000
,  // measure 24
0100
0000
0000
0000
,  // measure 25
1000
0000
1000
0000
,  // measure 26
1000
0000
0000
0000
,  // measure 27
0001
0000
0001
0000
,  // measure 28
1000
0000
1000
0000
,  // measure 29
0001
0000
0001
0000
,  // measure 30
1000
0000
1000
0000
,  // measure 31
0001
0000
0001
0000
,  // measure 32
1000
0000
1000
0000
,  // measure 33
0001
0000
0001
0000
,  // measure 34
1000
0000
1000
0000
,  // measure 35
0001
0000
0000
0000
,  // measure 36
1001
0000
0000
0000
,  // measure 37
0010
0000
0010
0000
,  // measure 38
1001
0000
0000
0000
,  // measure 39
0010
0000
0010
0000
,  // measure 40
1001
0000
0000
0000
,  // measure 41
0010
0000
0010
0000
,  // measure 42
0001
0000
0001
0000
,  // measure 43
1000
0000
0000
0000
,  // measure 44
1001
0000
0000
0000
,  // measure 45
1001
0000
0000
0000
,  // measure 46
0010
0000
0010
0000
,  // measure 47
0001
0000
0001
0000
,  // measure 48
1000
0000
1000
0000
,  // measure 49
0100
0000
0100
0000
,  // measure 50
0001
0001
0001
0000
,  // measure 51
1000
1000
1000
0000
,  // measure 52
0001
0001
0001
0000
,  // measure 53
1000
1000
1000
0000
,  // measure 54
0002
0000
0000
0003
,  // measure 55
2000
0000
0000
3000
,  // measure 56
0001
0000
0001
0000
,  // measure 57
1000
0000
1000
0000
;

//---------------dance-single - ----------------
#NOTES:
     dance-single:
     :
     Easy:
     4:
     0.231,0.298,0.010,0.031,0.000: // measure 1
0000
0000
0000
0000
,  // measure 2
0000
0000
0000
0000
,  // measure 3
1000
0000
0100
0000
,  // measure 4
0001
0000
0100
0000
,  // measure 5
1000
0000
0010
0000
,  // measure 6
0001
0000
0010
0000
,  // measure 7
1000
0010
1000
0000
,  // measure 8
0001
0010
0001
0000
,  // measure 9
1000
0100
1000
0000
,  // measure 10
0001
0100
0001
0000
,  // measure 11
1000
0000
0010
0000
,  // measure 12
0100
0000
0001
0000
,  // measure 13
0001
0000
0010
0000
,  // measure 14
0100
0000
1000
0000
,  // measure 15
0010
0000
1000
0000
,  // measure 16
0001
0000
0010
0000
,  // measure 17
0010
0000
0001
0000
,  // measure 18
1000
0000
0010
0000
,  // measure 19
1000
0100
1000
0100
,  // measure 20
1000
0000
0100
0000
,  // measure 21
0001
0100
0001
0100
,  // measure 22
0001
0000
0100
0000
,  // measure 23
1000
0001
1000
0001
,  // measure 24
1000
0000
0001
0000
,  // measure 25
2000
0000
0000
3000
,  // measure 26
0010
0010
0010
0000
,  // measure 27
0001
1000
0001
0001
,  // measure 28
1000
0001
1000
1000
,  // measure 29
0001
1000
0001
0001
,  // measure 30
1000
0001
1000
1001
,  // measure 31
0001
1000
0001
0001
,  // measure 32
1000
0001
1000
1000
,  // measure 33
0001
1000
0001
0001
,  // measure 34
1000
0001
1000
1000
,  // measure 35
0001
0000
1000
0000
,  // measure 36
0010
0000
0000
0010
0000
0000
0000
0000
,  // measure 37
0001
0001
0100
0000
,  // measure 38
0010
0000
0000
0010
0000
0000
0000
0000
,  // measure 39
1000
1000
0100
0000
,  // measure 40
0010
0000
0000
0010
0000
0000
0000
0000
,  // measure 41
0001
0001
0100
0100
,  // measure 42
1000
1000
0010
0010
,  // measure 43
0001
0000
1000
0000
,  // measure 44
0010
0000
0000
0010
0000
0000
0010
0000
,  // measure 45
0010
0000
0100
0000
,  // measure 46
0001
0000
0100
0000
,  // measure 47
1000
0000
0100
0000
,  // measure 48
0001
0000
0010
0000
,  // measure 49
1000
0000
0010
0000
,  // measure 50
0001
0010
0001
0000
,  // measure 51
1000
0010
1000
0000
,  // measure 52
0001
0100
0001
0000
,  // measure 53
1000
0100
1000
0000
,  // measure 54
0001
0000
0000
1000
0000
0000
0001
0000
,  // measure 55
1000
0000
0000
0001
0000
0000
1000
0000
,  // measure 56
0001
1000
0001
1000
,  // measure 57
0002
0000
2003
0000
,  // measure 58
3000
0000
0000
0000
;

//---------------dance-single - ----------------
#NOTES:
     dance-single:
     :
     Medium:
     7:
     0.348,0.327,0.021,0.094,0.000: // measure 1
0000
0000
0000
0000
,  // measure 2
0000
0000
0000
0000
,  // measure 3
0001
1000
0100
0010
,  // measure 4
0002
0100
1000
0103
,  // measure 5
1000
0001
0100
0010
,  // measure 6
2000
0100
0001
3100
,  // measure 7
0010
0000
0010
0000
0001
0100
0001
0000
,  // measure 8
0010
0000
0010
0000
1000
0100
1000
0000
,  // measure 9
0010
0000
0010
0000
0001
0100
0001
0000
,  // measure 10
0010
1000
0100
1000
,  // measure 11
0001
0010
0100
0010
,  // measure 12
1000
0010
0100
0010
,  // measure 13
0001
0100
1000
0100
,  // measure 14
0010
0001
0100
0010
,  // measure 15
1000
0010
0100
0010
,  // measure 16
0001
0010
0100
0010
,  // measure 17
1000
0100
0001
0100
,  // measure 18
0010
1000
0100
0010
,  // measure 19
0100
1000
0010
0001
,  // measure 20
0010
0000
0000
0000
0010
0001
1000
0000
,  // measure 21
0100
0001
0010
1000
,  // measure 22
0010
0000
0000
0000
0010
1000
0001
0000
,  // measure 23
2000
0010
0001
3100
,  // measure 24
0002
0010
1000
0103
,  // measure 25
2000
0000
0002
3003
,  // measure 26
0010
0100
0010
1001
,  // measure 27
1000
0000
1000
0000
0010
1000
0100
0000
,  // measure 28
0001
0000
0001
0000
0010
0001
0100
0000
,  // measure 29
0010
0000
0010
0000
0100
0010
0100
0000
,  // measure 30
0010
1000
0001
0110
,  // measure 31
1000
0000
1000
0000
0001
0100
0001
0000
,  // measure 32
0010
0000
0010
0000
0100
1000
0100
0000
,  // measure 33
0010
0001
0100
1000
,  // measure 34
0010
0001
0100
1000
,  // measure 35
0010
0000
0100
0000
,  // measure 36
0001
0000
0010
0001
0000
0010
0000
0000
,  // measure 37
0100
1000
0010
0001
,  // measure 38
0100
0000
0001
0100
0000
0001
0000
0000
,  // measure 39
0010
1000
0100
0001
,  // measure 40
0100
0000
0010
0100
0000
0010
0000
0000
,  // measure 41
0100
1000
0010
0001
,  // measure 42
0100
0001
0010
1000
,  // measure 43
0001
0000
1000
0000
,  // measure 44
0001
0000
1000
0001
0000
1000
0100
0000
,  // measure 45
0010
0100
0010
0010
,  // measure 46
1000
0001
0100
0010
,  // measure 47
2000
0100
0001
3100
,  // measure 48
0001
1000
0100
0010
,  // measure 49
0002
0100
1000
0103
,  // measure 50
0010
0000
0010
0000
1000
0100
1000
0000
,  // measure 51
0010
0000
0010
0000
0001
0100
0001
0000
,  // measure 52
0010
0000
0010
0000
1000
0100
1000
0000
,  // measure 53
0010
0001
0100
1000
,  // measure 54
0010
0000
0000
0010
0000
0000
0010
0000
,  // measure 55
0100
0000
0000
0100
0000
0000
0100
0000
,  // measure 56
0001
1000
0100
0010
,  // measure 57
0200
0000
0000
0000
,  // measure 58
0310
0000
0000
0000
;

//---------------dance-single - Chewi----------------
#NOTES:
     dance-single:
     Chewi:
     Hard:
     12:
     0.574,0.655,0.303,0.073,0.313: // measure 1
0000
0000
0000
0000
,  // measure 2
0000
0000
0000
0000
,  // measure 3
0000
1000
0000
1100
0000
0001
0000
0101
,  // measure 4
0000
1000
0001
0010
0000
0001
1000
0010
,  // measure 5
0000
1000
0000
1010
0000
0001
0000
0011
,  // measure 6
0000
0001
1000
0100
0000
1000
0001
0100
,  // measure 7
0000
0000
0001
1000
0001
1000
0001
0000
1000
0001
1000
0001
1000
0000
0000
0000
,  // measure 8
0000
0000
0001
0010
0001
0010
0001
0000
0010
0001
0010
0001
0010
0000
0000
0000
,  // measure 9
0000
0000
1000
0100
1000
0100
1000
0000
0100
1000
0100
1000
0100
0000
0000
0000
,  // measure 10
2200
0000
3300
0000
1000
1000
0001
0001
,  // measure 11
1000
0000
0001
0000
0100
0010
1000
0000
,  // measure 12
0001
0000
1000
0000
0100
0010
0001
0000
,  // measure 13
1000
0000
0001
0000
0010
0100
1000
0000
,  // measure 14
0001
0010
0100
0000
1000
0010
0100
0000
,  // measure 15
0001
0000
0100
0000
0010
0100
0001
0000
,  // measure 16
1000
0000
0001
0000
0010
0100
1000
0000
,  // measure 17
0010
0000
1000
0000
0100
0010
0001
0000
,  // measure 18
1000
0010
0100
0000
0001
0010
0100
0000
,  // measure 19
1000
0000
0100
0000
1000
0001
1000
0100
,  // measure 20
1000
0000
0010
0000
0100
0001
1000
0000
,  // measure 21
0010
0000
0100
0000
0001
1000
0100
1000
,  // measure 22
0001
0000
0010
0000
0100
1000
0010
0000
,  // measure 23
1000
0000
0001
0000
0100
0010
1000
0001
,  // measure 24
0100
0000
0010
0000
0100
0001
1000
0000
,  // measure 25
0001
0000
0010
0000
0100
1000
0001
0010
,  // measure 26
0100
0000
0000
0010
0000
0000
0001
0000
1000
0000
0000
0000
1001
0000
0000
0000
,  // measure 27
1000
0000
0000
1000
0001
0000
0000
0001
1000
0000
0100
0000
0010
0000
0001
0000
,  // measure 28
1000
0000
0000
1000
0100
0000
0000
0100
0010
0000
0000
0010
0001
0000
0000
0001
,  // measure 29
1000
0000
0000
1000
0001
0000
0000
0001
1000
0000
0010
0000
0100
0000
0001
0000
,  // measure 30
0100
0010
0100
0001
0101
0000
1010
0000
,  // measure 31
0001
0000
0000
0001
1000
0000
0000
1000
0100
0000
0010
0000
0100
0000
1000
0000
,  // measure 32
0010
0000
0000
0010
1000
0000
0000
1000
0100
0000
0000
0100
0010
0000
0000
0010
,  // measure 33
0001
0000
0000
0001
1000
0000
0000
1000
0100
0000
0010
0000
0100
0000
1000
0000
,  // measure 34
0001
1000
1000
0000
1000
0010
0100
0001
,  // measure 35
0002
0010
1000
0103
,  // measure 36
1000
0001
1000
0001
1000
0000
0001
1000
0001
1000
0001
0000
0000
0000
0000
0000
,  // measure 37
1100
0101
1100
0101
,  // measure 38
0100
0010
0100
0010
0100
0000
0010
0100
0010
0100
0010
0000
0000
0000
0000
0000
,  // measure 39
1010
0011
1010
0011
,  // measure 40
0001
0010
0001
0010
0001
0000
0010
0001
0010
0001
0010
0000
0000
0000
0000
0000
,  // measure 41
0011
0011
1100
1100
,  // measure 42
1001
0100
1001
0010
,  // measure 43
1000
0010
0100
0001
1000
0010
0100
0000
,  // measure 44
0001
0100
0001
0100
0001
0000
1000
0001
1000
0001
1000
0000
0010
1000
0010
1000
,  // measure 45
0010
0000
0000
0000
1001
0000
0000
0000
1000
0000
0000
0001
0000
0000
1000
0000
,  // measure 46
0000
0001
0000
0011
0000
1000
0000
1010
,  // measure 47
0000
0001
1000
0100
0000
1000
0001
0100
,  // measure 48
0000
0001
0000
0101
0000
1000
0000
1100
,  // measure 49
0000
1000
0001
0010
0000
0001
1000
0010
,  // measure 50
0000
0000
1000
0001
1000
0001
1000
0000
0001
1000
0001
1000
0001
0000
0000
0000
,  // measure 51
0000
0000
1000
0100
1000
0100
1000
0000
0100
1000
0100
1000
0100
0000
0000
0000
,  // measure 52
0000
0000
0001
0010
0001
0010
0001
0000
0010
0001
0010
0001
0010
0000
0000
0000
,  // measure 53
0022
0000
0033
0000
0001
0001
1000
1000
,  // measure 54
0001
0000
0000
0001
0000
0000
0001
0000
,  // measure 55
1000
0000
0000
1000
0000
0000
1000
0000
,  // measure 56
0001
0001
1000
1000
,  // measure 57
0010
0100
0010
0100
0010
0000
0220
0000
,  // measure 58
0330
0000
0000
0000
;
