#TITLE:MaxX2 ~CORE~;
#SUBTITLE:;
#ARTIST:noeko vs. 350;
#TITLETRANSLIT:;
#SUBTITLETRANSLIT:;
#ARTISTTRANSLIT:;
#GENRE:;
#CREDIT:noeko, TaroNuke, Ama-tan;
#MENUCOLOR:;
#METERTYPE:DDR X;
#BANNER:MaxX2 ~CORE~.png;
#BACKGROUND:MaxX2 ~CORE~-bg.png;
#LYRICSPATH:;
#CDTITLE:;
#MUSIC:MaxX2 ~CORE~.ogg;
#OFFSET:-0.025;
#SAMPLESTART:85.060;
#SAMPLELENGTH:11.000;
#SELECTABLE:YES;
#LISTSORT:;
#BPMS:0.000=700.000,0.003=87.500,8.000=175.000,24.000=350.000,80.000=350.000,84.000=1400.000,85.000=700.000,87.000=350.000,88.000=700.000,88.500=1400.000,89.000=2800.000,120.000=350.000,121.000=175.000,122.000=140.000,123.000=105.000,124.000=70.000,125.000=35.000,126.000=17.500,126.125=350.000,128.000=87.500,144.000=175.000,176.000=87.500,192.000=175.000,287.000=350.000,432.000=999.995,432.250=650.000,432.500=625.000,432.750=600.000,433.000=575.000,433.250=550.000,433.500=525.000,433.750=500.000,434.000=475.000,434.250=450.000,434.500=425.000,434.750=400.000,435.000=375.000,435.250=350.000,435.500=325.000,435.750=300.000,436.000=275.000,436.250=250.000,436.500=225.000,436.750=200.000,437.000=175.000,437.250=150.000,437.500=125.000,437.750=100.000,438.000=75.000,438.250=50.000,438.500=25.000,438.750=12.000,439.000=6.000,439.125=1400.000;
#STOPS:23.250=0.010
,23.500=0.010
,23.750=0.010
,24.000=0.010
,80.000=0.080
,81.000=0.080
,82.000=0.080
,82.500=0.080
,120.000=0.160
,121.000=0.080
,124.750=0.160
,125.000=0.080
,126.000=0.160
,126.125=1.960
,176.000=0.060
,287.000=0.160
,432.000=0.020
,439.125=0.640
;
#BGCHANGES:;
#ATTACKS:;

//---------------dance-single - noeko vs. Ama-tan----------------
#NOTES:
     dance-single:
     noeko vs. Ama-tan:
     Challenge:
     18:
     0.764,1.000,0.341,0.233,0.446: // measure 1
0000
0000
0000
0000
,  // measure 2
0000
0000
0000
0000
0000
0000
0000
0000
0000
0000
0000
0000
0000
0010
0010
0000
,  // measure 3
0001
0000
0101
0000
0000
1000
1100
0000
,  // measure 4
0001
0000
0011
0000
0000
1000
1010
0000
,  // measure 5
1000
0000
1100
0000
0000
0001
0101
0000
,  // measure 6
0001
0000
0011
0000
0000
0010
0010
0000
,  // measure 7
0001
0000
0100
0000
0010
1000
0000
0010
,  // measure 8
1000
0000
0100
0000
0010
0001
0000
0010
,  // measure 9
0001
0000
0100
0000
0010
1000
0000
0010
,  // measure 10
1000
0000
0001
0000
0001
0000
1000
0100
,  // measure 11
1000
0000
0001
0100
0001
0000
0100
0000
,  // measure 12
0010
0000
1000
0010
1000
0000
0010
0000
,  // measure 13
0100
0001
1000
0000
0100
0010
0000
0010
,  // measure 14
0100
1000
1000
0000
,  // measure 15
0001
0100
0001
0000
0100
0010
0100
0010
,  // measure 16
1000
0100
1000
0000
0010
0100
0010
0100
,  // measure 17
0001
0100
0001
0000
1000
0100
0010
0001
,  // measure 18
1000
0001
0001
1000
,  // measure 19
0001
0100
0001
0100
0001
0100
0001
0000
,  // measure 20
1000
0100
1000
0100
1000
0100
1000
0000
,  // measure 21
0001
1000
0001
1000
0010
0100
0020
0000
,  // measure 22
0200
0330
0000
MMMM
,  // measure 23
2002
0000
0000
0000
,  // measure 24
0000
0000
0000
0000
,  // measure 25
0000
0000
0000
0000
,  // measure 26
0000
0000
0000
0000
,  // measure 27
0000
0000
0000
0000
,  // measure 28
0000
0000
0000
0000
,  // measure 29
0000
0000
0000
0000
,  // measure 30
0000
0000
0000
0000
,  // measure 31
0000
0000
0000
0000
,  // measure 32
0000
0000
0000
0000
0000
0000
0000
0000
0000
0000
0000
0000
0000
0000
0000
0000
0000
3003
0000
0000
0000
0000
0000
0000
0000
0000
0000
0000
0000
0000
0000
0000
,  // measure 33
2002
0000
0000
0000
0000
0000
0000
0003
,  // measure 34
0020
0000
0000
0000
0000
0000
0000
3000
,  // measure 35
0200
0000
0000
0000
0000
0000
0000
0030
,  // measure 36
0002
0000
0000
0000
0000
0000
0300
0003
,  // measure 37
1000
0000
0001
0000
0100
0000
0001
0100
,  // measure 38
0000
0000
0110
0000
0000
0000
1000
0100
,  // measure 39
0001
0100
1000
0000
0010
0000
0100
0001
,  // measure 40
0000
0010
0100
0000
1100
0000
0101
0000
,  // measure 41
1001
0000
1000
0100
,  // measure 42
0010
0001
0000
0100
,  // measure 43
0110
0000
0001
0000
1000
0000
0010
0100
,  // measure 44
0000
0000
0001
0000
0100
0000
0001
0010
,  // measure 45
0200
0000
1000
0000
0000
0010
0000
0000
1000
0000
0000
0310
0000
0000
0100
0000
0000
0000
1000
0000
0000
0010
0000
0000
1000
0000
0000
0010
0000
0000
0100
0000
,  // measure 46
0200
0000
0001
0000
0000
0010
0000
0000
0001
0000
0000
0310
0000
0000
0100
0000
0000
0000
0001
0000
0000
0010
0000
0000
0001
0000
0000
0010
0000
0000
0100
0000
,  // measure 47
1000
0000
0100
0000
0000
0001
0000
0000
0010
0000
0000
0001
0000
0000
0100
0000
0000
0000
1000
0000
0000
0010
0000
0000
0001
0000
0000
0010
0000
0000
1000
0000
,  // measure 48
0001
0000
0100
0000
0000
1000
0000
0000
0010
0000
0000
1000
0000
0000
0100
0000
0000
0000
0001
0000
0000
0010
0000
0000
1000
0000
0000
0010
0000
0000
0001
0000
,  // measure 49
1000
0000
0000
0100
0000
0000
0001
0000
0000
0100
0000
0000
1000
0000
1000
0000
,  // measure 50
0001
0000
0000
0100
0000
0000
1000
0000
0000
0100
0000
0000
0001
0000
0001
0000
,  // measure 51
1001
0000
0000
1100
0000
0000
0011
0000
0000
1100
0000
0000
1001
0000
0110
0000
,  // measure 52
1001
0000
0000
0001
0100
0000
0101
0000
0000
1000
0000
0100
1000
0000
1100
0000
,  // measure 53
0001
0000
0000
0010
0000
0000
1000
0000
0000
0010
0000
0000
0001
0000
0001
0000
,  // measure 54
1000
0000
0000
0010
0000
0000
0001
0000
0000
0010
0000
0000
1000
0000
1000
0000
,  // measure 55
1001
0000
0000
0101
0000
0000
1010
0000
0000
0101
0000
0000
1001
0000
0110
0000
,  // measure 56
1001
0000
1000
0010
0000
0010
1000
0000
0200
0000
0320
0000
0031
0000
0000
0000
,  // measure 57
1000
0000
0100
0000
0000
0010
0000
0001
1000
0000
0010
0000
0000
0100
0000
0001
,  // measure 58
1000
0000
0100
0000
0000
0010
0000
0001
0100
0000
1000
0000
0100
0000
0001
0000
,  // measure 59
1000
0000
0001
0000
0000
0010
0000
0100
1000
0000
0001
0000
0000
0100
0000
0010
,  // measure 60
1000
0000
0001
0000
0000
0010
0000
0100
1000
0000
0100
0000
0001
0000
0100
0000
,  // measure 61
1000
0000
1100
0000
0000
0001
0000
0100
0001
0000
0101
0000
0000
1000
0000
0100
,  // measure 62
1000
0000
1100
0000
0000
0001
0000
0010
0001
0000
1100
0000
1001
0000
0110
0000
,  // measure 63
0001
0000
0101
0000
0000
1000
0000
0100
1000
0000
1100
0000
0000
0001
0000
0010
,  // measure 64
0001
0000
0011
0000
0000
1000
0000
0010
1000
0000
1010
0000
1001
0000
1010
0000
,  // measure 65
0010
0000
0010
2000
0000
3001
0000
0001
0010
0000
0010
0002
0000
1003
0000
1000
,  // measure 66
0010
0000
1000
0002
0000
0103
0000
0100
0010
0000
1000
0000
0100
0000
0010
0001
,  // measure 67
0010
0000
0010
0002
0000
1003
0000
1000
0010
0000
0010
2000
0000
3001
0000
0001
,  // measure 68
0010
0000
0001
2000
0000
3100
0000
0100
0010
0000
0001
0000
0100
0000
0010
1000
,  // measure 69
0100
0000
0100
2000
0000
3001
0000
0001
0100
0000
0100
0002
0000
1003
0000
1000
,  // measure 70
0100
0000
1000
0002
0000
0103
0000
0100
0010
0000
1000
0000
0100
0000
0010
0001
,  // measure 71
1000
0100
1000
0200
0000
0310
0000
0010
0001
0100
0001
0200
0000
0310
0000
0010
,  // measure 72
1000
0000
0001
0100
0000
0100
0001
0000
2000
0000
3002
0000
0103
0000
MMMM
0000
,  // measure 73
1000
0100
1000
0100
0010
0001
0010
0001
,  // measure 74
1000
0010
1000
0010
0100
0001
0100
0001
,  // measure 75
1000
0001
1000
0001
0100
0010
0100
0010
,  // measure 76
1000
0000
0001
0100
0001
0000
1000
0000
,  // measure 77
0001
0100
0001
0100
0010
1000
0010
1000
,  // measure 78
0001
0010
0001
0010
0100
1000
0100
1000
,  // measure 79
0001
1000
0001
1000
0100
0010
0100
0010
,  // measure 80
0001
0100
1000
0100
,  // measure 81
0001
0010
0001
0010
0100
1000
0100
1000
,  // measure 82
0001
0100
0001
0100
0010
1000
0010
1000
,  // measure 83
0001
0010
0100
1000
0001
0100
0010
1000
,  // measure 84
0001
0000
1000
0100
1000
0000
0001
0000
,  // measure 85
1000
0010
1000
0010
0100
0001
0100
0001
,  // measure 86
1000
0100
1000
0100
0010
0001
0010
0001
,  // measure 87
1000
0100
0010
0001
1000
0010
0100
0001
,  // measure 88
1000
0100
0010
0001
1000
0010
0100
0001
,  // measure 89
1000
0100
1000
0001
1000
0100
1000
0001
,  // measure 90
1000
0010
1000
0001
1000
0010
1000
0001
,  // measure 91
0100
0010
0100
0001
0100
0010
0100
0001
,  // measure 92
0010
0100
0010
0001
0010
0100
0010
0001
,  // measure 93
1000
0100
0010
0001
0100
0010
0100
0001
,  // measure 94
1000
0010
0001
0010
1000
0100
0010
0001
,  // measure 95
1000
0010
0100
0001
0010
0100
0010
0001
,  // measure 96
1000
0100
0001
0100
1000
0010
0100
0001
,  // measure 97
1000
0000
0001
0100
0010
0000
1000
0100
,  // measure 98
0010
0000
0001
0100
0010
0000
1000
0010
,  // measure 99
0100
0000
0001
0010
0100
0000
1000
0010
,  // measure 100
0100
0000
0001
0010
0100
0000
1000
0010
,  // measure 101
0100
0000
0010
0100
0001
0000
0010
0100
,  // measure 102
1000
0000
0001
0010
0100
0000
1000
0010
,  // measure 103
1000
0100
0001
0000
1000
0010
0001
0000
,  // measure 104
1000
0100
0001
0000
1000
0010
0001
2000
,  // measure 105
0002
0000
0000
0000
,  // measure 106
0000
0000
0000
0000
,  // measure 107
0000
0000
0000
0000
,  // measure 108
0000
0000
0000
3003
,  // measure 109
0220
0000
0000
0000
,  // measure 110
0000
0000
0000
0000
0000
0000
0000
0000
0000
0000
0000
0000
0000
0000
0000
0000
0000
0000
0000
0000
0000
0000
0000
0000
0330
0110
0000
0000
MMMM
0000
0000
0000
;

//---------------dance-single - noeko vs. Mr.TARO----------------
#NOTES:
     dance-single:
     noeko vs. Mr.TARO:
     Hard:
     15:
     0.606,0.894,0.140,0.202,0.128:
0000
0000
0000
0000
,
0000
0000
0000
0000
,
0000
1000
0100
1000
0000
0001
0010
0001
,
0000
1000
0100
0010
0000
0001
0010
0001
,
0000
1000
0010
0100
0000
0001
0010
0001
,
0000
1000
0010
1000
0000
0010
0010
0000
,
1000
0000
0100
0000
1000
0001
0000
1000
,
0001
0000
0100
0000
0001
1000
0000
0001
,
1000
0100
0001
0100
,
0010
0001
1000
0000
,
0001
0000
0010
0000
0001
0100
0000
0010
,
1000
0000
0010
0000
1000
0100
0000
0010
,
0001
0100
1000
0100
,
0010
0000
1000
0000
1000
0000
0001
1000
,
0002
0000
0010
0010
,
1000
1000
0013
0000
,
2001
0000
0010
0010
,
0001
0001
3010
0000
,
1000
0100
0010
0010
,
0001
0000
0100
0000
0010
0100
0010
0100
,
0002
0000
0000
0000
,
1003
0000
0000
0000
,
0220
0000
0000
0000
,
0000
0000
0000
0000
,
0000
0000
0000
0000
,
0000
0000
0000
0000
,
0000
0000
0000
0000
,
0000
0000
0000
0000
,
0000
0000
0000
0000
,
0000
0000
0000
0000
,
0000
0000
0000
0000
,
0000
0000
0000
0000
0000
0000
0000
0000
0000
0000
0000
0000
0000
0000
0000
0000
0000
0330
0000
0000
0000
0000
0000
0000
0000
0000
0000
0000
0000
0000
0000
0000
,
0002
0000
0000
0000
0000
0000
0000
0003
,
2000
0000
0000
0000
0000
0000
0000
3000
,
0200
0000
0000
0000
0000
0000
0000
0300
,
0020
0000
0000
0000
0000
0000
0000
0030
,
0001
0000
1000
0000
0100
0000
1000
0100
,
0000
0000
0110
0000
0000
0000
0010
0100
,
0010
0100
1000
0000
1000
0000
0001
0100
,
0000
0100
0001
0000
1100
0000
0110
0000
,
0011
0000
1000
0100
,
0001
0010
0000
0100
,
0110
0000
1000
0000
1000
0000
0010
0100
,
0000
0000
0100
0000
0001
0000
1000
0001
,
0000
0000
1000
0000
0000
1000
0000
0000
1000
0000
0000
1000
0000
0000
0001
0000
0000
0000
1000
0000
0000
1000
0000
0000
1000
0000
0000
1000
0000
0000
0001
0000
,
0000
0000
0100
0000
0000
0100
0000
0000
0100
0000
0000
0100
0000
0000
0010
0000
0000
0000
0100
0000
0000
0100
0000
0000
0100
0000
0000
0100
0000
0000
0001
0000
,
0000
0000
0001
0000
0000
0010
0000
0000
0100
0000
0000
1000
0000
0000
0010
0000
0000
0000
1000
0000
0000
0100
0000
0000
0010
0000
0000
0001
0000
0000
0100
0000
,
0000
0000
0001
0000
0000
0100
0000
0000
0010
0000
0000
1000
0000
0000
0100
0000
0000
0000
1000
0000
0000
0010
0000
0000
0100
0000
0000
0001
0000
0000
0010
0000
,
0001
0010
0000
0011
0000
1100
0000
1000
,
0001
0100
1000
0100
,
0001
0100
0000
0101
0000
1010
0000
1000
,
0001
0010
1000
0010
,
0100
0010
0100
0010
0000
1001
0000
1000
,
0001
0100
1000
0100
,
0010
0100
0010
0100
0000
1001
0000
0001
,
1000
0000
0100
0000
0002
0203
2300
3020
,
0130
0001
0100
0001
0010
0001
0010
0001
,
1000
0100
1000
0100
0010
0100
0100
0100
,
0010
0001
0010
0001
0100
0001
0100
0001
,
1000
0010
1000
0010
0100
0010
0010
0010
,
0100
0001
0100
0001
1000
0100
1000
0100
,
1000
0001
1000
0001
0010
0100
0100
0100
,
1000
0001
0100
0001
0010
0100
0010
0100
,
1000
0010
1000
0010
0100
0010
0010
0010
,
1000
0100
0010
0010
0001
0100
0010
0010
,
1000
0100
0010
0010
0001
0100
0100
0100
,
0001
0010
0100
0100
1000
0010
0100
0100
,
0001
0010
0100
0100
1000
0010
0010
0010
,
1000
0100
0001
0001
0100
0010
0001
0001
,
1000
0010
0001
0001
0010
0100
0100
0100
,
0001
0100
1000
1000
0100
0010
1000
1000
,
0001
0010
1000
1000
0010
0002
1003
0000
,
1000
0000
0001
0000
0010
0100
0000
0100
,
0010
0000
0001
0000
0100
0010
0000
0010
,
0100
0000
0001
0000
0010
0100
0000
0100
,
0010
0002
0203
0310
,
0010
0000
1000
0000
0100
0010
0000
0010
,
0100
0000
1000
0000
0010
0100
0000
0100
,
0010
0000
1000
0000
0100
0010
0000
0010
,
0100
2000
3020
0130
,
0100
0000
0001
0000
0100
0010
0100
0010
,
0100
0000
0001
0000
0010
0100
0010
0100
,
0010
0000
0001
0000
0100
0010
0100
0010
,
0100
0002
0203
0310
,
0010
0000
1000
0100
0010
0100
0010
0100
,
1000
0000
0001
0100
0010
0100
0010
0100
,
0001
0000
1000
0100
0010
0100
0010
0100
,
1000
0101
1001
1010
,
0010
1000
0010
1000
,
0001
0100
0001
0100
,
0010
1000
0100
0010
,
0001
1000
0100
0010
,
0001
0010
0001
0010
0001
0010
0001
0010
,
0100
1000
0100
1000
0100
1000
0100
1000
,
0001
0010
0100
1000
0010
0100
0001
1000
,
0100
0010
0001
0100
0010
1000
0001
0100
,
0010
0100
0010
1000
,
0100
0010
0001
0100
,
0001
1000
0010
0100
,
0010
1000
0100
0010
,
0001
0100
0001
0100
0001
1000
0001
1000
,
0001
0010
0001
0010
0001
0100
0001
0100
,
0001
0000
0000
0101
0000
0000
1100
0000
,
2000
3020
0230
0302
,
2000
0000
0000
0000
,
0000
0000
0000
0000
,
0000
0000
0000
0000
,
0000
0000
0000
3003
,
2000
0000
0000
0000
,
0000
0000
0000
0000
0000
0000
0000
0000
0000
0000
0000
0000
0000
0000
0000
0000
0000
0000
0000
0000
0000
0000
0000
0000
0000
3001
0000
0000
0000
0000
0000
0000
;

//---------------dance-single - noeko----------------
#NOTES:
     dance-single:
     noeko:
     Medium:
     12:
     0.401,0.723,0.171,0.070,0.062:
0000
0000
0000
0000
,
0000
0000
0000
0000
,
1000
0000
0001
0000
0000
1000
0001
0000
,
0100
0000
0010
0000
0000
0100
0010
0000
,
1000
0000
0010
0000
0000
1000
0010
0000
,
0100
0000
0001
0000
0000
0001
0001
0000
,
1000
0100
1000
0000
,
0001
0100
0001
0000
,
1000
0100
1000
0100
,
0010
0001
0010
0000
,
0001
0010
0001
0000
,
1000
0010
1000
0000
,
0010
1000
0010
1000
,
0001
0100
0001
0000
,
0012
0000
0010
0000
,
1000
0000
1003
0000
,
2010
0000
0010
0000
,
0001
0000
3001
0000
,
1000
0010
0100
0000
,
0001
0010
0100
0000
,
2002
0000
0000
0000
,
3003
0000
0000
0000
,
0020
0000
0000
0000
,
0000
0000
0000
0000
,
0000
0000
0000
0000
,
0000
0000
0000
0000
,
0000
0000
0000
0000
,
0000
0000
0000
0000
,
0000
0000
0000
0000
,
0000
0000
0000
0000
,
0000
0000
0000
0000
,
0000
0000
0000
0000
0000
0000
0000
0000
0000
0000
0000
0000
0000
0000
0000
0000
0000
0030
0000
0000
0000
0000
0000
0000
0000
0000
0000
0000
0000
0000
0000
0000
,
1000
0000
0000
0000
,
0001
0000
0000
0000
,
0001
0000
0000
0000
,
0010
0000
0000
0000
,
0001
1000
0100
1000
,
0001
1000
0100
0000
,
1000
0001
0100
0001
,
1000
0001
0100
0000
,
0001
0000
1000
0100
,
0001
0010
0000
0100
,
0110
0000
0010
0000
,
1000
0001
1000
0000
,
1000
0100
0001
0100
,
0010
1000
0010
0001
,
1000
0010
0001
0010
,
0100
1000
0100
0001
,
1000
0000
0000
0100
0000
0000
0010
0000
,
0001
0000
0000
0100
0000
0000
0010
0000
,
1000
0000
0000
0100
0000
0000
0010
0000
,
0001
0001
1000
1000
,
0001
0000
0000
0010
0000
0000
0100
0000
,
1000
0000
0000
0010
0000
0000
0100
0000
,
0001
0000
0000
0010
0000
0000
0100
0000
,
1000
1000
0001
0001
,
1000
0000
0000
0100
0000
0000
1000
0000
0000
0100
0000
0000
0010
0000
0010
0000
,
0001
0000
0000
0100
0000
0000
0001
0000
0000
0100
0000
0000
0001
0000
0001
0000
,
0010
0000
0000
0100
0000
0000
0010
0000
0000
0100
0000
0000
1000
0000
1000
0000
,
0010
0000
0000
0100
0000
0000
0010
0000
0000
0100
0000
0000
0001
0000
0001
0000
,
1000
0000
0000
1100
0000
0000
0001
0000
0000
0101
0000
0000
0100
0000
0001
0000
,
1000
0000
0000
1010
0000
0000
0001
0000
0000
0011
0000
0000
0010
0000
0001
0000
,
1000
0000
0000
1001
0000
0000
0010
0000
0000
0110
0000
0000
0100
0000
0100
0000
,
0001
0000
0000
1001
0000
0000
0100
0000
0000
0110
0000
0000
0010
0000
0010
0000
,
1000
0001
1000
0001
,
0100
0010
0100
0000
0001
1000
0001
1000
,
0010
0100
0010
0100
,
0001
1000
0001
0000
0010
0100
0010
0010
,
0001
1000
0001
1000
,
0100
0010
0100
0000
1000
0001
1000
0001
,
0010
0100
0010
0100
,
0001
0001
1000
1000
,
0001
0010
0100
1000
,
0010
0100
0001
0010
,
0100
1000
0010
0100
,
0001
0100
1000
0100
,
0001
0100
0010
1000
,
0100
0010
0001
0100
,
0010
1000
0100
0010
,
0001
0010
1000
0010
,
0001
0010
0100
1000
,
0001
0010
0100
1000
,
0010
0100
0001
1000
,
0010
0100
0001
1000
,
0001
0010
0100
0010
,
0001
0010
0100
0010
,
0001
1000
0010
0100
,
0001
0100
1000
0100
,
0001
0000
0101
0000
,
1000
0100
1100
0000
,
0001
0000
0101
0000
,
1000
0100
1100
0000
,
1000
0010
0100
0010
,
1000
0000
0001
0100
,
0010
0100
0001
0000
,
1000
0100
1000
0000
,
0001
0100
0101
0000
,
1000
0100
1100
0000
,
0001
0010
0011
0000
,
1000
0010
1010
0000
,
1000
0100
0001
0000
,
1000
0010
0001
0000
,
1000
0100
0001
0000
,
1000
0010
0001
0000
,
2002
0000
0000
0000
,
0000
0000
0000
0000
,
0000
0000
0000
0000
,
0000
0000
0000
3003
,
2002
0000
0000
0000
,
0000
0000
0000
0000
0000
0000
0000
0000
0000
0000
0000
0000
0000
0000
0000
0000
0000
0000
0000
0000
0000
0000
0000
0000
0000
3003
0000
0000
0000
0000
0000
0000
;

//---------------dance-single - TaroNuke----------------
#NOTES:
     dance-single:
     TaroNuke:
     Easy:
     8:
     0.294,0.585,0.078,0.186,0.000:
0000
0000
0000
0000
,
0000
0000
0000
0000
,
1000
0001
1000
0001
,
0100
0010
0100
0010
,
1000
0010
1000
0010
,
0100
0100
0100
0000
,
0001
0000
0000
0000
,
1000
0000
0000
0000
,
0001
0000
0000
0000
,
1000
0000
0000
0000
,
0010
0000
0000
0000
,
0100
0000
0000
0000
,
0010
0000
0000
0000
,
0100
0000
0000
0000
,
0012
0000
0000
0000
,
1003
0000
0000
0000
,
2010
0000
0000
0000
,
3001
0000
0000
0000
,
1000
0000
1000
0000
,
0001
0000
0001
0000
,
2002
0000
0000
0000
,
3003
0000
0000
0000
,
2002
0000
0000
0000
,
0000
0000
0000
0000
,
0000
0000
0000
0000
,
0000
0000
0000
0000
,
0000
0000
0000
0000
,
0000
0000
0000
0000
,
0000
0000
0000
0000
,
0000
0000
0000
0000
,
0000
0000
0000
0000
,
0000
0000
0000
0000
0000
0000
0000
0000
0000
0000
0000
0000
0000
0000
0000
0000
0000
3003
0000
0000
0000
0000
0000
0000
0000
0000
0000
0000
0000
0000
0000
0000
,
1000
0000
0000
0000
,
0001
0000
0000
0000
,
0001
0000
0000
0000
,
0010
0000
0000
0000
,
0001
0000
0001
0000
,
1000
0000
1000
0000
,
0001
0000
0001
0000
,
1000
0000
1000
0000
,
0010
0000
0100
0000
,
0010
0000
0010
0000
,
1000
0000
0100
0000
,
0001
0000
0010
0000
,
2000
0000
3020
0000
,
0230
0000
0302
0000
,
2003
0000
3200
0000
,
0320
0000
0032
0000
,
1003
1000
1000
0000
,
0001
0001
0001
0000
,
0100
0100
0100
0000
,
0010
0010
0010
0000
,
1000
0010
1000
0000
,
0001
0100
0001
0000
,
1000
0100
0010
0100
,
1000
1000
1000
0000
,
0001
0100
0010
0100
,
0001
0100
0010
0010
,
1000
0100
0010
0100
,
1000
0100
0010
0010
,
0001
0100
0001
0100
,
0010
0100
0010
0010
,
1000
0100
1000
0100
,
0010
0100
0010
0010
,
0001
0001
1000
1000
,
0001
0000
0001
0000
0100
0100
0100
0000
,
0001
0001
1000
1000
,
0001
0000
0001
0000
0100
0100
0100
0000
,
0002
1003
2000
3001
,
0002
0000
1003
0000
0100
0100
0100
0000
,
2000
3001
0002
1003
,
2000
3001
0001
1000
,
0001
0000
0101
0000
,
1000
0000
1100
0000
,
1000
0000
0100
0000
,
0010
0000
0100
0000
,
1000
0000
1010
0000
,
0001
0000
0011
0000
,
0001
0000
0010
0000
,
0100
0000
0010
0000
,
0001
1000
0001
0000
,
1000
0001
1000
0000
,
0001
0000
0010
0000
,
0100
0000
1000
0000
,
1000
0001
1000
0000
,
0001
1000
0001
0000
,
1000
0000
0100
0000
,
0010
0000
0001
0000
,
0001
0100
0001
0000
,
1000
0100
1000
0000
,
0001
0000
0010
0000
,
0100
0000
1000
0000
,
0001
0010
0001
0000
,
1000
0010
1000
0000
,
0001
0000
0100
0000
,
0010
0000
1000
0000
,
0001
0100
0001
0000
,
1000
0100
1000
0000
,
0001
0010
0001
0000
,
1000
0010
1000
0000
,
0001
0000
0010
0000
,
0100
0000
1000
0000
,
0100
0000
0010
0000
,
0001
0000
1000
0000
,
2002
0000
0000
0000
,
0000
0000
0000
0000
,
0000
0000
0000
0000
,
3003
0000
0000
0000
,
2020
0000
0000
0000
,
0000
0000
0000
0000
0000
0000
0000
0000
0000
0000
0000
0000
0000
0000
0000
0000
0000
0000
0000
0000
0000
0000
0000
0000
0000
0030
0000
0000
0000
0000
0000
0000
,
0000
0000
0000
0000
,
0000
0000
0000
0000
,
0000
0000
0000
0000
,
0000
0000
0000
0000
,
0000
0000
0000
0000
,
0000
0000
0000
0000
,
3000
0000
0000
0000
;

//---------------dance-single - TaroNuke----------------
#NOTES:
     dance-single:
     TaroNuke:
     Beginner:
     4:
     0.151,0.270,0.054,0.070,0.000:
0000
0000
0000
0000
,
0000
0000
0000
0000
,
1000
0000
0001
0000
,
0100
0000
0010
0000
,
1000
0000
0010
0000
,
0100
0000
0100
0000
,
0001
0000
0000
0000
,
1000
0000
0000
0000
,
0001
0000
0000
0000
,
1000
0000
0000
0000
,
0010
0000
0000
0000
,
0100
0000
0000
0000
,
0010
0000
0000
0000
,
0100
0000
0000
0000
,
0012
0000
0000
0000
,
1000
0000
0000
0000
,
0010
0000
0000
0000
,
1003
0000
0000
0000
,
1000
0000
0000
0000
,
0001
0000
0000
0000
,
2002
0000
0000
0000
,
0000
0000
0000
0000
,
0000
0000
0000
0000
,
0000
0000
0000
0000
,
0000
0000
0000
0000
,
0000
0000
0000
0000
,
0000
0000
0000
0000
,
0000
0000
0000
0000
,
0000
0000
0000
0000
,
0000
0000
0000
0000
,
0000
0000
0000
0000
,
0000
0000
0000
0000
0000
0000
0000
0000
0000
0000
0000
0000
0000
0000
0000
0000
0000
3003
0000
0000
0000
0000
0000
0000
0000
0000
0000
0000
0000
0000
0000
0000
,
0000
0000
1001
0000
,
0000
0000
0110
0000
,
0000
0000
1001
0000
,
0000
0000
0110
0000
,
0001
0000
0000
0000
,
1000
0000
0000
0000
,
0010
0000
0000
0000
,
0100
0000
0000
0000
,
0010
0000
0000
0000
,
0100
0000
0000
0000
,
0001
0000
0000
0000
,
1000
0000
0000
0000
,
2000
0000
0000
0000
,
3002
0000
0000
0000
,
0203
0000
0000
0000
,
0320
0000
0000
0000
,
1030
0000
0000
0000
,
0001
0000
0000
0000
,
0100
0000
0100
0000
,
0010
0000
0010
0000
,
1000
0000
0000
0000
,
0001
0000
0000
0000
,
0010
0000
0010
0000
,
0100
0000
0100
0000
,
1000
0000
0000
0000
,
0001
0000
0000
0000
,
1000
0000
0100
0000
,
1000
0000
0000
0000
,
0001
0000
0000
0000
,
1000
0000
0000
0000
,
0001
0000
0100
0000
,
0001
0000
0000
0000
,
1000
0000
0001
0000
,
1000
0000
0100
0100
,
1000
0000
0001
0000
,
1000
0000
0100
0100
,
1000
0000
1000
0000
,
0001
0000
0100
0100
,
0001
0000
0001
0000
,
1000
0000
0000
0000
,
0000
0000
0000
0000
,
0000
0000
0000
0000
,
1000
0000
0100
0000
,
0010
0000
0100
0000
,
1000
0000
0000
0000
,
0000
0000
0000
0000
,
0001
0000
0010
0000
,
0100
0000
0010
0000
,
0001
0000
0000
0000
,
0000
0000
0000
0000
,
1000
0000
0010
0000
,
0100
0000
0010
0000
,
1000
0000
0000
0000
,
0000
0000
0000
0000
,
0001
0000
0100
0000
,
0010
0000
0100
0000
,
0001
0000
0000
0000
,
0000
0000
0000
0000
,
0100
0000
0100
0000
,
0100
0000
0100
0000
,
0100
0000
0000
0000
,
0000
0000
0000
0000
,
0010
0000
0010
0000
,
0010
0000
0010
0000
,
0010
0000
0000
0000
,
0000
0000
0000
0000
,
1000
0000
1000
0000
,
1000
0000
1000
0000
,
1000
0000
0000
0000
,
0001
0000
0000
0000
,
1000
0000
0001
0000
,
1000
0000
0001
0000
,
2002
0000
0000
0000
,
0000
0000
0000
0000
,
0000
0000
0000
0000
,
0000
0000
0000
0000
,
0000
0000
0000
0000
,
0000
0000
0000
0000
,
0000
0000
0000
0000
,
0000
0000
0000
0000
,
0000
0000
0000
0000
,
0000
0000
0000
0000
,
0000
0000
0000
0000
,
0000
0000
0000
0000
,
3003
0000
0000
0000
;
