#TITLE:Marble;
#SUBTITLE:;
#ARTIST:Tai Jason feat. immi;
#TITLETRANSLIT:;
#SUBTITLETRANSLIT:;
#ARTISTTRANSLIT:;
#GENRE:Electro;
#CREDIT:chewi;
#BANNER:Marble.png;
#BACKGROUND:Marble-bg.png;
#LYRICSPATH:;
#CDTITLE:cdtitle.png;
#MUSIC:Marble.ogg;
#OFFSET:-0.212000;
#SAMPLESTART:77.477997;
#SAMPLELENGTH:15.000000;
#SELECTABLE:YES;
#BPMS:0.000000=115.000000
,64.000000=57.500000
,68.000000=115.000000
,100.000000=57.500000
,116.000000=230.000000
,124.000000=57.500000
,125.500000=115.000000
;
#STOPS:116.000000=2.086952,
125.500000=0.261744,
129.000000=0.260872,
136.500000=0.260872
;
#BGCHANGES:;
#KEYSOUNDS:;
#ATTACKS:;

//---------------dance-single - ----------------
#NOTES:
     dance-single:
     :
     Beginner:
     2:
     0.085443,0.119367,0.000000,0.070962,0.000000,52.000000,0.000000,7.000000,0.000000,0.000000,0.000000,0.085443,0.119367,0.000000,0.070962,0.000000,52.000000,0.000000,7.000000,0.000000,0.000000,0.000000:
// measure 0
0000
0000
0000
0000
,  // measure 1
0000
0000
0000
0000
,  // measure 2
0000
0000
0000
0000
,  // measure 3
0000
0000
0000
0000
,  // measure 4
2000
0000
0000
3000
,  // measure 5
2000
0000
0000
3000
,  // measure 6
0002
0000
0000
0003
,  // measure 7
0002
0000
0000
0003
,  // measure 8
0001
0000
0001
0000
,  // measure 9
1000
0000
1000
0000
,  // measure 10
0010
0000
0010
0000
,  // measure 11
1000
0000
0001
0000
,  // measure 12
1000
0000
1000
0000
,  // measure 13
0001
0000
0001
0000
,  // measure 14
0100
0000
0100
0000
,  // measure 15
0001
0000
0001
0000
,  // measure 16
0002
0000
0000
0003
,  // measure 17
0001
0000
0010
0000
,  // measure 18
1000
0000
0100
0000
,  // measure 19
0001
0000
0010
0000
,  // measure 20
1000
0000
0100
0000
,  // measure 21
0001
0000
0100
0000
,  // measure 22
1000
0000
0010
0000
,  // measure 23
0001
0000
0100
0000
,  // measure 24
1000
0000
0010
0000
,  // measure 25
0020
0000
0000
0030
,  // measure 26
0010
0000
0000
0000
,  // measure 27
0200
0000
0000
0300
,  // measure 28
0100
0000
0000
0000
,  // measure 29
0000
0000
0000
0000
,  // measure 30
0000
0000
0000
0000
,  // measure 31
0000
0000
1000
0000
,  // measure 32
0000
0000
0000
0001
0000
0000
0000
0000
,  // measure 33
0000
0000
0000
1000
0000
0000
0000
0000
,  // measure 34
0000
0001
0000
0001
,  // measure 35
0000
0100
0000
0000
,  // measure 36
0000
0100
0000
0000
,  // measure 37
0000
0010
0000
0000
,  // measure 38
0000
0010
0000
0100
,  // measure 39
0000
0001
0000
0000
;

//---------------dance-single - ----------------
#NOTES:
     dance-single:
     :
     Easy:
     4:
     0.141923,0.159157,0.040549,0.050687,0.000000,89.000000,4.000000,5.000000,0.000000,0.000000,0.000000,0.141923,0.159157,0.040549,0.050687,0.000000,89.000000,4.000000,5.000000,0.000000,0.000000,0.000000:
// measure 0
0000
0000
0000
0000
,  // measure 1
0000
0000
0000
0000
,  // measure 2
0000
0000
0000
0000
,  // measure 3
0000
0000
0000
0000
,  // measure 4
2000
0000
3000
0000
,  // measure 5
0002
0000
0003
0000
,  // measure 6
2000
0000
3000
0000
,  // measure 7
0002
0003
0002
0003
,  // measure 8
0001
0001
0001
0000
,  // measure 9
0010
0010
0010
0000
,  // measure 10
0100
0100
0100
0000
,  // measure 11
1000
1000
1000
0000
,  // measure 12
1000
0001
1000
0000
,  // measure 13
0001
1000
0001
0000
,  // measure 14
0010
0100
0010
0000
,  // measure 15
0100
0010
0100
0000
,  // measure 16
0100
0000
0100
0000
,  // measure 17
0010
0010
0010
0000
,  // measure 18
0001
1000
0100
0000
,  // measure 19
0100
0100
0100
0000
,  // measure 20
1000
0001
0010
0000
,  // measure 21
0001
0001
0001
0000
,  // measure 22
1000
0010
1000
0000
,  // measure 23
0010
0010
0010
0000
,  // measure 24
1000
0010
0100
0001
,  // measure 25
1000
0000
1000
0000
,  // measure 26
0001
0000
0001
0000
,  // measure 27
0010
0000
0010
0000
,  // measure 28
0100
0000
0100
0000
,  // measure 29
0100
0000
0000
0000
,  // measure 30
0000
0000
0000
0000
,  // measure 31
0100
0000
0010
0010
,  // measure 32
0010
0000
0000
0001
0000
0001
0000
0001
,  // measure 33
0000
0000
0000
1000
0000
1000
0000
1000
,  // measure 34
0000
1001
0000
1001
,  // measure 35
0000
1000
1000
1000
,  // measure 36
0000
0010
0010
0010
,  // measure 37
0000
0100
0100
0100
,  // measure 38
0000
0110
0000
0110
,  // measure 39
0000
0001
0000
0000
;

//---------------dance-single - ----------------
#NOTES:
     dance-single:
     :
     Medium:
     8:
     0.223022,0.258629,0.070962,0.101374,0.040549,137.000000,7.000000,10.000000,0.000000,0.000000,0.000000,0.223022,0.258629,0.070962,0.101374,0.040549,137.000000,7.000000,10.000000,0.000000,0.000000,0.000000:
// measure 0
0000
0000
0000
0000
,  // measure 1
0000
0000
0000
0000
,  // measure 2
0000
0000
0000
0000
,  // measure 3
0000
0000
0000
0000
,  // measure 4
2020
0000
0000
3030
0000
0000
0000
0000
,  // measure 5
0202
0000
0000
0303
0000
0000
0000
0000
,  // measure 6
2002
0000
0000
3003
0000
0000
0000
0000
,  // measure 7
1000
1000
0000
0000
0001
0001
0000
0000
,  // measure 8
1000
0100
0010
0001
,  // measure 9
1000
0000
0000
0000
0100
0000
0000
0000
1000
0000
0000
1000
0100
0000
0000
0000
,  // measure 10
0001
0010
0100
1000
,  // measure 11
0001
0000
0000
0000
0010
0000
0000
0000
0001
0000
0000
0001
0010
0000
0000
0000
,  // measure 12
0010
0100
1000
0001
,  // measure 13
0100
0000
0000
0000
0001
0000
0000
0000
0100
0000
0000
0100
0001
0000
0000
0000
,  // measure 14
0100
0010
1000
0001
,  // measure 15
1000
0000
0000
0000
0100
0000
0000
0000
1000
0000
0000
1000
0100
0000
0000
0000
,  // measure 16
1000
0000
0000
0000
0000
0000
0001
1000
0001
0000
0000
0000
0000
0000
0000
0000
,  // measure 17
0001
1001
1000
1001
,  // measure 18
2000
0010
0001
3100
,  // measure 19
0100
0110
0010
0110
,  // measure 20
0020
0001
0100
0031
,  // measure 21
0010
0001
0001
0000
1000
0100
0100
0000
,  // measure 22
0002
1000
0010
0103
,  // measure 23
1000
0010
0010
0000
0001
0100
0100
0000
,  // measure 24
0200
0010
0001
0310
,  // measure 25
0010
0000
0000
0000
0000
0000
0100
0010
0100
0000
0000
0000
0000
0000
0000
0000
,  // measure 26
0000
0000
0000
0000
0000
0000
0001
1000
0000
0000
0001
0000
0000
0000
0000
0000
,  // measure 27
1000
0000
0000
0000
0000
0000
0001
1000
0001
0000
0000
0000
0000
0000
0000
0000
,  // measure 28
0000
0000
0001
1000
,  // measure 29
0100
0000
0000
0000
,  // measure 30
0000
0000
0000
0000
,  // measure 31
0010
0000
0010
0001
,  // measure 32
0010
0001
0010
0001
0000
0010
0000
0001
,  // measure 33
0010
0001
0000
1000
0000
0100
0000
1000
,  // measure 34
0100
1000
0001
0001
0000
0000
1000
1000
,  // measure 35
0000
0000
0001
0000
1000
0000
0001
1000
,  // measure 36
0001
0000
1000
0000
0001
0000
1000
0001
,  // measure 37
1000
0000
0010
0000
0100
0000
0010
0100
,  // measure 38
0010
0000
0100
0100
0000
0000
0010
0010
,  // measure 39
0000
0010
0000
0000
;

//---------------dance-single - ----------------
#NOTES:
     dance-single:
     :
     Hard:
     12:
     0.380875,0.457575,0.141923,0.091236,0.314258,240.000000,14.000000,9.000000,0.000000,0.000000,0.000000,0.380875,0.457575,0.141923,0.091236,0.314258,240.000000,14.000000,9.000000,0.000000,0.000000,0.000000:
// measure 0
0000
0000
0000
0000
,  // measure 1
0000
0000
0000
0000
,  // measure 2
0000
0000
0000
0000
,  // measure 3
0000
0000
0000
0000
,  // measure 4
2002
0000
0000
3003
0000
0000
0000
0000
,  // measure 5
0220
0000
0000
0330
0000
0000
0000
0000
,  // measure 6
2002
0000
0000
3003
0000
0000
0000
0000
,  // measure 7
1000
0100
1000
0000
0000
0000
0000
0000
0001
0100
0001
0000
0000
0000
0000
0000
,  // measure 8
1000
0000
0000
1000
0001
0000
0010
0000
0100
0000
0000
0100
1000
0000
0100
0000
,  // measure 9
0010
0000
0000
0010
0001
0000
1000
0000
0100
0000
1000
0000
1001
0000
0000
0000
,  // measure 10
0100
0000
0000
0100
0010
0000
1000
0000
0001
0000
0000
0001
1000
0000
0100
0000
,  // measure 11
0010
0000
0000
0010
0001
0000
0010
0000
0100
0000
1000
0000
1001
0000
0000
0000
,  // measure 12
1000
0000
0000
0001
1000
0000
0010
0000
0100
0000
0000
0010
0100
0000
0010
0000
,  // measure 13
1000
0000
0000
0001
0100
0000
0010
0000
1000
0000
0001
0000
0101
0000
0000
0000
,  // measure 14
1000
0000
0000
0001
1000
0000
0100
0000
0010
0000
0000
0001
0010
0000
0100
0000
,  // measure 15
1000
0000
0000
0001
1000
0000
0001
0000
0100
0000
0010
0000
1010
0000
1010
0000
,  // measure 16
1000
0000
0000
0000
0000
0000
0000
0000
0000
0000
0000
0000
0000
0000
0000
0000
0000
0000
0000
0000
0000
0000
0000
0000
0000
0000
0000
0000
0000
0000
0000
0000
0000
0000
0000
0000
0000
0000
0000
0000
0000
0000
0000
0000
0000
0000
0000
0000
0000
0000
0000
0000
0000
0000
0000
0000
0000
0000
0000
0000
0000
0000
0000
0000
0000
0000
0000
0000
0000
0000
0000
0000
1000
0000
0000
0000
0000
0000
0100
0000
0000
0000
0000
0000
0010
0000
0000
0000
0001
0000
0000
0000
0000
0000
0000
0000
1000
0000
0000
0000
0000
0000
0000
0000
0000
0000
0000
0000
0000
0000
0000
0000
0000
0000
0000
0000
0000
0000
0000
0000
0000
0000
0000
0000
0000
0000
0000
0000
0000
0000
0000
0000
0000
0000
0000
0000
0000
0000
0000
0000
0000
0000
0000
0000
0000
0000
0000
0000
0000
0000
0000
0000
0000
0000
0000
0000
0000
0000
0000
0000
0000
0000
0000
0000
0000
0000
0000
0000
0000
0000
0000
0000
0000
0000
0000
0000
0000
0000
0000
0000
0000
0000
0000
0000
0000
0000
0000
0000
0000
0000
0000
0000
,  // measure 17
0001
0000
0000
0001
0010
0000
0000
0000
1000
0000
0000
1000
0100
0000
0000
0000
,  // measure 18
0001
1000
0100
0000
1000
0001
0100
0000
0010
0000
0000
0010
0000
0000
0000
0000
,  // measure 19
0010
0000
0000
0010
1000
0000
0000
0000
0010
0000
0000
0010
0100
0000
0000
0000
,  // measure 20
0001
0100
0010
0000
1000
0000
0001
0000
1000
0100
0010
0000
0001
0000
0010
0000
,  // measure 21
0100
0000
0000
0100
1000
0000
0000
0000
0001
0000
0000
0001
0010
0000
0000
0000
,  // measure 22
0010
0100
1000
0000
0100
1000
0001
0000
1000
0000
0000
1000
0000
0000
0000
0000
,  // measure 23
1000
0000
0000
1000
0001
0000
0000
0000
0100
0000
0000
0100
0010
0000
0000
0000
,  // measure 24
1000
0010
1000
0000
0001
0000
1000
0000
0001
0100
0001
0000
1001
0000
1100
0000
,  // measure 25
0010
0000
0000
0000
0000
0000
0000
0000
0000
0000
0000
0000
0000
0000
0000
0000
0000
0000
0000
0000
0000
0000
0000
0000
0010
0000
0000
0000
0000
0000
0000
0000
0000
0000
0000
0000
0000
0000
0000
0000
0000
0000
0000
0000
0000
0000
0000
0000
0000
0000
0000
0000
0000
0000
0000
0000
0000
0000
0000
0000
0000
0000
0000
0000
0000
0000
0000
0000
0000
0000
0000
0000
0001
0000
0000
0000
0000
0000
0010
0000
0000
0000
0000
0000
0100
0000
0000
0000
1000
0000
0000
0000
0000
0000
0000
0000
0001
0000
0000
0000
0000
0000
0000
0000
0000
0000
0000
0000
0000
0000
0000
0000
0000
0000
0000
0000
0000
0000
0000
0000
1000
0000
0000
0000
0000
0000
0000
0000
0000
0000
0000
0000
0000
0000
0000
0000
0000
0000
0000
0000
0000
0000
0000
0000
0000
0000
0000
0000
0000
0000
0000
0000
0000
0000
0000
0000
0000
0000
0000
0000
0000
0000
0000
0000
0000
0000
0000
0000
1000
0000
0000
0000
0000
0000
0000
0000
0000
0000
0000
0000
0010
0000
0000
0000
0000
0000
0000
0000
0000
0000
0000
0000
,  // measure 26
0100
0000
0100
0000
0000
0000
0001
1000
0000
0100
0010
0000
0000
0000
0001
0010
,  // measure 27
0100
0000
0000
0000
0000
0000
0000
0000
0000
0000
0000
0000
0000
0000
0000
0000
0000
0000
0000
0000
0000
0000
0000
0000
1000
0000
0000
0000
0000
0000
0000
0000
0000
0000
0000
0000
0000
0000
0000
0000
0000
0000
0000
0000
0000
0000
0000
0000
0000
0000
0000
0000
0000
0000
0000
0000
0000
0000
0000
0000
0000
0000
0000
0000
0000
0000
0000
0000
0000
0000
0000
0000
1000
0000
0000
0000
0000
0000
0100
0000
0000
0000
0000
0000
0010
0000
0000
0000
0001
0000
0000
0000
0000
0000
0000
0000
1000
0000
0000
0000
0000
0000
0000
0000
0000
0000
0000
0000
0000
0000
0000
0000
0000
0000
0000
0000
0000
0000
0000
0000
1000
0000
0000
0000
0000
0000
0000
0000
0000
0000
0000
0000
0000
0000
0000
0000
0000
0000
0000
0000
0000
0000
0000
0000
0000
0000
0000
0000
0000
0000
0000
0000
0000
0000
0000
0000
0000
0000
0000
0000
0000
0000
0000
0000
0000
0000
0000
0000
0010
0000
0000
0000
0000
0000
0000
0000
0000
0000
0000
0000
0100
0000
0000
0000
0000
0000
0000
0000
0000
0000
0000
0000
,  // measure 28
0001
1001
0000
0000
0000
0100
0010
0000
,  // measure 29
0110
0000
0000
0000
,  // measure 30
0000
0000
0000
0000
,  // measure 31
2002
0000
0000
0000
0000
0000
3003
0000
1000
0000
0001
0100
0001
0000
1000
0100
,  // measure 32
1000
0000
0010
0000
0010
0000
0100
0000
0010
1000
0010
0000
0100
0001
0100
0000
,  // measure 33
0001
0000
2000
0000
3100
0000
0010
0000
0001
1000
0100
0000
1000
0001
0100
0000
,  // measure 34
0001
0000
0001
0000
1000
1000
1000
0000
0000
0000
0000
0000
0001
0001
0001
0000
,  // measure 35
0000
0000
0000
0000
0001
0000
1000
0010
1000
0000
0001
0010
0001
0000
0100
0000
,  // measure 36
0100
0000
0000
0000
0010
0000
0100
0001
0100
0000
0010
1000
0010
0000
1000
0000
,  // measure 37
0001
0000
0000
0000
0010
0000
0100
1000
0001
0000
0010
0001
1000
0000
0001
0000
,  // measure 38
1000
0000
0000
0000
0001
0001
0001
0000
0000
0000
0000
0000
1000
1000
1000
0000
,  // measure 39
0001
1000
1001
0000
0000
0000
0000
0000
;
