#VERSION:0.83;
#TITLE:Mad Clap (feat. JoeyStarr);
#SUBTITLE:;
#ARTIST:Make the Girl Dance;
#TITLETRANSLIT:;
#SUBTITLETRANSLIT:;
#ARTISTTRANSLIT:;
#GENRE:Electro;
#ORIGIN:;
#CREDIT:chewi;
#BANNER:Mad Clap (feat. JoeyStarr).png;
#BACKGROUND:Mad Clap (feat. JoeyStarr)-bg.png;
#PREVIEWVID:;
#JACKET:Mad Clap (feat. JoeyStarr)-jacket.png;
#CDIMAGE:;
#DISCIMAGE:;
#LYRICSPATH:;
#CDTITLE:cdtitle.png;
#MUSIC:Mad Clap (feat. JoeyStarr).ogg;
#OFFSET:-0.023979;
#SAMPLESTART:35.171001;
#SAMPLELENGTH:15.000000;
#SELECTABLE:YES;
#BPMS:0.000=123.000;
#STOPS:;
#DELAYS:;
#WARPS:;
#TIMESIGNATURES:0.000=4=4;
#TICKCOUNTS:0.000=4;
#COMBOS:0.000=1;
#SPEEDS:0.000=1.000=0.000=0;
#SCROLLS:0.000=1.000;
#FAKES:;
#LABELS:0.000=Song Start;
#BGCHANGES:-0.048=Mad Clap (feat. Joeystarr).avi=1.000=1=0=0=StretchNoLoop==CrossFade==,
208.000=Mad Clap (feat. JoeyStarr)-bg.png=1.000=1=0=1===CrossFade==,
99999=-nosongbg-=1.000=0=0=0 // don't automatically add -songbackground-
;
#KEYSOUNDS:;
#ATTACKS:
;

//---------------dance-single - ----------------
#NOTEDATA:;
#CHARTNAME:;
#STEPSTYPE:dance-single;
#DESCRIPTION:;
#CHARTSTYLE:;
#DIFFICULTY:Beginner;
#METER:4;
#RADARVALUES:0.190700,0.247909,0.181165,0.000000,0.000000,140.000000,121.000000,19.000000,0.000000,0.000000,0.000000,0.000000,0.000000,0.000000,0.190700,0.247909,0.181165,0.000000,0.000000,140.000000,121.000000,19.000000,0.000000,0.000000,0.000000,0.000000,0.000000,0.000000;
#CREDIT:;
#NOTES:
0000
0000
0000
0000
,
0000
0000
0000
0000
,
0000
0000
0000
0000
,
0000
0000
0000
0000
,
1000
0000
1000
0000
,
0001
0000
0001
0000
,
0100
0000
0100
0000
,
0010
0000
0010
0000
,
1000
1000
1000
0000
,
0001
0001
0001
0000
,
1000
1000
1000
0000
,
0001
0001
0001
0000
,
1001
0000
0000
0000
,
0110
0000
0000
0000
,
1001
0000
0000
0000
,
0110
0000
0000
0000
,
1001
0000
0000
0000
,
0110
0000
0000
0000
,
1001
1000
1000
0000
,
0001
0001
0001
0000
,
1000
1000
1000
0000
,
0001
0001
0001
0000
,
0110
0100
0100
0000
,
0010
0010
0010
0000
,
0100
0100
0100
0000
,
0010
0010
0010
0000
,
1001
0000
1000
0000
,
0001
0001
0001
0000
,
1001
0000
0001
0000
,
1000
1000
1000
0000
,
0110
0000
0100
0000
,
0100
0100
0100
0000
,
0110
0000
0010
0000
,
0010
0010
0010
0000
,
1000
1000
1000
1000
,
1000
1000
1000
1000
,
0001
0001
0001
0001
,
0001
0001
0001
0001
,
1000
1000
1000
1000
,
1000
1000
1000
1000
,
0001
0001
0001
0001
,
0001
0001
0001
0001
,
1001
0000
0000
0000
,
0110
0000
0000
0000
,
1001
0000
1000
0000
,
0001
0000
1000
0000
,
1001
0000
0001
0000
,
1000
0000
0001
0000
,
0110
0000
0100
0000
,
0010
0000
0100
0000
,
0110
0000
0100
0000
,
0010
0000
0100
0000
,
1001
0000
0000
0000
;

//---------------dance-single - ----------------
#NOTEDATA:;
#CHARTNAME:;
#STEPSTYPE:dance-single;
#DESCRIPTION:;
#CHARTSTYLE:;
#DIFFICULTY:Easy;
#METER:5;
#RADARVALUES:0.226115,0.297491,0.085815,0.057210,0.000000,166.000000,157.000000,9.000000,6.000000,0.000000,0.000000,0.000000,0.000000,0.000000,0.226115,0.297491,0.085815,0.057210,0.000000,166.000000,157.000000,9.000000,6.000000,0.000000,0.000000,0.000000,0.000000,0.000000;
#CREDIT:;
#NOTES:
// measure 0
0000
0000
0000
0000
,  // measure 1
0000
0000
0000
0000
,  // measure 2
0000
0000
0000
0000
,  // measure 3
0000
0000
0000
0000
,  // measure 4
1000
0100
1000
0100
,  // measure 5
0010
0001
0010
0001
,  // measure 6
0100
0001
0100
0001
,  // measure 7
1000
0010
1000
0010
,  // measure 8
1000
1000
0100
0100
,  // measure 9
0001
0001
0010
0010
,  // measure 10
1000
1000
0100
0100
,  // measure 11
0001
0001
0010
0010
,  // measure 12
2000
0000
0000
0000
,  // measure 13
3002
0000
0000
0000
,  // measure 14
0203
0000
0000
0000
,  // measure 15
0320
0000
0000
0000
,  // measure 16
2030
0000
0000
0000
,  // measure 17
3002
0000
0000
0000
,  // measure 18
0013
0010
0001
0001
,  // measure 19
0010
0001
0010
0100
,  // measure 20
1000
1000
0100
0100
,  // measure 21
1000
0100
1000
0100
,  // measure 22
1000
1000
0001
0001
,  // measure 23
0100
0010
1000
0001
,  // measure 24
0010
0010
0100
0100
,  // measure 25
1000
0001
0010
0100
,  // measure 26
0010
0001
0100
0001
,  // measure 27
0010
0010
0010
0010
,  // measure 28
0100
1000
0010
1000
,  // measure 29
0100
0100
0100
0100
,  // measure 30
0010
0100
1000
0001
,  // measure 31
0100
0010
1000
0001
,  // measure 32
0100
0010
0100
0001
,  // measure 33
0010
0100
1000
0010
,  // measure 34
1000
0100
0001
0010
,  // measure 35
1000
0000
1000
0000
,  // measure 36
1000
0100
0001
0010
,  // measure 37
1000
0000
1000
0000
,  // measure 38
0100
0001
0010
1000
,  // measure 39
0100
0000
0100
0000
,  // measure 40
0001
0000
0000
0000
,  // measure 41
1000
0000
0000
0000
,  // measure 42
1000
0000
0000
0000
,  // measure 43
0001
0000
0000
0000
,  // measure 44
0110
0010
0100
0010
,  // measure 45
0110
0100
0010
0100
,  // measure 46
1001
1000
0001
1000
,  // measure 47
1001
0001
1000
0001
,  // measure 48
0110
0010
0100
0010
,  // measure 49
0110
0100
0010
0100
,  // measure 50
1001
1000
0001
1000
,  // measure 51
1001
0001
1000
0001
,  // measure 52
1001
0000
0000
0000
;

//---------------dance-single - ----------------
#NOTEDATA:;
#CHARTNAME:;
#STEPSTYPE:dance-single;
#DESCRIPTION:;
#CHARTSTYLE:;
#DIFFICULTY:Medium;
#METER:7;
#RADARVALUES:0.310568,0.421446,0.324189,0.133490,0.000000,228.000000,194.000000,34.000000,14.000000,0.000000,0.000000,0.000000,0.000000,0.000000,0.310568,0.421446,0.324189,0.133490,0.000000,228.000000,194.000000,34.000000,14.000000,0.000000,0.000000,0.000000,0.000000,0.000000;
#CREDIT:;
#NOTES:
// measure 0
0000
0000
0000
0000
,  // measure 1
0000
0000
0000
0000
,  // measure 2
0000
0000
0000
0000
,  // measure 3
0000
0000
0000
0000
,  // measure 4
2000
3100
0002
0013
,  // measure 5
2000
3010
0002
0103
,  // measure 6
2000
3010
0002
0013
,  // measure 7
2000
3100
0002
0103
,  // measure 8
0100
0000
0100
0000
0010
0010
0010
0000
,  // measure 9
0100
0100
0010
0010
,  // measure 10
1000
0000
1000
0000
0001
0001
0001
0000
,  // measure 11
1000
1000
0001
0001
,  // measure 12
2000
0000
0100
0000
0010
0000
0100
3000
,  // measure 13
0002
0100
0010
0103
,  // measure 14
2000
0010
0100
3010
,  // measure 15
0002
0100
0010
0103
,  // measure 16
2000
0010
0100
3010
,  // measure 17
0002
0100
0010
0103
,  // measure 18
0101
0101
0011
0011
,  // measure 19
0101
0000
0100
0000
0010
1000
0100
0000
,  // measure 20
1100
1100
1010
1010
,  // measure 21
1100
0000
1100
0000
0100
0010
0001
0000
,  // measure 22
1001
1001
1100
1100
,  // measure 23
1001
0000
1001
0000
1000
0001
1000
0000
,  // measure 24
1001
1001
0101
0101
,  // measure 25
1001
0000
1001
0000
0001
1000
0001
0000
,  // measure 26
1000
0000
0001
0000
0100
0100
0100
0000
,  // measure 27
0010
0000
1000
0000
0001
0001
0001
0000
,  // measure 28
1000
0000
0100
0000
0010
0010
0010
0000
,  // measure 29
0100
0000
1000
0000
0001
0001
0001
0000
,  // measure 30
0010
0000
0100
0000
0010
0010
0010
0000
,  // measure 31
0001
0000
0100
0000
0010
0010
0010
0000
,  // measure 32
1000
0000
0010
0000
0100
0100
0100
0000
,  // measure 33
0010
0000
1000
0000
0001
0001
0001
0000
,  // measure 34
1000
0100
0010
0001
,  // measure 35
1000
0000
0001
1000
0000
1000
0001
0000
,  // measure 36
0100
0010
1000
0001
,  // measure 37
0100
0000
0001
0100
0000
0100
0001
0000
,  // measure 38
1000
0100
0010
0100
,  // measure 39
1000
0000
0001
1000
0000
1000
0001
0000
,  // measure 40
0100
0000
0000
0000
,  // measure 41
0110
0000
0000
0000
,  // measure 42
0010
0000
0000
0000
,  // measure 43
1010
0000
0000
0000
,  // measure 44
1000
0000
0000
1100
0000
0000
1000
0000
,  // measure 45
0001
0000
0000
0101
0000
0000
0100
0000
,  // measure 46
0100
0000
0000
0110
0000
0000
0100
0000
,  // measure 47
0010
0000
0000
0110
0000
0010
0010
0010
,  // measure 48
1000
0000
0000
1010
0000
0000
1000
0000
,  // measure 49
0001
0000
0000
0101
0000
0000
0001
0000
,  // measure 50
1000
0000
0000
1001
0000
0000
1000
0000
,  // measure 51
0001
0000
0000
1001
0000
1000
1000
1000
,  // measure 52
1001
0000
0000
0000
;

//---------------dance-single - ----------------
#NOTEDATA:;
#CHARTNAME:;
#STEPSTYPE:dance-single;
#DESCRIPTION:;
#CHARTSTYLE:;
#DIFFICULTY:Hard;
#METER:13;
#RADARVALUES:0.550305,0.669356,0.972568,0.114420,0.271747,404.000000,302.000000,102.000000,12.000000,0.000000,0.000000,0.000000,0.000000,0.000000,0.550305,0.669356,0.972568,0.114420,0.271747,404.000000,302.000000,102.000000,12.000000,0.000000,0.000000,0.000000,0.000000,0.000000;
#CREDIT:;
#NOTES:
// measure 0
0000
0000
0000
0000
,  // measure 1
0000
0000
0000
0000
,  // measure 2
0000
0000
0000
0000
,  // measure 3
0000
0000
0000
0000
,  // measure 4
1000
0100
1000
0000
1100
0000
0000
0000
0001
0100
0001
0000
0101
0000
0000
0000
,  // measure 5
1000
0010
1000
0000
1010
0000
0000
0000
0001
0010
0001
0000
0011
0000
0000
0000
,  // measure 6
0001
1000
0001
0000
1001
0000
0000
0000
1000
0001
1000
0000
1001
0000
0000
0000
,  // measure 7
0100
0010
0100
0000
0110
0000
0000
0000
0010
0100
0010
0000
0110
0000
0000
0000
,  // measure 8
0010
1000
0100
0000
1100
0000
0000
0000
0010
0001
0100
0000
0101
0000
0000
0000
,  // measure 9
0001
1000
0100
0000
1001
0000
0000
0000
1000
0001
0100
0000
1001
0000
0000
0000
,  // measure 10
1000
0001
0010
0000
1001
0000
0000
0000
0001
1000
0010
0000
1001
0000
0000
0000
,  // measure 11
1000
0010
0100
0000
0110
0000
0000
0000
0000
0000
0100
0000
0100
0000
0100
0000
,  // measure 12
0101
0101
0101
0101
0101
0022
0000
0033
,  // measure 13
1100
1100
1100
1100
1100
2020
0000
3030
,  // measure 14
1001
1001
1001
1001
1001
0220
0000
0330
,  // measure 15
0110
0110
0110
0110
0110
2002
0000
3003
,  // measure 16
1100
1100
1100
1100
1100
2002
0000
3003
,  // measure 17
0101
0101
0101
0101
0101
2002
0000
3003
,  // measure 18
1010
1001
1100
1001
1010
1001
0000
0000
,  // measure 19
1001
0011
1001
0101
1001
0011
0000
0000
,  // measure 20
0110
1100
0110
0011
0110
1001
0000
0000
,  // measure 21
1001
0101
0110
1010
1001
0110
0000
0000
,  // measure 22
1000
0010
1000
0010
1000
0000
0001
0000
0100
0000
0010
0000
0100
0000
0001
0000
,  // measure 23
0010
0001
0010
0001
0010
0000
0100
0000
1000
0000
0001
0000
1000
0000
0100
0000
,  // measure 24
0010
0100
0010
0100
0010
0000
0100
0000
1000
0000
0001
0000
1000
0000
0010
0000
,  // measure 25
0100
0001
0100
0001
0100
0000
0010
0000
1000
0000
0001
0000
0100
0000
0010
0000
,  // measure 26
0100
0000
0000
0001
0000
0001
0000
0001
0000
0000
0000
0000
0000
0000
0000
0000
,  // measure 27
0000
0000
0000
1000
0000
1000
0000
1000
0000
0000
0000
0000
0000
0000
0000
0000
,  // measure 28
0000
0000
0000
0100
0000
0100
0000
0100
0000
0000
0000
0000
0000
0000
0000
0000
,  // measure 29
0000
0000
0000
0010
0000
0010
0000
0010
0000
0000
0000
0000
0000
0000
0000
0000
,  // measure 30
0000
0000
0000
0011
0000
0011
0000
0011
0000
0000
0000
0000
0000
0000
0000
0000
,  // measure 31
0000
0000
0000
1100
0000
1100
0000
1100
0000
0000
0000
0000
0000
0000
0000
0000
,  // measure 32
0000
0000
0000
1001
0000
1001
0000
1001
0000
0000
0000
0000
0000
0000
0000
0000
,  // measure 33
0000
0000
0000
0110
0000
0110
0000
0110
0000
0000
0000
0000
0000
0000
0000
0000
,  // measure 34
0010
1000
0100
0001
0010
1000
0100
0001
,  // measure 35
0010
0000
1000
0100
0000
0001
0010
1000
,  // measure 36
0100
0001
0010
1000
0100
0001
0010
1000
,  // measure 37
0100
0000
0001
0010
0000
1000
0100
0001
,  // measure 38
0010
1000
0100
0001
0010
1000
0100
0001
,  // measure 39
0010
0000
1000
0100
0000
0001
0010
1000
,  // measure 40
0010
0000
0000
0000
,  // measure 41
0110
0000
0000
0000
,  // measure 42
1001
0000
0000
0000
,  // measure 43
1000
0000
0000
0000
0000
0000
0000
0000
0000
0000
0000
0000
1000
0001
0000
0001
,  // measure 44
1000
1100
1000
0000
1000
1001
1001
0000
,  // measure 45
0001
0101
0001
0000
0001
1001
1001
0000
,  // measure 46
0010
0110
0100
0000
1000
1100
1100
0000
,  // measure 47
0010
0110
0100
0000
0001
0101
0101
0000
,  // measure 48
0001
0100
0001
0100
0001
0000
1000
0000
0010
0000
0100
0000
0010
0000
1000
0000
,  // measure 49
0100
1000
0100
1000
0100
0000
0010
0000
0001
0000
1000
0000
0001
0000
0010
0000
,  // measure 50
0100
0010
0100
0010
0100
0000
0010
0000
0001
0000
1000
0000
0001
0000
0100
0000
,  // measure 51
0010
1000
0010
1000
0010
0000
0100
0000
0001
0000
1000
0000
0010
0000
0100
0000
,  // measure 52
0110
0000
0000
0000
;
