#TITLE:MY SWEET DARLIN';
#SUBTITLE:;
#ARTIST:矢井田瞳;
#TITLETRANSLIT:;
#SUBTITLETRANSLIT:;
#ARTISTTRANSLIT:YAIDA HITOMI;
#GENRE:;
#CREDIT:Chewi☆;
#MENUCOLOR:#FFFF00;
#METERTYPE:DDR X;
#BANNER:MY SWEET DARLIN'.png;
#BACKGROUND:MY SWEET DARLIN'-bg.png;
#LYRICSPATH:;
#CDTITLE:;
#MUSIC:MY SWEET DARLIN'.mp3;
#OFFSET:-0.033;
#SAMPLESTART:45.135;
#SAMPLELENGTH:15.000;
#SELECTABLE:YES;
#LISTSORT:;
#DISPLAYBPM:157.000;
#BPMS:0.000=157.000;
#STOPS:;
#BGCHANGES:;
#ATTACKS:;

//---------------dance-single - Chewi----------------
#NOTES:
     dance-single:
     Chewi:
     Beginner:
     2:
     0.092,0.124,0.055,0.000,0.000:
0000
0000
0000
0000
,
0000
0000
0000
0000
,
0000
0000
0000
0000
,
0000
0000
0000
0000
,
1000
0000
0000
0000
,
0100
0000
0000
0000
,
1000
0000
0000
0000
,
0100
0000
0000
0000
,
0001
0000
0000
0000
,
0010
0000
0000
0000
,
0001
0000
0000
0000
,
0100
0000
0000
0000
,
0010
0000
0000
0000
,
1000
0000
0000
0000
,
1000
0000
0000
0000
,
0100
0000
0000
0000
,
0010
0000
0000
0000
,
0001
0000
0000
0000
,
1000
0000
0000
0000
,
0001
0000
0000
0000
,
0100
0000
0000
0000
,
0010
0000
0000
0000
,
0001
0000
0000
0000
,
1000
0000
0000
0000
,
1000
0000
0000
0000
,
0001
0000
0000
0000
,
0110
0000
0000
0000
,
0010
0000
0000
0000
,
0100
0000
0000
0000
,
1001
0000
0000
0000
,
1000
0000
0000
0000
,
1000
0000
0000
0000
,
0001
0000
0000
0000
,
0001
0000
0000
0000
,
0010
0000
0000
0000
,
0010
0000
0000
0000
,
0100
0000
0000
0000
,
0100
0000
0000
0000
,
1000
0000
0000
0000
,
0001
0000
0000
0000
,
0010
0000
0000
0000
,
0100
0000
0000
0000
,
1000
0000
0000
0000
,
0001
0000
0000
0000
,
0110
0000
0000
0000
,
0100
0000
0000
0000
,
0010
0000
0000
0000
,
1000
0000
0000
0000
,
1001
0000
0000
0000
,
0001
0000
0000
0000
,
1000
0000
0000
0000
,
0010
0000
0000
0000
,
0110
0000
0000
0000
,
0100
0000
0000
0000
,
0010
0000
0000
0000
,
1000
0000
0000
0000
,
0001
0000
0000
0000
,
1000
0000
0000
0000
,
0100
0000
0000
0000
,
0010
0000
0000
0000
,
0001
0000
0000
0000
,
0100
0000
0000
0000
,
1000
0000
0000
0000
,
0010
0000
0000
0000
,
1000
0000
0000
0000
,
0100
0000
0000
0000
,
0001
0000
0000
0000
,
0010
0000
0000
0000
,
0110
0000
0000
0000
;

//---------------dance-single - Chewi----------------
#NOTES:
     dance-single:
     Chewi:
     Easy:
     4:
     0.230,0.328,0.046,0.155,0.000:
0000
0000
0000
0000
,
0000
0000
0000
0000
,
0000
0000
0000
0000
,
0000
0000
0000
0000
,
2000
0000
0000
3000
,
0100
0010
0100
0000
,
0002
0000
0000
0003
,
0100
0010
0100
0000
,
0020
0000
0000
0030
,
0200
0000
0000
0300
,
0001
0010
0001
0000
,
1000
0100
1000
0000
,
0001
1000
0001
0000
,
1000
0001
1000
0000
,
0100
0001
0100
0000
,
0010
0001
0010
0000
,
0010
1000
0010
0000
,
0100
1000
0100
0000
,
2000
0000
0000
3000
,
0001
1000
0001
0000
,
0002
0000
0000
0003
,
1000
0001
1000
0000
,
0020
0000
0000
0030
,
0010
0100
0010
0000
,
0200
0000
0000
0300
,
0100
0010
0100
0000
,
2000
0000
0000
3000
,
0100
0000
0001
0000
,
0020
0000
0000
0030
,
1001
0000
0000
0000
,
1000
0000
0100
0000
,
1000
0000
0010
0000
,
0001
0000
0100
0000
,
0001
0000
0010
0010
,
0010
0000
0100
0000
,
1000
0000
0001
0000
,
0010
0000
0100
0000
,
0010
0000
0100
0100
,
0100
0000
1000
0000
,
0010
0000
0001
0000
,
0100
0000
1000
0000
,
0001
0001
0001
0001
,
2000
0000
0000
3000
,
0002
0000
0000
0003
,
0010
0010
0010
0010
,
0100
0100
0100
0100
,
0010
0000
0100
0000
,
0010
0000
0110
0000
,
0001
0001
0001
0001
,
1000
1000
1000
1000
,
0001
0001
0001
0001
,
1000
0000
1001
0000
,
0010
0100
0010
0000
,
0100
1000
0100
0000
,
0001
1000
0100
0000
,
0001
0010
0001
0000
,
1000
0010
1000
0000
,
0100
0001
0100
0000
,
0010
0100
0010
0000
,
1000
0100
0001
0100
,
0220
0000
0000
0000
,
0000
0000
0000
0330
,
0010
0100
0010
0100
,
0001
1000
0001
1000
,
2002
0000
0000
0000
,
0000
0000
0000
3003
,
1000
0001
1000
0001
,
1000
0001
1000
0001
,
0020
0000
0000
0000
,
0000
0000
0000
0000
,
0000
0000
0000
0000
,
0000
0000
0000
0000
,
0030
0000
0000
0000
;

//---------------dance-single - Chewi----------------
#NOTES:
     dance-single:
     Chewi:
     Medium:
     6:
     0.351,0.426,0.082,0.218,0.000:
0000
0000
0000
0000
,
0000
0000
0000
0000
,
0000
0000
0000
0000
,
0000
0000
0000
0000
,
2000
3100
0002
0103
,
2000
3100
0002
0103
,
2000
3010
0002
0013
,
2000
3010
0002
0013
,
0020
0130
0200
0310
,
0220
0000
0000
0330
,
0001
0100
1000
0100
,
0001
0100
1000
0100
,
0001
0010
1000
0010
,
0001
0010
1000
0010
,
1000
0100
1000
0010
,
0001
0100
0001
0010
,
0100
0010
0001
1000
,
0010
0100
0001
1000
,
0100
0001
0010
1000
,
0100
0001
0010
1000
,
0100
1000
0010
0001
,
0100
1000
0010
0001
,
0100
0100
0100
0100
,
0010
0010
0010
0010
,
0001
0100
1000
0100
,
0001
0010
1000
0010
,
0100
0100
0100
0100
,
0010
0010
0010
0010
,
1000
0010
0001
0010
,
0220
0000
0000
0330
,
1000
0100
0010
0100
,
0001
0100
0010
0100
,
0001
1000
0100
0010
,
0001
1000
0010
0100
,
0010
1000
0010
1000
,
0100
0010
0001
0100
,
0001
0100
1000
0100
,
0001
0010
0100
1000
,
0001
1000
0010
0100
,
0010
0100
1000
0001
,
1000
0100
0010
0001
,
1000
1000
0100
0100
,
0001
0010
1100
0000
,
1000
0001
1001
0000
,
1000
0010
0001
0010
,
1000
0100
0001
0100
,
1000
0001
0100
0010
,
1000
0001
0010
0100
,
0010
0001
0100
0001
,
0010
1000
0100
1000
,
0010
0100
1000
0001
,
0100
0010
1000
1000
,
0010
0001
0010
1000
,
0100
0001
0100
1000
,
0001
1000
0010
0100
,
0001
1000
0100
0010
,
0001
0010
1000
0100
,
1000
0010
0001
0100
,
0010
0100
0001
1000
,
0100
0010
0001
0010
,
0220
0000
0000
0330
,
1000
1000
0001
0001
,
2002
0000
0000
3003
,
0100
0100
0001
0001
,
0202
0000
0000
0303
,
0001
0001
0010
0010
,
0220
0000
0000
0330
,
0100
0100
1000
1000
,
2002
0000
0000
0000
,
0000
0000
0000
0000
,
0000
0000
0000
0000
,
0000
0000
0000
0000
,
3003
0000
0000
0000
;

//---------------dance-single - Chewi----------------
#NOTES:
     dance-single:
     Chewi:
     Hard:
     10:
     0.589,0.557,0.100,0.073,0.000:
0000
0000
0000
0000
,
0000
0000
0000
0000
,
0000
0000
0000
0000
,
0000
0000
0000
0000
,
1000
0100
0001
0010
,
0001
0100
1000
0010
,
0001
0010
0001
0000
1000
0010
1000
0000
,
0001
0100
0001
0000
1000
0100
1000
0000
,
0001
1000
0001
1000
0010
0100
0010
0100
,
0220
0000
0000
0000
,
0330
0000
1000
0010
0100
0000
0001
0000
,
1000
0100
0001
0100
1000
0000
0100
0000
,
0010
0001
0100
0000
0010
1000
0100
0000
,
0100
0010
1000
0000
0100
0010
0001
0000
,
0010
0100
0010
0100
0001
1000
0001
1000
,
0100
1000
0100
1000
0100
0010
0100
0010
,
0100
0010
0001
0000
0100
1000
0010
0000
,
0100
0010
0100
0010
1000
0001
1000
0001
,
1000
0010
0100
0000
0001
0100
0010
0000
,
1000
0001
0010
0000
0001
1000
0010
0000
,
1000
0100
1000
0100
0001
0100
0001
0100
,
1000
0010
1000
0010
0001
0010
0001
0010
,
0100
0010
1000
0001
0100
0010
1000
0001
,
0100
0010
1000
0100
1000
0010
1000
0100
,
0010
0001
0100
0001
0010
0001
0100
0001
,
0010
0100
1000
0001
1000
0010
0100
0001
,
0100
0100
0010
1000
0001
0010
0100
0010
,
0001
0001
0010
0100
1000
0001
0100
0010
,
0100
0100
0010
1000
0001
0010
0100
1000
,
1001
1001
2002
0000
0000
0000
3003
0000
,
1000
0010
0100
0000
0001
0100
1000
0100
,
0001
0010
1000
0000
0010
0001
0100
0001
,
0010
0001
0100
0000
1000
0100
1000
0010
,
1000
0100
1000
0000
0010
0010
0100
0100
,
0010
0001
0010
0000
0010
1000
0010
0001
,
1000
0100
0001
0000
1000
0010
0100
0001
,
0010
0100
0010
0000
0001
0010
0100
1000
,
0010
1000
0100
0010
0001
0001
0010
0010
,
0100
0010
0001
0000
0001
0010
0100
1000
,
0010
1000
0100
0000
0001
0100
1000
0100
,
1000
0010
0100
0000
0100
0001
0010
0100
,
0010
0001
0100
0010
0100
0001
1000
0100
,
0110
0001
1100
0101
,
0110
0110
0220
0000
0000
0000
0330
0000
,
1000
0010
1000
0000
0001
0100
0010
1000
,
0001
0010
0100
0000
0010
0100
1000
0001
,
0100
0010
0100
0000
0010
1000
0001
0010
,
0100
1000
0001
0010
0100
0100
0010
0010
,
0001
1000
0010
0000
0100
0010
0100
0001
,
0100
0010
1000
0000
0100
1000
0100
0001
,
0100
1000
0100
0000
1000
0001
0100
0010
,
1000
0001
0010
0100
0010
0010
0100
0100
,
0010
0001
0100
0000
0010
0100
0010
0100
,
0001
0100
0001
0000
1000
0100
1000
0100
,
0010
0100
0010
0000
0100
1000
0010
0100
,
0001
0100
0010
0100
0001
0001
1000
1000
,
0001
0010
0100
0000
1000
0100
0001
0100
,
1000
0010
0100
0000
0100
0001
0010
0100
,
0010
0001
0100
0000
0010
0100
0001
1000
,
0100
0010
0001
0010
0100
0100
0010
0010
,
0001
0010
0100
1000
0010
0000
0100
0010
,
0000
0010
0100
0001
1000
0100
0010
0001
,
1000
0100
0001
0100
1000
0000
0100
1000
,
0000
1000
0100
1000
0010
0100
0001
0100
,
0010
0100
0001
1000
0100
0000
0010
0100
,
0000
0100
0010
0001
1000
0010
0100
0001
,
0100
0010
1000
0001
0010
0000
0010
0001
,
0000
0010
0100
0100
1000
0001
0100
0010
,
0220
0000
0000
0000
,
0000
0000
0000
0000
,
0000
0000
0000
0000
,
0000
0000
0000
0000
,
0330
0000
0000
0000
;

//---------------dance-double - Chewi----------------
#NOTES:
     dance-double:
     Chewi:
     Easy:
     4:
     0.246,0.328,0.027,0.100,0.000: // measure 1
00000000
00000000
00000000
00000000
,  // measure 2
00000000
00000000
00000000
00000000
,  // measure 3
00000000
00000000
00000000
00000000
,  // measure 4
00000000
00000000
00000000
00000000
,  // measure 5
00100000
00010000
00100000
00000000
,  // measure 6
00001000
00010000
00001000
00000000
,  // measure 7
00001000
00000010
00001000
00000000
,  // measure 8
00000100
00000010
00000100
00000000
,  // measure 9
00000002
00000000
00000000
00000000
,  // measure 10
00000003
00000000
00000000
00000000
,  // measure 11
00000001
00000010
00000100
00000000
,  // measure 12
00000010
00000100
00000001
00000000
,  // measure 13
00000100
00000100
00010000
00000000
,  // measure 14
00001000
00001000
00100000
00000000
,  // measure 15
01000000
00100000
00010000
00000000
,  // measure 16
00100000
01000000
00010000
00000000
,  // measure 17
01000000
01000000
10000000
00000000
,  // measure 18
00010000
00010000
00001000
00000000
,  // measure 19
00000010
00000100
00000001
00000000
,  // measure 20
00000010
00001000
00000001
00000000
,  // measure 21
00000100
00000010
00000001
00000000
,  // measure 22
00000100
00001000
00000010
00000000
,  // measure 23
00000010
00000010
00001000
00000000
,  // measure 24
00000001
00000001
00000100
00000000
,  // measure 25
00000010
00000010
00001000
00000000
,  // measure 26
00010000
00010000
00100000
00000000
,  // measure 27
02000000
00000000
00000000
03000000
,  // measure 28
00200000
00000000
00000000
00300000
,  // measure 29
00100000
01000000
00100000
00000000
,  // measure 30
00001000
00011000
00000000
00000000
,  // measure 31
00010000
00001000
00000010
00000100
,  // measure 32
00000001
00000010
00000100
00000100
,  // measure 33
00000001
00000001
00001000
00001000
,  // measure 34
00000010
00000100
00000010
00000000
,  // measure 35
00000010
00000010
00001000
00001000
,  // measure 36
00000001
00000100
00000010
00000001
,  // measure 37
00001000
00001000
00000100
00000100
,  // measure 38
00010000
00010000
00000000
00010000
,  // measure 39
01000000
00100000
10000000
00010000
,  // measure 40
00100000
10000000
00100000
00010000
,  // measure 41
01000000
01000000
01000000
00010000
,  // measure 42
00100000
00100000
01000000
01000000
,  // measure 43
00012000
00000000
00010000
00000000
,  // measure 44
00010000
00020000
00000000
00033000
,  // measure 45
00100000
00010000
00001000
00000000
,  // measure 46
00000001
00000100
00001000
00000000
,  // measure 47
00000010
00000100
00001000
00000000
,  // measure 48
00000100
00000010
00001000
00000000
,  // measure 49
00000010
00001000
00010000
00000000
,  // measure 50
10000000
01000000
00010000
00000000
,  // measure 51
10000000
00100000
01000000
00000000
,  // measure 52
01000000
01000000
00100000
00000000
,  // measure 53
10000000
01000000
00100000
00000000
,  // measure 54
00010000
00001000
00000010
00000000
,  // measure 55
00000010
00000100
00000001
00000000
,  // measure 56
00000001
00000001
00001000
00000000
,  // measure 57
00000001
00000010
00000100
00000000
,  // measure 58
00000010
00001000
00000100
00000000
,  // measure 59
00000100
00010000
01000000
00000000
,  // measure 60
01000000
00010000
00100000
00000000
,  // measure 61
02000000
00000000
00000000
00000000
,  // measure 62
00000000
00000000
03100000
00000000
,  // measure 63
00020000
00000000
00000000
00000000
,  // measure 64
00000000
00000000
00130000
00000000
,  // measure 65
00020000
00000000
00000000
00000000
,  // measure 66
00000000
00000000
00031000
00000000
,  // measure 67
00002000
00000000
00000000
00000000
,  // measure 68
00000000
00000000
00003001
00000000
,  // measure 69
00002002
00000000
00000000
00000000
,  // measure 70
00000000
00000000
00000000
00000000
,  // measure 71
00000000
00000000
00000000
00000000
,  // measure 72
00000000
00000000
00000000
00000000
,  // measure 73
00003003
00000000
00000000
00000000
;

//---------------dance-double - Chewi----------------
#NOTES:
     dance-double:
     Chewi:
     Medium:
     6:
     0.337,0.426,0.137,0.127,0.000:
00000000
00000000
00000000
00000000
,
00000000
00000000
00000000
00000000
,
00000000
00000000
00000000
00000000
,
00000000
00000000
00000000
00000000
,
00100000
00010000
00100000
00010000
,
00001000
00010000
00001000
00010000
,
00001000
00000010
00001000
00000010
,
00000100
00000010
00000100
00000010
,
00002002
00000000
00000000
00000000
,
00003003
00000000
00000000
00000000
,
00000001
00000010
00000100
00001000
,
00000010
00000100
00000001
00001000
,
00000100
00000100
00010000
00010000
,
00001000
00001000
00100000
00100000
,
01000000
00100000
00010000
10000000
,
00100000
01000000
00010000
10000000
,
01000000
01000000
10000000
10000000
,
00010000
00010000
00001000
00001000
,
00000010
00000100
00000001
00000100
,
00000010
00001000
00000001
00001000
,
00000100
00000010
00000001
00000010
,
00000100
00001000
00000010
00000100
,
00000010
00000010
00001000
00000100
,
00000001
00000001
00000100
00001000
,
00000010
00000010
00001000
00001000
,
00010000
00010000
00100000
00100000
,
02000000
03100000
00020000
10030000
,
00200000
10300000
02000000
03010000
,
00100000
01000000
00100000
00010000
,
00001000
00010000
00001000
00000000
00000000
00000000
00000000
00000000
,
00010000
00001000
00000010
00000100
,
00000001
00000010
00000100
00001000
,
00000001
00000101
00001000
00001100
,
00000010
00000110
00000010
00000100
,
00000010
00000010
00001000
00001100
,
00000001
00000100
00000010
00001001
,
00001000
00001100
00000100
00010100
,
00010000
00011000
00001000
00010000
,
01000000
00100000
10000000
00010000
,
00100000
11000000
00100000
00010000
,
01000000
01100000
01000000
00010000
,
00100000
00110000
00100000
10100000
,
00120000
00000000
00100000
00000000
,
00100000
00100000
00200000
00000000
00000000
00000000
00330000
00000000
,
00100000
00010000
00001000
00000010
,
00000001
00000100
00001000
00000100
,
00000010
00000100
00001000
00000001
,
00000100
00000010
00001000
00000001
,
00000010
00001000
00010000
01000000
,
10000000
01000000
00010000
00100000
,
10000000
00100000
01000000
00010000
,
01000000
01000000
00100000
00100000
,
10000000
01000000
00100000
00010000
,
00010000
00001000
00000010
00001000
,
00000010
00000100
00000001
00001000
,
00000001
00000001
00001000
00001000
,
00000001
00000010
00000100
00001000
,
00000010
00001000
00000100
00001000
,
00000100
00010000
01000000
10000000
,
01000000
00010000
00100000
10000000
,
02000000
00000000
00100000
00000000
,
00010000
00000000
03100000
00000000
,
00020000
00000000
00100000
00000000
,
01000000
00000000
00130000
00000000
,
00020000
00000000
00001000
00000000
,
00000010
00000000
00031000
00000000
,
00002000
00000000
00000010
00000000
,
00000100
00000000
00003001
00000000
,
00002002
00000000
00000000
00000000
,
00000000
00000000
00000000
00000000
,
00000000
00000000
00000000
00000000
,
00000000
00000000
00000000
00000000
,
00003003
00000000
00000000
00000000
;

//---------------dance-double - Chewi----------------
#NOTES:
     dance-double:
     Chewi:
     Hard:
     10:
     0.567,0.557,0.073,0.100,0.000:
00000000
00000000
00000000
00000000
,
00000000
00000000
00000000
00000000
,
00000000
00000000
00000000
00000000
,
00000000
00000000
00000000
00000000
,
00010000
00001000
00000010
00001000
,
00001000
00010000
01000000
00010000
,
00100000
01000000
00100000
00000000
00010000
10000000
00010000
00000000
,
10000000
00100000
01000000
00000000
00010000
00100000
00001000
00000000
,
00010000
00001000
00010000
00001000
00001000
00000010
00001000
00000010
,
00002000
00000000
00000000
00000000
,
00003001
00000011
00001000
00001010
,
00000001
00001000
00000100
00000000
00001000
00000001
00000100
00000000
,
00000010
00000010
00000010
00000000
00000100
00000100
00000100
00000000
,
00000010
00001000
00000100
00000000
00000100
00010000
00001000
00000000
,
00002000
00013000
00020000
01030000
,
20000000
30010000
00200000
01300000
,
00100000
00010000
01000000
00000000
00100000
10000000
01000000
00000000
,
10000000
01000000
00100000
00000000
00010000
00100000
01000000
00000000
,
00100000
00100000
00010000
00010000
00001000
00001000
00000010
00000010
,
00000100
00000001
00000010
00000000
00000100
00001000
00000010
00000000
,
00001000
00000001
00000100
00000000
00000010
00001000
00000001
00000000
,
00001000
00001000
00000001
00000001
00001000
00000100
00010000
00001000
,
00100000
00010000
01000000
00000000
00100000
10000000
01000000
00000000
,
00100000
01000000
10000000
00100000
01000000
00010000
00100000
01000000
,
00100000
00100000
00010000
00010000
01000000
01000000
00010000
00010000
,
00001000
00001000
00000100
00000100
00000010
00000010
00000001
00000001
,
00001000
00000010
00001001
00000000
00000001
00000100
00000010
00001000
,
00000001
00000010
00000100
00000000
00000100
00000001
00000100
00000010
,
00001000
00000001
00001001
00000000
00001000
00000100
00010000
00001000
,
00011000
00011000
00011000
00000000
00000000
00000000
00000000
00000000
,
00001000
00010000
01000000
00000000
10000000
01000000
00010000
00100000
,
10000000
00100000
01000000
00000000
00010000
00100000
01000000
10000000
,
00100000
01000000
00010000
00000000
00100000
00001000
00010000
00000100
,
00001000
00000001
00000100
00000010
00001000
00001000
00000001
00000001
,
00001000
00000010
00000100
00000000
00000001
00000100
00000010
00001000
,
00000001
00000010
00000100
00000000
00001000
00000100
00010000
00001000
,
00100000
00010000
01000000
00000000
00100000
01000000
00010000
10000000
,
01000000
00100000
00010000
10000000
00100000
00100000
01000000
01000000
,
00100000
10000000
00010000
00000000
00100000
01000000
00100000
00010000
,
01000000
00100000
01000000
00000000
00010000
00100000
00001000
00010000
,
00000100
00001000
00000001
00000000
00000100
00000100
00000010
00000010
,
00001000
00000001
00001000
00000100
00000010
00000001
00001000
00000100
,
00000020
00000031
00000002
00000103
,
00000200
00002000
00000000
00003300
,
00000100
00000000
00001000
00000000
00000010
00001000
00000100
00010000
,
00001000
00000000
00100000
00000000
00010000
01000000
00100000
01000000
,
00010000
00000000
00100000
00000000
01000000
00100000
00010000
00001000
,
00000100
00000010
00000100
00000000
00001000
00001000
00000001
00000001
,
00001000
00000010
00000100
00000000
00000010
00001000
00000100
00010000
,
00001000
00100000
00010000
00000000
00100000
00010000
01000000
10000000
,
00100000
10000000
01000000
00000000
00100000
00010000
01000000
00100000
,
01000000
00010000
00100000
00001000
00010000
00010000
00001000
00001000
,
00000010
00001000
00000100
00000000
00000001
00000100
00000010
00001000
,
00000100
00010000
00001000
00000000
00001000
00100000
01000000
00100000
,
00010000
01000000
00100000
00000000
01000000
00010000
00100000
00001000
,
00010000
00000100
00001000
00000010
00000100
00000100
00000001
00000001
,
00000100
00000010
00001000
00000000
00000001
00000010
00000100
00001000
,
00000010
00001000
00000100
00000000
00000100
00010000
00001000
00100000
,
00010000
01000000
00100000
00000000
01000000
00010000
00100000
01000000
,
10000000
10000000
00100000
00100000
10000000
01000000
00100000
00010000
,
00100000
00010000
00000000
00010000
00100000
00001000
00010000
00000100
,
00000000
00000100
00010000
00001000
00000010
00000001
00000100
00000010
,
00000100
00000001
00000010
00000100
00001000
00000000
00001000
00000100
,
00000000
00000100
00010000
00001000
00100000
00010000
01000000
00100000
,
01000000
00010000
00100000
01000000
00100000
00000000
00100000
01000000
,
00100000
00010000
01000000
00100000
01000000
00010000
00100000
00001000
,
00010000
00000100
00000000
00000100
00010000
00001000
00000010
00000001
,
00000100
00000001
00000010
00000100
00001000
00000010
00000100
00000001
,
00002002
00000000
00000000
00000000
,
00000000
00000000
00000000
00000000
,
00000000
00000000
00000000
00000000
,
00000000
00000000
00000000
00000000
,
00003003
00000000
00000000
00000000
;
