#TITLE:MY HEAD & MY HEART;
#SUBTITLE:;
#ARTIST:AVA MAX;
#TITLETRANSLIT:;
#SUBTITLETRANSLIT:;
#ARTISTTRANSLIT:;
#GENRE:;
#CREDIT:;
#BANNER:MY HEAD & MY HEART.png;
#BACKGROUND:MY HEAD & MY HEART-bg.png;
#LYRICSPATH:;
#CDTITLE:cdtitle.png;
#MUSIC:MY HEAD & MY HEART.ogg;
#OFFSET:-0.144000;
#SAMPLESTART:24.972000;
#SAMPLELENGTH:12.000000;
#SELECTABLE:YES;
#BPMS:0.000000=116.000000
,112.000000=58.000000
,126.000000=116.000000
;
#STOPS:
;
#BGCHANGES:-0.288=MY HEAD & MY HEART.avi=1.000=1=0=1===CrossFade==,
194.000=MY HEAD & MY HEART-bg.png=1.000=1=0=1===CrossFade==,
99999=-nosongbg-=1.000=0=0=0 // don't automatically add -songbackground-
;
#KEYSOUNDS:;
#ATTACKS:;

//---------------dance-single - ----------------
#NOTES:
     dance-single:
     :
     Hard:
     10:
     0.307360,0.324736,0.035710,0.080347,0.169622,241.000000,237.000000,4.000000,9.000000,0.000000,0.000000,0.307360,0.324736,0.035710,0.080347,0.169622,241.000000,237.000000,4.000000,9.000000,0.000000,0.000000:
// measure 0
0000
0000
0000
0000
,  // measure 1
0000
0000
0000
0000
,  // measure 2
0000
0000
0000
0000
,  // measure 3
0000
0000
0000
0000
,  // measure 4
2000
0100
0000
3100
,  // measure 5
0020
0001
0000
0031
,  // measure 6
0002
0100
0000
0103
,  // measure 7
0020
1000
0000
1030
,  // measure 8
0010
1000
0010
0000
1000
1000
1000
0000
,  // measure 9
0100
0010
0001
0000
0100
0010
1000
0000
,  // measure 10
0001
0100
0001
0000
0100
0010
0100
0000
,  // measure 11
0010
0100
0010
0100
0001
1000
0001
1000
,  // measure 12
0001
0000
0000
0000
0001
0000
0000
0010
0000
0000
0100
0000
0000
1000
0000
0000
,  // measure 13
0100
0000
0000
0000
0100
0000
0000
1000
0000
0000
0010
0000
0000
1000
0000
0000
,  // measure 14
0010
0000
0010
0000
0010
0000
0100
0010
0000
0000
0010
0000
0000
0100
0000
0000
,  // measure 15
1000
0000
0000
0000
1000
0000
0000
0001
0000
0000
1000
0000
0000
0010
0000
0000
,  // measure 16
1000
0000
0000
0000
1000
0000
0000
0100
0000
0000
0010
0000
0000
0001
0000
0000
,  // measure 17
0010
0000
0000
0000
0010
0000
0000
0001
0000
0000
0100
0000
0000
0001
0000
0000
,  // measure 18
0100
0000
0000
0000
0100
0000
0000
0010
0000
0000
1000
0000
0000
0001
0000
0000
,  // measure 19
1000
0000
0000
0000
1000
0000
0000
0001
0000
0000
0010
0000
0000
0100
0000
0000
,  // measure 20
1000
0000
0100
0000
0010
0000
0001
1000
0000
0000
0000
0000
0001
0000
0000
0000
,  // measure 21
1000
0100
1000
0000
1000
0010
0100
0001
,  // measure 22
0100
0000
0010
0000
1000
0000
0001
1000
0000
0000
0000
0000
0001
0000
0000
0000
,  // measure 23
0001
0010
0001
0000
0001
0100
0010
1000
,  // measure 24
0010
0000
0100
0000
0001
0000
1000
0001
0000
0000
0000
0000
0100
0000
0000
0000
,  // measure 25
0010
1000
0001
0000
0001
0010
0100
0010
,  // measure 26
0001
0000
0010
0000
0100
0000
1000
0001
0000
0000
0000
0000
0010
0000
0000
0000
,  // measure 27
0100
1000
0001
0000
0010
0001
0100
0001
,  // measure 28
0002
0000
0203
0000
,  // measure 29
0320
0000
2030
0000
,  // measure 30
3002
0000
0000
0003
,  // measure 31
0010
0010
0010
0010
0110
0000
1001
0000
,  // measure 32
0110
0000
0000
0000
1001
0000
0000
0000
1000
0000
0000
0000
1000
0000
0000
0100
,  // measure 33
0000
0000
0010
0000
0000
0001
0000
0000
0010
0000
0000
0000
0010
0000
0000
0001
,  // measure 34
0000
0000
0100
0000
0000
0001
0000
0000
0100
0000
0000
0000
0100
0000
0000
0010
,  // measure 35
0000
0000
1000
0000
0000
0001
0000
0000
0010
0000
0000
0000
0010
0000
0000
0001
,  // measure 36
0000
0000
1000
0000
0000
0100
0000
0000
1000
0000
0000
0000
1000
0000
0000
0010
,  // measure 37
0000
0000
0100
0000
0000
1000
0000
0000
0100
0000
0000
0000
0100
0000
0000
0001
,  // measure 38
0000
0000
0010
0000
0000
0001
0000
0000
0010
0000
0000
0000
0010
0000
0000
0100
,  // measure 39
0000
0000
1000
0000
0000
0001
0000
0000
1000
0000
0000
0000
1000
0000
0000
0000
,  // measure 40
0001
0000
0000
0000
0001
0000
0000
0000
0001
0000
0010
0000
0100
0000
1000
0001
,  // measure 41
0000
0000
1000
0000
0001
0010
0001
0000
,  // measure 42
0001
0000
0100
0000
0010
0000
1000
0000
0010
0000
0100
0000
0001
0000
1000
0001
,  // measure 43
0000
0000
1000
0000
1000
0100
1000
0000
,  // measure 44
1000
0000
0010
0000
0100
0000
0001
0000
0100
0000
0010
0000
1000
0000
0001
1000
,  // measure 45
0000
0000
0010
0000
0100
0001
1000
0000
,  // measure 46
1000
0000
0100
0000
0010
0000
0100
0000
1000
0000
0100
0000
0010
0000
0001
1000
,  // measure 47
0000
0000
0100
0000
0010
0001
1000
0000
,  // measure 48
0010
1000
0001
0100
0100
0000
0000
0000
;

//---------------dance-single - ----------------
#NOTES:
     dance-single:
     :
     Medium:
     7:
     0.251244,0.281438,0.026782,0.116057,0.107129,197.000000,194.000000,3.000000,13.000000,0.000000,0.000000,0.251244,0.281438,0.026782,0.116057,0.107129,197.000000,194.000000,3.000000,13.000000,0.000000,0.000000:
// measure 0
0000
0000
0000
0000
,  // measure 1
0000
0000
0000
0000
,  // measure 2
0000
0000
0000
0000
,  // measure 3
0000
0000
0000
0000
,  // measure 4
2000
0000
3200
0000
,  // measure 5
0302
0000
0023
0000
,  // measure 6
2030
0000
3200
0000
,  // measure 7
2300
0000
3020
0000
,  // measure 8
1030
0000
0001
0000
0100
0100
0100
0000
,  // measure 9
0010
0100
0110
0000
,  // measure 10
0100
0001
1000
0010
,  // measure 11
1000
1000
1000
0000
0001
0001
0001
0000
,  // measure 12
1001
0000
0000
0000
0001
0000
0000
0100
0000
0000
0001
0000
0000
0100
0000
0000
,  // measure 13
0010
0000
0000
0000
0010
0000
0000
1000
0000
0000
0010
0000
0000
1000
0000
0000
,  // measure 14
1000
0000
0000
0000
1000
0000
0000
0001
0000
0000
1000
0000
0000
0001
0000
0000
,  // measure 15
0001
0000
0000
0000
0001
0000
0000
1000
0000
0000
0001
0000
0000
1000
0000
0000
,  // measure 16
1000
0100
1000
0000
0001
0100
0001
0000
,  // measure 17
0100
0000
0010
0000
1000
0100
0010
0001
,  // measure 18
0100
0000
0000
0000
0100
0000
0000
0010
0000
0000
0100
0000
0000
0001
0000
0000
,  // measure 19
1000
0000
0000
0000
1000
0000
0000
0100
0000
0000
0010
0000
0000
0100
0000
0000
,  // measure 20
1000
0010
0001
0100
,  // measure 21
1000
0000
0010
0000
0010
0010
0010
0000
,  // measure 22
1000
0100
0001
0010
,  // measure 23
1000
0000
0100
0000
0100
0100
0100
0000
,  // measure 24
1000
0010
0100
1000
,  // measure 25
0010
0000
0100
0000
1000
1000
1000
0000
,  // measure 26
0001
0100
0010
0001
,  // measure 27
0100
0000
0010
0000
0001
0001
0001
0000
,  // measure 28
0200
0000
0320
0000
,  // measure 29
2030
0000
3002
0000
,  // measure 30
2000
0000
0000
3003
,  // measure 31
1000
0001
1000
0001
,  // measure 32
1000
0000
0000
0000
0001
0000
0000
0000
1001
0000
0000
0000
1000
0000
0000
0010
,  // measure 33
0000
0000
1000
0000
0000
0010
0000
0000
0100
0000
0000
0000
0100
0000
0000
0001
,  // measure 34
0000
0000
0100
0000
0000
0001
0000
0000
0001
0000
0000
0000
0001
0000
0000
1000
,  // measure 35
0000
0000
0001
0000
0000
1000
0000
0000
1000
0000
0000
0000
1000
0000
0000
0001
,  // measure 36
0000
0000
1000
0000
0000
0001
0000
0000
0001
0000
0010
0000
0001
0000
0000
0000
,  // measure 37
1000
0010
1000
0000
0010
0000
0100
0000
,  // measure 38
0001
0000
0010
0000
0100
0000
1000
0000
0010
0000
0000
0000
0010
0000
0000
0100
,  // measure 39
0000
0000
0010
0000
0000
1000
0000
0000
0001
0000
0000
0000
0001
0000
0000
0010
,  // measure 40
0000
0000
0100
0000
0000
0010
0000
0000
0001
0000
0000
0000
0100
0000
0000
0000
,  // measure 41
1000
0010
0001
0100
,  // measure 42
0100
0100
0100
0000
0001
0000
0010
0000
,  // measure 43
1000
0100
0001
0010
,  // measure 44
0010
0010
0010
0000
0001
0000
0100
0000
,  // measure 45
0010
0001
0100
0010
,  // measure 46
0001
0001
0001
0000
1000
0000
0010
0000
,  // measure 47
0100
1000
0010
0100
,  // measure 48
1000
1000
1000
0000
0001
0000
0000
0000
;

//---------------dance-single - ----------------
#NOTES:
     dance-single:
     :
     Easy:
     4:
     0.172172,0.194842,0.000000,0.035710,0.000000,135.000000,135.000000,0.000000,4.000000,0.000000,0.000000,0.172172,0.194842,0.000000,0.035710,0.000000,135.000000,135.000000,0.000000,4.000000,0.000000,0.000000:
// measure 0
0000
0000
0000
0000
,  // measure 1
0000
0000
0000
0000
,  // measure 2
0000
0000
0000
0000
,  // measure 3
0000
0000
0000
0000
,  // measure 4
0000
1000
0000
1000
,  // measure 5
0000
0001
0000
0001
,  // measure 6
0000
0100
0000
0100
,  // measure 7
0000
0010
0000
0010
,  // measure 8
1000
0001
1000
0000
,  // measure 9
0001
1000
0001
0000
,  // measure 10
0100
0100
0100
0100
,  // measure 11
0010
0010
0010
0010
,  // measure 12
1000
0100
1000
0000
,  // measure 13
0100
0001
0100
0000
,  // measure 14
0001
0010
0001
0000
,  // measure 15
0010
1000
0010
0000
,  // measure 16
1000
0010
1000
0000
,  // measure 17
0001
0100
0001
0000
,  // measure 18
1000
0100
1000
0000
,  // measure 19
0001
0010
0001
0000
,  // measure 20
0001
0001
0001
0000
,  // measure 21
1000
0001
1000
0001
,  // measure 22
1000
1000
1000
0000
,  // measure 23
1000
0010
1000
0010
,  // measure 24
0100
0100
0100
0000
,  // measure 25
0100
0001
0100
0001
,  // measure 26
0100
0100
0100
0000
,  // measure 27
0001
0010
0001
0010
,  // measure 28
0020
0000
0030
0000
,  // measure 29
0200
0000
0300
0000
,  // measure 30
2000
0000
3000
0000
,  // measure 31
0002
0000
1003
0001
,  // measure 32
1000
0001
0001
0010
,  // measure 33
0001
0000
0010
1000
,  // measure 34
0010
0000
1000
0100
,  // measure 35
1000
0000
0100
0001
,  // measure 36
0100
0000
0001
0100
,  // measure 37
0001
0000
1000
0010
,  // measure 38
1000
0000
0001
0010
,  // measure 39
0001
0000
1000
0100
,  // measure 40
1000
0000
1000
1000
,  // measure 41
1000
0000
0001
1000
,  // measure 42
0001
1000
0001
0001
,  // measure 43
0001
0000
0001
0100
,  // measure 44
0001
0100
0010
0010
,  // measure 45
0010
0000
0010
1000
,  // measure 46
0010
1000
0010
0010
,  // measure 47
0010
0000
1000
0100
,  // measure 48
0001
0010
1000
0000
;

//---------------dance-single - ----------------
#NOTES:
     dance-single:
     :
     Beginner:
     1:
     0.056115,0.063608,0.000000,0.000000,0.000000,44.000000,44.000000,0.000000,0.000000,0.000000,0.000000,0.056115,0.063608,0.000000,0.000000,0.000000,44.000000,44.000000,0.000000,0.000000,0.000000,0.000000:
// measure 0
0000
0000
0000
0000
,  // measure 1
0000
0000
0000
0000
,  // measure 2
0000
0000
0000
0000
,  // measure 3
0000
0000
0000
0000
,  // measure 4
1000
0000
0000
0000
,  // measure 5
0001
0000
0000
0000
,  // measure 6
0100
0000
0000
0000
,  // measure 7
0010
0000
0000
0000
,  // measure 8
0010
0000
0000
0000
,  // measure 9
0100
0000
0000
0000
,  // measure 10
0001
0000
0000
0000
,  // measure 11
1000
0000
0000
0000
,  // measure 12
1000
0000
0000
0000
,  // measure 13
0100
0000
0000
0000
,  // measure 14
0001
0000
0000
0000
,  // measure 15
0010
0000
0000
0000
,  // measure 16
1000
0000
0000
0000
,  // measure 17
0001
0000
0000
0000
,  // measure 18
1000
0000
0000
0000
,  // measure 19
0001
0000
0000
0000
,  // measure 20
0001
0000
0000
0000
,  // measure 21
0100
0000
0000
0000
,  // measure 22
1000
0000
0000
0000
,  // measure 23
0010
0000
0000
0000
,  // measure 24
0001
0000
0000
0000
,  // measure 25
1000
0000
0000
0000
,  // measure 26
0001
0000
0000
0000
,  // measure 27
1000
0000
0000
0000
,  // measure 28
0010
0000
0000
0000
,  // measure 29
0010
0000
0000
0000
,  // measure 30
0100
0000
0000
0000
,  // measure 31
0100
0000
0000
0000
,  // measure 32
0000
0000
1000
0000
,  // measure 33
0000
0000
0100
0000
,  // measure 34
0000
0000
0001
0000
,  // measure 35
0000
0000
0010
0000
,  // measure 36
0000
0000
1000
0000
,  // measure 37
0000
0000
0001
0000
,  // measure 38
0000
0000
1000
0000
,  // measure 39
0000
0000
0001
0000
,  // measure 40
0000
0000
0001
0000
,  // measure 41
0000
0000
0100
0000
,  // measure 42
0000
0000
1000
0000
,  // measure 43
0000
0000
0010
0000
,  // measure 44
0000
0000
0001
0000
,  // measure 45
0000
0000
1000
0000
,  // measure 46
0000
0000
0001
0000
,  // measure 47
0000
0000
1000
0000
;
