#TITLE:MY FOOLISH HEART ~crazy on earth~;
#SUBTITLE:;
#ARTIST:SOIL&"PIMP"SESSIONS × 椎名林檎;
#TITLETRANSLIT:;
#SUBTITLETRANSLIT:;
#ARTISTTRANSLIT:SOIL&"PIMP"SESSIONS x SHIINA RINGO;
#CREDIT:Chewi☆;
#BANNER:MY FOOLISH HEART ~crazy on earth~.png;
#BACKGROUND:MY FOOLISH HEART ~crazy on earth~-bg.png;
#LYRICSPATH:;
#CDTITLE:;
#MUSIC:MY FOOLISH HEART ~crazy on earth~.mp3;
#OFFSET:-3.409;
#SAMPLESTART:3.389;
#SAMPLELENGTH:15.000;
#SELECTABLE:YES;
#BPMS:0.000=84.000;
#STOPS:;
#BGCHANGES:;

//---------------dance-single - Chewi----------------
#NOTES:
     dance-single:
     Chewi:
     Beginner:
     1:
     0.066,0.079,0.000,0.000,0.000:
0000
0000
0000
0000
,
0000
0000
0000
0000
,
0000
0000
0000
0000
,
0000
0000
0000
0000
,
1000
0000
0000
0000
,
0001
0000
0000
0000
,
0100
0000
0000
0000
,
0010
0000
0000
0000
,
0000
0000
0010
0000
,
0000
0000
1000
0000
,
0000
0000
0001
0000
,
0000
0000
0001
0000
,
1000
0000
0001
0000
,
1000
0000
0010
0000
,
0100
0000
0010
0000
,
0100
0000
0001
0000
,
0010
0000
1000
0000
,
0100
0000
0001
0000
,
0100
0000
1000
0000
,
0010
0000
0100
0000
,
0100
0000
0010
0000
,
0100
0000
0010
0000
,
0010
0000
0010
0000
,
0100
0000
1000
0000
,
1000
0000
0001
0000
,
0001
0000
0100
0000
,
0100
0000
0010
0000
,
0010
0000
0100
0000
;

//---------------dance-single - Chewi----------------
#NOTES:
     dance-single:
     Chewi:
     Easy:
     2:
     0.077,0.079,0.034,0.046,0.000:
0000
0000
0000
0000
,
0000
0000
0000
0000
,
0000
0000
0000
0000
,
0000
0000
0000
0000
,
2000
0000
0000
3000
,
0002
0000
0000
0003
,
0200
0000
0000
0300
,
0020
0000
0000
0030
,
0000
0000
0110
0000
,
0000
0000
1001
0000
,
0000
0000
1001
0000
,
0000
0000
1000
0000
,
0001
0000
1000
0000
,
0001
0000
0100
0000
,
0010
0000
0100
0000
,
0010
0000
1000
0000
,
0100
0000
0001
0000
,
0010
0000
1000
0000
,
0010
0000
0001
0000
,
0100
0000
0010
0000
,
0010
0000
0100
0000
,
0010
0000
0100
0000
,
0100
0000
0100
0000
,
0010
0000
0001
0000
,
0001
0000
1000
0000
,
1000
0000
0010
0000
,
0010
0000
0100
0000
,
0100
0000
0010
0000
;

//---------------dance-single - Chewi----------------
#NOTES:
     dance-single:
     Chewi:
     Medium:
     5:
     0.177,0.205,0.092,0.000,0.000:
0000
0000
0000
0000
,
0000
0000
0000
0000
,
0000
0000
0000
0000
,
0000
0000
0000
0000
,
1000
0001
0000
1000
0001
0000
0000
0000
,
1000
0100
1000
0100
,
0010
0100
0000
0010
0100
0000
0000
0000
,
0010
0001
1001
0000
,
1001
0000
0110
0000
,
0110
0000
0000
0000
0100
0100
0000
0100
,
0100
0000
0000
0000
0010
0010
0000
0010
,
0010
0000
0010
1000
,
0100
0001
0010
0010
,
0010
0100
0010
0000
0100
0000
1000
0000
,
0010
0001
0100
0100
,
0100
0001
0100
0000
0001
0000
0010
0000
,
0100
1000
0001
1000
,
0010
0100
0001
0000
1000
0000
0100
0000
,
0010
0100
1000
0001
,
1000
0010
0100
0000
0001
0001
0001
0000
,
1000
0100
1000
0100
,
0010
0000
0001
0000
1000
1000
1000
0000
,
0010
0100
0010
0100
,
0001
0000
0010
0000
0100
0100
0100
0000
,
0010
0010
0010
0000
0001
0000
1001
0000
,
1000
0000
1001
0000
1000
1000
1000
0000
,
0001
0001
0001
0000
1000
0000
1010
0000
,
0110
0000
0010
0000
;

//---------------dance-single - Chewi----------------
#NOTES:
     dance-single:
     Chewi:
     Hard:
     9:
     0.298,0.363,0.172,0.000,0.229: // measure 1
0000
0000
0000
0000
,  // measure 2
0000
0000
0000
0000
,  // measure 3
0000
0000
0000
0000
,  // measure 4
0000
0000
0000
0000
,  // measure 5
1000
0000
0010
1000
0000
0010
1000
0000
0000
1000
0000
0100
0010
0000
0001
0000
0000
0000
0000
0000
0000
0000
0000
0000
,  // measure 6
0000
0100
1000
0010
0001
1000
0100
0001
,  // measure 7
0010
0000
0001
0010
0000
0001
0010
0000
0000
0100
0000
1000
0010
0000
1000
0000
0000
0000
0000
0000
0000
0000
0000
0000
,  // measure 8
0000
0010
0001
0100
1000
0001
0010
1000
,  // measure 9
0100
0010
0011
0000
0001
1000
0100
0001
,  // measure 10
0010
0000
0100
0000
1100
0000
0000
0000
1000
1000
0000
0000
0000
0000
0001
0001
,  // measure 11
0000
0000
0000
0000
0000
0000
0000
0000
0100
0100
0000
0000
0000
0000
0010
0010
,  // measure 12
0000
0110
0000
0000
1000
0010
0100
0001
,  // measure 13
1000
0100
0010
0001
1000
0100
1100
0000
,  // measure 14
0001
0100
0101
0000
0001
0010
0100
1000
,  // measure 15
0001
0100
0010
1000
0001
0010
0011
0000
,  // measure 16
1000
0010
1010
0000
0010
0001
0100
1000
,  // measure 17
0001
0100
1000
0100
1000
0010
0001
1000
,  // measure 18
0100
0001
0010
0100
1000
0000
0000
0000
,  // measure 19
0000
0000
0000
0000
0000
0000
0000
0000
0000
0000
0000
0000
0000
0000
0000
0000
0100
0000
0000
0000
0000
0000
0000
0000
0000
0000
0000
0000
0000
0000
0000
0000
0000
0000
0000
0000
0000
0000
0000
0000
1000
0000
0000
0000
0000
0000
0000
0000
0000
0000
0000
0000
0000
0000
0000
0000
0000
0000
0000
0000
0000
0000
0000
0000
0000
0000
0000
0000
0000
0000
0000
0000
0000
0000
0000
0000
0000
0000
0000
0000
0000
0000
0000
0000
0000
0000
0000
0000
0000
0000
0000
0000
0000
0000
0000
0000
0000
0000
0000
0000
0000
0000
0010
0000
0000
0000
0000
0000
0000
0000
0000
0000
0000
0000
0000
0000
0000
0000
0000
0000
0000
0000
0000
0000
0000
0000
0000
0000
0000
0000
0000
0000
0000
0000
0000
0000
0000
0000
0000
0000
0000
0000
0000
0000
0000
0000
0000
0000
0000
0000
0000
0000
0000
0000
0000
0000
0000
0000
0000
0000
0000
0000
0000
0000
0000
0000
0000
0000
0000
0000
0000
0000
0000
0000
0000
0000
0000
0000
0000
0000
0000
0000
0000
0000
0101
0000
0000
0000
0000
0000
0000
0000
,  // measure 20
0000
0000
0000
0000
0000
0000
0000
0000
0000
0000
0000
0000
0001
0000
0100
0001
0000
0100
0001
0000
0000
0001
0000
0010
,  // measure 21
0000
0000
0100
0000
0000
1000
0000
0000
0100
0000
0000
0000
0010
0000
0000
0001
0000
0000
1000
0000
0000
0100
0000
0000
,  // measure 22
1000
0000
0000
0001
0000
0000
0010
0000
0000
1000
0000
0000
0100
0000
1000
0100
0000
1000
0100
0000
0000
0010
0000
0001
,  // measure 23
0000
0000
0000
0000
0001
0000
0000
0000
0000
0000
0010
0000
0000
0000
0000
0000
0100
0000
0000
1000
0000
0000
0000
0000
0000
0000
0000
0000
0000
0000
1000
0000
0000
0000
0000
0000
0010
0000
0000
0000
0000
0000
0100
0000
0000
0000
0000
0000
,  // measure 24
0001
0000
0000
1001
0000
0000
1000
0000
0000
1001
0000
0000
1000
0000
0001
0100
0000
0010
1000
0000
0000
0001
0000
0010
,  // measure 25
0100
0000
1000
0000
0000
0100
0000
0000
0000
0000
0000
0000
0010
0000
0000
0110
0000
0000
0100
0000
0000
0110
0000
0000
,  // measure 26
0010
0000
0000
0011
0000
0000
0001
0000
0000
0101
0000
0000
0100
0000
0010
0100
0000
0010
1000
0000
0000
0001
0000
0010
,  // measure 27
0100
0000
0000
0000
1000
0000
0000
0000
0000
0000
0100
0000
0000
0000
0000
0000
0000
0000
0000
0000
0000
0000
0000
0000
0000
0000
0000
0000
0000
0000
0000
0000
0000
0000
0000
0000
0000
0000
0000
0000
0000
0000
0010
0000
0000
0010
0000
0000
,  // measure 28
0000
0000
1001
0000
;
