#TITLE:未来のプリズム;
#SUBTITLE:;
#ARTIST:星野奏子;
#TITLETRANSLIT:MIRAI NO PRISM;
#SUBTITLETRANSLIT:;
#ARTISTTRANSLIT:Kanako Hoshino;
#GENRE:;
#CREDIT:Chewi☆;
#MENUCOLOR:;
#METERTYPE:DDR X;
#BANNER:MIRAI NO PRISM.png;
#BACKGROUND:MIRAI NO PRISM-bg.png;
#LYRICSPATH:;
#CDTITLE:;
#MUSIC:MIRAI NO PRISM.mp3;
#OFFSET:-0.480;
#SAMPLESTART:43.888;
#SAMPLELENGTH:15.000;
#SELECTABLE:YES;
#LISTSORT:;
#BPMS:0.000=132.000;
#STOPS:;
#BGCHANGES:;
#ATTACKS:;

//---------------dance-single - Chewi----------------
#NOTES:
     dance-single:
     Chewi:
     Hard:
     9:
     0.326,0.358,0.035,0.043,0.000: // measure 1
0000
0000
0000
0000
,  // measure 2
0000
0000
0000
0000
,  // measure 3
0000
0000
0000
0000
,  // measure 4
0000
0000
0000
0000
,  // measure 5
2000
0000
0000
0000
,  // measure 6
3200
0000
0000
0000
,  // measure 7
0320
0000
0000
0000
,  // measure 8
0032
0000
0000
0000
,  // measure 9
1003
0010
0100
0001
,  // measure 10
1000
0100
1000
0000
0001
0000
0101
0000
,  // measure 11
0100
0010
1000
0001
,  // measure 12
1000
0100
1000
0000
0100
0000
1100
0000
,  // measure 13
1000
0001
0100
0010
,  // measure 14
0100
0001
0100
0000
0001
0000
0011
0000
,  // measure 15
0010
0000
0100
0000
1000
0000
0010
1000
,  // measure 16
0010
0000
0000
0000
,  // measure 17
0010
0000
0100
0000
0001
0000
0010
0100
,  // measure 18
1000
0000
0010
0000
1000
0000
0100
1000
,  // measure 19
0010
1000
0100
0000
0010
0000
0001
0000
,  // measure 20
0100
0000
0010
0000
1000
0001
0010
0100
,  // measure 21
1000
0000
0010
0000
1000
0100
0010
0000
,  // measure 22
0010
0000
0001
0000
0100
0001
0010
0100
,  // measure 23
1000
0100
0000
0010
0001
0000
1000
0002
,  // measure 24
0000
0000
0000
0003
,  // measure 25
0001
0100
0001
0010
0001
0100
0001
0000
,  // measure 26
0010
0100
1000
0010
,  // measure 27
0100
0010
1000
0010
0100
0010
1000
0000
,  // measure 28
0100
0001
0010
1000
,  // measure 29
1000
0100
0010
0001
,  // measure 30
0001
0010
0100
1000
,  // measure 31
1000
0001
0100
0010
,  // measure 32
1000
1000
1000
0000
0001
0001
0001
0000
,  // measure 33
1000
0010
1000
0100
1000
0010
1000
0000
,  // measure 34
0100
0010
0001
0100
,  // measure 35
0010
0100
0001
0100
0010
0100
0001
0000
,  // measure 36
0010
0100
1000
0001
,  // measure 37
1000
0001
0100
0010
,  // measure 38
1000
0100
1000
0010
,  // measure 39
0100
0010
0100
0001
0100
0010
0100
0000
,  // measure 40
0001
1000
0100
0010
,  // measure 41
0100
1000
0100
0010
0100
1000
0100
0000
,  // measure 42
1000
0001
0100
0010
,  // measure 43
0100
0001
0010
1000
,  // measure 44
0100
0001
0010
0100
,  // measure 45
1000
0001
0100
0000
0001
1000
0010
0000
,  // measure 46
1000
1000
1000
0000
0001
0001
0001
0000
,  // measure 47
1001
0000
1000
0000
0100
0010
0100
0000
,  // measure 48
1000
0010
0100
0001
0100
0010
1000
0000
,  // measure 49
0001
1000
0100
0010
,  // measure 50
0001
0010
0100
1000
,  // measure 51
0001
0100
1000
0100
0001
0000
0100
0000
,  // measure 52
1000
0010
0100
0001
,  // measure 53
1000
0010
0001
0000
1000
0010
0001
0000
,  // measure 54
1000
0100
1000
0100
,  // measure 55
0001
0100
1000
0000
0001
0100
1000
0000
,  // measure 56
0001
0100
0001
0100
,  // measure 57
0010
0100
0001
0000
0010
0100
0001
0000
,  // measure 58
0010
0100
1000
0010
,  // measure 59
1000
0100
0010
0000
1000
0100
0010
0001
;

//---------------dance-single - Chewi----------------
#NOTES:
     dance-single:
     Chewi:
     Medium:
     6:
     0.261,0.255,0.043,0.035,0.000: // measure 1
0000
0000
0000
0000
,  // measure 2
0000
0000
0000
0000
,  // measure 3
0000
0000
0000
0000
,  // measure 4
0000
0000
0000
0000
,  // measure 5
2000
0000
0000
0000
,  // measure 6
3002
0000
0000
0000
,  // measure 7
0203
0000
0000
0000
,  // measure 8
0320
0000
0000
0000
,  // measure 9
1030
0010
0100
0001
,  // measure 10
1000
1000
0001
0101
,  // measure 11
0100
0010
1000
0001
,  // measure 12
1000
1000
0100
1100
,  // measure 13
1000
0001
0100
0010
,  // measure 14
0100
0100
0001
0011
,  // measure 15
0010
0100
1000
0010
,  // measure 16
0010
0000
0000
0000
,  // measure 17
0010
0100
0001
0010
,  // measure 18
1000
0010
1000
0100
,  // measure 19
0010
0100
0010
0001
,  // measure 20
0100
0010
1000
0010
,  // measure 21
1000
0010
1000
0010
,  // measure 22
0010
0001
0100
0010
,  // measure 23
1000
0000
0001
1000
,  // measure 24
1001
0000
0000
0000
,  // measure 25
0001
0001
0001
0001
,  // measure 26
0010
0100
1000
0010
,  // measure 27
0100
1000
0100
1000
,  // measure 28
0100
0001
0010
1000
,  // measure 29
1000
0100
0010
0001
,  // measure 30
0001
0010
0100
1000
,  // measure 31
1000
0001
0100
0010
,  // measure 32
1000
1000
0001
0001
,  // measure 33
1000
1000
1000
1000
,  // measure 34
0100
0010
0001
0100
,  // measure 35
0010
0001
0010
0001
,  // measure 36
0010
0100
1000
0001
,  // measure 37
1000
0001
0100
0010
,  // measure 38
1000
0100
1000
0010
,  // measure 39
0100
0100
0100
0100
,  // measure 40
0001
1000
0100
0010
,  // measure 41
0100
0100
0100
0100
,  // measure 42
1000
0001
0100
0010
,  // measure 43
0100
0001
0010
1000
,  // measure 44
0100
0001
0010
0100
,  // measure 45
1000
0100
0001
0010
,  // measure 46
1000
1000
0001
0001
,  // measure 47
1001
1000
0100
0100
,  // measure 48
1000
0100
0100
1000
,  // measure 49
0001
1000
0100
0010
,  // measure 50
0001
0010
0100
1000
,  // measure 51
0001
1000
0001
0100
,  // measure 52
1000
0010
0100
0001
,  // measure 53
1000
0001
1000
0001
,  // measure 54
1000
0100
1000
0100
,  // measure 55
0001
1000
0001
1000
,  // measure 56
0001
0100
0001
0100
,  // measure 57
0010
0001
0010
0001
,  // measure 58
0010
0100
1000
0010
,  // measure 59
1000
0010
1000
0010
;

//---------------dance-single - Chewi----------------
#NOTES:
     dance-single:
     Chewi:
     Beginner:
     1:
     0.073,0.128,0.026,0.017,0.000: // measure 1
0000
0000
0000
0000
,  // measure 2
0000
0000
0000
0000
,  // measure 3
0000
0000
0000
0000
,  // measure 4
0000
0000
0000
0000
,  // measure 5
2000
0000
0000
0000
,  // measure 6
3000
0000
0000
0000
,  // measure 7
0002
0000
0000
0000
,  // measure 8
0003
0000
0000
0000
,  // measure 9
1000
0000
0000
0000
,  // measure 10
1000
0000
0000
0000
,  // measure 11
0001
0000
0000
0000
,  // measure 12
0001
0000
0000
0000
,  // measure 13
0010
0000
0000
0000
,  // measure 14
0010
0000
0000
0000
,  // measure 15
0100
0000
0000
0000
,  // measure 16
0100
0000
0000
0000
,  // measure 17
0100
0000
0000
0000
,  // measure 18
0001
0000
0000
0000
,  // measure 19
1000
0000
0000
0000
,  // measure 20
0100
0000
0000
0000
,  // measure 21
0010
0000
0000
0000
,  // measure 22
0001
0000
0000
0000
,  // measure 23
0100
0000
0000
0000
,  // measure 24
0110
0000
0000
0000
,  // measure 25
0010
0000
0000
0000
,  // measure 26
0010
0000
0000
0000
,  // measure 27
0001
0000
0000
0000
,  // measure 28
0001
0000
0000
0000
,  // measure 29
0010
0000
0000
0000
,  // measure 30
1000
0000
0000
0000
,  // measure 31
0001
0000
0000
0000
,  // measure 32
0100
0000
0000
0000
,  // measure 33
0010
0000
0000
0000
,  // measure 34
0100
0000
0000
0000
,  // measure 35
1000
0000
0000
0000
,  // measure 36
1000
0000
0000
0000
,  // measure 37
1000
0000
0000
0000
,  // measure 38
0001
0000
0000
0000
,  // measure 39
0001
0000
0000
0000
,  // measure 40
1000
0000
0000
0000
,  // measure 41
0100
0000
0000
0000
,  // measure 42
0010
0000
0000
0000
,  // measure 43
0100
0000
0000
0000
,  // measure 44
0001
0000
0000
0000
,  // measure 45
1000
0000
0000
0000
,  // measure 46
0100
0000
0000
0000
,  // measure 47
0010
0000
0000
0000
,  // measure 48
1000
0000
0000
0000
,  // measure 49
0100
0000
0000
0000
,  // measure 50
0001
0000
0000
0000
,  // measure 51
1001
0000
0000
0000
,  // measure 52
0110
0000
0000
0000
,  // measure 53
0100
0000
0000
0000
,  // measure 54
0100
0000
0000
0000
,  // measure 55
0010
0000
0000
0000
,  // measure 56
0010
0000
0000
0000
,  // measure 57
0001
0000
0000
0000
,  // measure 58
0001
0000
0000
0000
,  // measure 59
0010
0000
0000
0000
,  // measure 60
0010
0000
0000
0000
;

//---------------dance-single - Chewi----------------
#NOTES:
     dance-single:
     Chewi:
     Easy:
     3:
     0.173,0.205,0.026,0.035,0.000: // measure 1
0000
0000
0000
0000
,  // measure 2
0000
0000
0000
0000
,  // measure 3
0000
0000
0000
0000
,  // measure 4
0000
0000
0000
0000
,  // measure 5
2000
0000
0000
0000
,  // measure 6
3020
0000
0000
0000
,  // measure 7
2030
0000
0000
0000
,  // measure 8
3020
0000
0000
0000
,  // measure 9
1030
0000
1000
0000
,  // measure 10
1000
1000
1000
0000
,  // measure 11
0001
0000
0001
0000
,  // measure 12
0001
0001
0001
0000
,  // measure 13
0010
0000
0010
0000
,  // measure 14
0010
0010
0010
0000
,  // measure 15
0100
0000
0100
0100
,  // measure 16
0100
0000
0000
0000
,  // measure 17
0100
0000
0010
0000
,  // measure 18
0001
0000
0100
0000
,  // measure 19
1000
0000
0010
0000
,  // measure 20
0100
0000
1000
0000
,  // measure 21
0010
0000
0100
0000
,  // measure 22
0001
0000
1000
0000
,  // measure 23
0100
0000
0100
0000
,  // measure 24
0110
0000
0000
0000
,  // measure 25
0010
0000
0010
0000
,  // measure 26
0010
0001
0010
0001
,  // measure 27
0001
0000
0001
0000
,  // measure 28
0001
0100
0001
0100
,  // measure 29
0010
1000
0001
0000
,  // measure 30
1000
1000
1000
0000
,  // measure 31
0001
0000
1000
0000
,  // measure 32
0100
0000
0010
0000
,  // measure 33
0010
0001
0010
0000
,  // measure 34
0100
0100
0100
0000
,  // measure 35
1000
0100
1000
0000
,  // measure 36
1000
1000
1000
0000
,  // measure 37
1000
0010
0100
0000
,  // measure 38
0001
0001
0001
0000
,  // measure 39
0001
0000
0010
0000
,  // measure 40
1000
1000
1000
0000
,  // measure 41
0100
0000
0001
0000
,  // measure 42
0010
0010
0010
0000
,  // measure 43
0100
0000
0010
0000
,  // measure 44
0001
1000
0001
0000
,  // measure 45
1000
0000
0010
0000
,  // measure 46
0100
0001
0100
0000
,  // measure 47
0010
0010
0010
0000
,  // measure 48
1000
0001
1000
0000
,  // measure 49
0100
0100
0100
0000
,  // measure 50
0001
1000
0001
0000
,  // measure 51
1001
0000
0000
0000
,  // measure 52
0110
0000
0000
0000
,  // measure 53
0100
0000
0100
0000
,  // measure 54
0100
1000
0100
1000
,  // measure 55
0010
0000
0010
0000
,  // measure 56
0010
0001
0010
0001
,  // measure 57
0001
0000
1000
0000
,  // measure 58
0001
1000
0001
0000
,  // measure 59
0010
0000
0000
0000
0100
0000
0000
0010
;
