#TITLE:巫女みこナース (愛のテーマ);
#SUBTITLE:;
#ARTIST:Chu☆;
#TITLETRANSLIT:MIKO MIKO NURSE (AI NO TEEMA);
#SUBTITLETRANSLIT:;
#ARTISTTRANSLIT:Chu;
#GENRE:;
#CREDIT:Chewi☆;
#MENUCOLOR:;
#METERTYPE:DDR X;
#BANNER:MIKO MIKO NURSE (AI NO TEEMA).png;
#BACKGROUND:MIKO MIKO NURSE (AI NO TEEMA)-bg.png;
#LYRICSPATH:;
#CDTITLE:;
#MUSIC:MIKO MIKO NURSE (AI NO TEEMA).mp3;
#OFFSET:-1.164;
#SAMPLESTART:92.654;
#SAMPLELENGTH:15.000;
#SELECTABLE:YES;
#LISTSORT:;
#DISPLAYBPM:160.000:320.000;
#BPMS:0.000=160.000,236.000=320.000;
#STOPS:46.000=0.375
,235.000=0.094
,235.250=0.094
,235.500=0.094
,235.750=0.094
,236.000=2.036
;
#BGCHANGES:;
#ATTACKS:;

//---------------dance-single - Chewi----------------
#NOTES:
     dance-single:
     Chewi:
     Hard:
     11:
     0.502,0.640,0.189,0.220,0.012: // measure 1
0000
0000
0000
0000
,  // measure 2
0000
0000
0000
0000
,  // measure 3
0000
0000
0000
0000
,  // measure 4
0000
0000
0000
0000
,  // measure 5
0000
0000
0000
0000
,  // measure 6
0000
0000
0000
0000
,  // measure 7
0000
0000
0000
0000
,  // measure 8
1000
0010
0001
0100
,  // measure 9
1000
0100
1000
0000
1000
0010
1000
0000
,  // measure 10
0001
0100
0001
0000
0001
0010
0001
0000
,  // measure 11
0011
1100
0011
1100
,  // measure 12
0001
1000
0010
0100
0010
0000
0100
0000
,  // measure 13
0010
1000
1001
0001
,  // measure 14
0010
0100
0110
0011
,  // measure 15
0101
0000
1100
0000
1010
0000
1000
0001
,  // measure 16
0010
0100
1000
0000
0001
1000
0002
0000
,  // measure 17
0000
0000
0000
0000
0000
0000
1003
0010
,  // measure 18
0100
0001
1000
0010
0100
0001
1000
2000
,  // measure 19
3000
0001
0001
0002
0003
1000
0200
0000
,  // measure 20
0320
0000
0032
0000
0023
0000
0130
0200
,  // measure 21
0300
1000
1000
2000
3000
1000
0010
0100
,  // measure 22
0001
0200
0000
0020
0000
0000
0330
0000
,  // measure 23
0200
0320
2030
3002
,  // measure 24
0023
0000
0230
0000
2300
0000
3000
0100
,  // measure 25
0010
0001
0000
0010
0100
1000
0010
0010
,  // measure 26
0100
0100
2002
0000
0000
0000
0000
0000
,  // measure 27
0000
0000
3003
0001
,  // measure 28
0100
0000
0000
0010
1000
0000
0001
0000
0010
0000
0100
0000
0000
0000
1000
0000
,  // measure 29
0100
0010
0100
1000
0010
0100
0000
0001
,  // measure 30
0100
0010
0000
1000
0001
0010
0100
0000
,  // measure 31
0010
0000
0001
1000
0010
0100
0001
0000
,  // measure 32
0100
0000
0010
0000
1000
0000
0001
0010
,  // measure 33
0000
0100
1000
0010
1000
0100
0000
0010
,  // measure 34
0001
0100
0010
0100
0001
1000
0010
0000
,  // measure 35
0100
0000
0010
2000
0000
0200
0000
0000
,  // measure 36
0000
3300
0110
0022
,  // measure 37
0000
0000
0000
0003
0031
0010
0000
0000
,  // measure 38
0001
0010
0100
0000
1000
0000
0000
1000
,  // measure 39
0010
0100
0001
1000
0010
0100
0001
0100
,  // measure 40
0001
0100
1000
0100
1000
0100
1000
0001
,  // measure 41
0010
0000
0100
1000
0001
0000
0100
0001
,  // measure 42
1000
0000
0010
1000
0001
0000
1000
1100
,  // measure 43
0000
0000
0001
0101
0000
0000
0010
0010
,  // measure 44
0100
0100
0010
0100
0001
0010
0100
1000
,  // measure 45
0010
0000
1000
0100
0010
0000
0001
0100
,  // measure 46
0010
0000
0100
0001
0010
0000
0100
0010
,  // measure 47
0001
0000
1000
0010
0100
0000
0001
0100
,  // measure 48
0010
1000
0001
0100
0010
1000
0001
1000
,  // measure 49
0100
0000
1000
0001
0010
0000
0100
0010
,  // measure 50
0100
0000
0010
0100
0010
0000
0010
0001
,  // measure 51
0100
0000
0001
0100
0010
1000
0001
0010
,  // measure 52
0100
1000
1000
0000
1010
0000
0101
0000
,  // measure 53
1000
0000
0001
0000
1000
0100
0010
0001
,  // measure 54
0010
0100
1000
0010
0100
0000
0100
0000
,  // measure 55
0010
0000
1000
0001
1000
0000
0100
0000
,  // measure 56
0010
0000
0001
1000
0001
0000
1000
0000
,  // measure 57
0100
0001
0011
0001
,  // measure 58
0100
1000
1010
0020
,  // measure 59
0230
0000
0000
0000
0302
0000
0000
0000
2003
0000
0000
0000
3001
0101
1000
1100
,  // measure 60
1001
0010
0010
0010
,  // measure 61
0000
0100
0100
0100
,  // measure 62
0000
0001
0100
0010
,  // measure 63
1000
0001
0100
0010
,  // measure 64
1000
0001
0001
0001
,  // measure 65
0000
1000
1000
1000
,  // measure 66
0000
0001
0010
0100
,  // measure 67
1000
0001
0010
0100
,  // measure 68
1000
0010
0010
0010
,  // measure 69
0000
0100
0100
0100
,  // measure 70
0000
0100
0010
1000
,  // measure 71
0001
0010
0100
1000
,  // measure 72
0010
1000
1000
1000
,  // measure 73
0000
0001
0001
0001
,  // measure 74
0000
1000
0100
0010
,  // measure 75
0001
1000
0100
0010
,  // measure 76
0001
1000
1000
1000
,  // measure 77
0000
0001
0001
0001
,  // measure 78
0000
0100
0010
0100
,  // measure 79
0001
0100
0010
1000
,  // measure 80
0100
1000
1000
1000
,  // measure 81
0000
0100
0100
0100
,  // measure 82
0000
0100
0010
0100
,  // measure 83
1000
0100
0010
0001
,  // measure 84
0100
0010
0010
0010
,  // measure 85
0000
1000
1000
1000
,  // measure 86
0000
0001
0001
0001
,  // measure 87
0000
1000
1000
1000
,  // measure 88
0000
0100
0100
0100
,  // measure 89
0000
0010
0010
0010
,  // measure 90
0000
0011
0010
0010
,  // measure 91
0010
0010
0000
0101
,  // measure 92
0100
0100
0100
0100
,  // measure 93
0000
0000
0000
0000
,  // measure 94
0000
0000
0000
0000
,  // measure 95
0000
0000
0000
0010
,  // measure 96
1000
0100
0001
0010
;

//---------------dance-single - Chewi----------------
#NOTES:
     dance-single:
     Chewi:
     Medium:
     7:
     0.342,0.527,0.150,0.079,0.008:
0000
0000
0000
0000
,
0000
0000
0000
0000
,
0000
0000
0000
0000
,
0000
0000
0000
0000
,
0000
0000
0000
0000
,
0000
0000
0000
0000
,
0000
0000
0000
0000
,
1000
0010
0100
0001
,
1000
0100
1000
0100
,
0001
0100
0001
0100
,
0110
0000
1001
0000
,
0001
1000
0001
1000
0001
0000
1000
0000
,
0100
1000
0100
0010
,
0001
0010
0001
1001
,
0000
0000
0110
0000
0000
0000
0010
0100
,
0010
0100
0010
0000
1000
0000
0001
0000
,
0000
0000
0000
1001
,
0000
0000
0000
0000
0000
0000
0001
0001
,
0000
0000
1000
1000
0000
0000
0010
0000
,
0100
0000
0001
0000
1000
0000
0100
0100
,
0000
0000
0010
0010
0000
0000
0100
0000
,
0010
0001
1000
0010
,
0001
0100
1000
0100
,
0001
0010
1000
0010
,
0100
0000
0001
1000
0001
0000
0010
0000
,
0100
0000
1000
0001
1000
0000
0100
0000
,
0001
0100
1000
1010
,
0101
0000
0011
0000
1100
0000
0001
1000
,
0001
0000
1000
0000
1000
0000
1000
0001
,
1000
0001
0001
0001
,
0100
0010
1000
0001
,
0011
1000
1010
1000
,
0010
0100
0001
1000
,
0100
0010
0001
0010
,
0011
0010
1010
0100
,
0001
0100
1000
0001
,
1000
0010
0100
0001
,
1000
0100
0010
0001
,
0010
0100
1000
1000
,
0100
0010
0001
1000
,
1100
0001
0100
0001
,
0101
0000
1000
0000
0100
0000
0010
0010
,
0000
0000
0100
0100
0000
0000
0010
0000
,
0001
0100
1000
0010
,
0100
0000
0010
0100
0010
0000
1000
0000
,
0001
0000
1000
0001
1000
0000
1000
0000
,
0100
0001
0100
1000
,
0010
0001
0010
0100
,
0010
0000
0100
0010
0100
0000
0001
0000
,
1000
0000
0001
1000
0001
0000
1000
0000
,
0010
0100
0001
1000
,
0100
0010
0001
1000
,
0100
0000
1000
0100
1000
0000
0001
0000
,
0100
0000
0001
0100
0001
0000
0100
0000
,
0010
1000
0001
0001
,
0010
0100
1000
0010
,
0010
0100
0100
0010
,
1000
0100
0010
0001
,
0010
0000
0000
0000
0100
0000
0000
0000
1000
0000
0000
0000
1000
0001
1000
0001
,
1000
0100
0000
0100
,
0000
0100
0000
0100
,
0000
0010
0000
0010
,
0000
0010
0000
0010
,
0000
1000
0000
1000
,
0000
1000
0000
1000
,
0000
0001
0000
0001
,
0000
0001
0000
0001
,
0000
1000
0000
1000
,
0000
1000
0000
1000
,
0000
0100
0000
0100
,
0000
0100
0000
0100
,
0000
0010
0000
0010
,
0000
0010
0000
0010
,
0000
0001
0000
0001
,
0000
0001
0000
0001
,
0000
1000
0000
1000
,
0000
1000
0000
1000
,
0000
0010
0000
0010
,
0000
0010
0000
0010
,
0000
0100
0000
0100
,
0000
0100
0000
0100
,
0000
0001
0000
0001
,
0000
0001
0000
0001
,
0000
2002
0000
0000
,
3003
1000
0000
0000
,
0000
2002
0000
0000
,
3003
0001
0000
0000
,
0000
0220
0000
0000
,
0330
0010
0000
0000
,
0000
0020
0000
0000
,
0000
0130
0000
0200
,
0000
0000
0000
0310
,
0000
0000
0000
0000
,
0000
0000
0000
0000
,
0000
0000
0000
2002
,
0000
0000
0000
3003
;

//---------------dance-single - Chewi----------------
#NOTES:
     dance-single:
     Chewi:
     Easy:
     5:
     0.269,0.377,0.094,0.252,0.000:
0000
0000
0000
0000
,
0000
0000
0000
0000
,
0000
0000
0000
0000
,
0000
0000
0000
0000
,
0000
0000
0000
0000
,
0000
0000
0000
0000
,
0000
0000
0000
0000
,
1000
1000
0001
0001
,
2000
0000
3010
0000
,
0002
0000
0013
0000
,
0110
0000
1001
0000
,
0001
0001
1000
2000
,
0000
3100
0000
0002
,
0000
0013
0000
1001
,
0000
0110
0000
0100
,
0100
0100
0000
0010
,
0000
0000
0000
0001
,
0000
0000
0000
1000
,
0000
0001
0000
1000
,
0010
0100
0001
0100
,
0000
0010
0000
1000
,
0010
0100
0001
2000
,
0000
3200
0000
0302
,
0000
0023
0000
0032
,
0000
0203
0000
2300
,
0000
3020
0000
0000
,
0000
0000
0030
0100
,
0100
0010
0100
0010
,
0010
1000
1000
0001
,
0010
0100
1000
0010
,
0010
1000
1000
0100
,
0010
0001
0100
0010
,
0001
0010
1000
0100
,
0001
0100
1000
0001
,
1000
0010
0100
0100
,
0010
1000
0001
1000
,
0100
1000
0100
0001
,
0100
0001
0100
0001
,
0010
0001
0010
1000
,
0010
1000
0010
0100
,
0010
1000
0001
0010
,
0100
1000
0001
2001
,
3000
1002
0003
0100
,
0100
0010
0010
0200
,
0000
0302
0000
0023
,
0000
2030
0000
3100
,
0010
0100
1000
0010
,
0100
0001
0010
0002
,
0000
0203
0000
2300
,
0000
3020
0000
0031
,
0010
1000
0010
0100
,
0001
0010
0100
0100
,
0000
0000
0010
0010
,
0001
0010
0100
1000
,
0100
0001
0100
1000
,
0010
0001
0010
2000
,
3000
0002
0003
0200
,
0300
0020
0030
0000
,
2002
0000
0000
0000
3003
0000
1000
0001
,
1001
0100
0000
0000
,
0000
0100
0000
0000
,
0000
0010
0000
0010
,
0000
0010
0000
0000
,
0000
1000
0000
0000
,
0000
1000
0000
0000
,
0000
0001
0000
0001
,
0000
0001
0000
0000
,
0000
1000
0000
0000
,
0000
1000
0000
0000
,
0000
0100
0000
0100
,
0000
0100
0000
0000
,
0000
0010
0000
0000
,
0000
0010
0000
0000
,
0000
0001
0000
0001
,
0000
0001
0000
0000
,
0000
1000
0000
0000
,
0000
1000
0000
0000
,
0000
0010
0000
0010
,
0000
0010
0000
0000
,
0000
0100
0000
0000
,
0000
0100
0000
0000
,
0000
0001
0000
0001
,
0000
0001
0000
0000
,
0000
1001
0000
0000
,
0000
1000
0000
0000
,
0000
1001
0000
0000
,
0000
0001
0000
0000
,
0000
0110
0000
0000
,
0000
0010
0000
0000
,
0000
0020
0000
0000
,
0000
0030
0000
0200
,
0000
0000
0000
0300
,
0000
0000
0000
0000
,
0000
0000
0000
0000
,
0000
0000
0000
2002
,
0000
0000
0000
3003
;

//---------------dance-single - Chewi----------------
#NOTES:
     dance-single:
     Chewi:
     Beginner:
     3:
     0.144,0.226,0.055,0.055,0.000:
0000
0000
0000
0000
,
0000
0000
0000
0000
,
0000
0000
0000
0000
,
0000
0000
0000
0000
,
0000
0000
0000
0000
,
0000
0000
0000
0000
,
0000
0000
0000
0000
,
1000
1000
1000
1000
,
2000
0000
0000
3000
,
1000
0000
0000
0000
,
0002
0000
0000
0003
,
0001
0000
0000
2000
,
0000
0000
3000
1000
,
0000
0000
0000
0002
,
0000
0000
0003
0001
,
0000
0000
0000
0010
,
0000
0000
0000
0001
,
0000
0000
0000
1000
,
0000
0001
0000
1000
,
0000
0100
0000
0100
,
0000
0010
0000
1000
,
0000
0100
0000
1000
,
0000
0100
0000
1000
,
0000
1000
0000
0001
,
0000
0100
0000
0001
,
0000
0001
0000
0000
,
0000
0000
0000
0100
,
0000
0110
0000
0010
,
0000
1000
0000
0001
,
0000
0100
0000
0010
,
0000
1000
0000
0100
,
0000
0001
0000
0010
,
0000
0010
0000
0100
,
0000
0100
0000
0001
,
0000
0010
0000
0100
,
0000
1000
0000
1000
,
0000
1000
0000
0001
,
0000
0001
0000
0001
,
0000
0001
0000
1000
,
0000
1000
0000
0100
,
0000
1000
0000
0010
,
0000
1000
0000
1001
,
0000
1001
0000
0100
,
0000
0010
0000
0100
,
0000
0001
0000
0010
,
0000
1000
0000
0100
,
0000
0100
0000
0010
,
0000
0001
0000
0001
,
0000
0100
0000
1000
,
0000
0010
0000
0001
,
0000
1000
0000
0100
,
0000
0010
0000
0100
,
0000
0010
0000
0001
,
0000
0010
0000
1000
,
0000
0001
0000
1000
,
0000
0001
0000
1000
,
0000
0001
0000
0100
,
0000
0010
0000
0000
,
1001
0000
0000
0000
0000
0000
0001
0001
,
0001
0100
0000
0000
,
0000
0000
0000
0000
,
0000
0010
0000
0000
,
0000
0000
0000
0000
,
0000
1000
0000
0000
,
0000
0000
0000
0000
,
0000
0001
0000
0000
,
0000
0000
0000
0000
,
0000
1000
0000
0000
,
0000
0000
0000
0000
,
0000
0100
0000
0000
,
0000
0000
0000
0000
,
0000
0010
0000
0000
,
0000
0000
0000
0000
,
0000
0001
0000
0000
,
0000
0000
0000
0000
,
0000
1000
0000
0000
,
0000
0000
0000
0000
,
0000
0010
0000
0000
,
0000
0000
0000
0000
,
0000
0100
0000
0000
,
0000
0000
0000
0000
,
0000
0001
0000
0000
,
0000
0000
0000
0000
,
0000
1001
0000
0000
,
0000
0000
0000
0000
,
0000
1001
0000
0000
,
0000
0000
0000
0000
,
0000
0110
0000
0000
,
0000
0000
0000
0000
,
0000
0020
0000
0000
,
0000
0030
0000
0020
,
0000
0000
0000
0030
,
0000
0000
0000
0000
,
0000
0000
0000
0000
,
0000
0000
0000
0200
,
0000
0000
0000
0300
;
