#TITLE:MAX 150;
#SUBTITLE:;
#ARTIST:hammer;
#TITLETRANSLIT:;
#SUBTITLETRANSLIT:;
#ARTISTTRANSLIT:;
#GENRE:;
#CREDIT:;
#MENUCOLOR:#FF0000;
#METERTYPE:DDR X;
#BANNER:MAX 150.png;
#BACKGROUND:MAX 150-bg.png;
#LYRICSPATH:;
#CDTITLE:;
#MUSIC:MAX 150.mp3;
#OFFSET:-0.050;
#SAMPLESTART:78.240;
#SAMPLELENGTH:12.000;
#SELECTABLE:YES;
#LISTSORT:;
#DISPLAYBPM:150.000;
#BPMS:0.000=150.000,127.500=75.000,127.625=32.500,127.750=16.260,127.875=8.160,128.000=150.000,184.000=151.200,186.250=153.300,188.000=150.000;
#STOPS:128.000=1.705
;
#BGCHANGES:;
#ATTACKS:;

//---------------dance-single - Chewi----------------
#NOTES:
     dance-single:
     Chewi:
     Hard:
     14:
     0.668,0.833,0.302,0.052,0.315:
0000
0000
0000
0000
,
0000
0000
0000
0000
,
0000
0000
0000
0000
,
0000
0000
0000
0000
,
1000
0100
1000
0000
0010
1000
0101
0000
,
0001
0010
0001
0000
0100
0010
1010
0000
,
0001
1000
0010
0000
1000
0001
0010
0000
,
0100
0010
0100
0010
0001
0010
0001
0000
,
0001
0100
0010
1000
0100
0010
0001
0000
,
2002
0000
0000
0000
,
0000
0000
0000
3003
,
1000
0010
1000
0100
1000
0010
1000
0100
,
0001
0010
0001
0100
0001
0010
0001
0100
,
0010
0100
0001
1000
0100
0010
0001
1000
,
1000
1100
0001
0101
1000
0010
0001
0010
,
0001
0100
0001
0010
0100
1000
0001
1000
,
0001
0100
0001
0100
0010
1000
0010
1000
,
0001
1000
0001
1000
0100
1000
0010
1000
,
0100
0000
0010
0000
0001
0000
0100
0000
0100
0010
0100
0000
0010
0100
0010
0000
,
1000
0100
0010
0001
1000
0100
0001
0100
,
1000
0000
0010
0000
0100
0000
0001
0000
1000
0001
0010
0000
0001
1000
0010
0000
,
1000
0001
1000
0001
1000
0010
0100
0010
,
1000
0010
0100
0000
0100
0000
0001
0000
1000
0100
0010
0000
0010
0000
0001
0000
,
0110
0010
0001
0000
0100
0010
0100
0001
,
1100
1000
0010
0000
0100
0001
0100
0010
,
1010
0100
0001
0000
1000
0100
0010
0001
,
0110
0010
0001
0000
0100
0010
1000
0001
,
1000
0000
1100
0000
0001
0000
1000
0000
0010
0100
0001
0100
0001
0000
0100
0000
,
0010
0000
0110
0000
0100
0000
0001
0000
0010
0100
1000
0100
1000
0000
0010
0000
,
1000
0000
1100
0000
0010
0000
0001
0000
0100
0010
0100
0001
0100
0000
0001
0000
,
1000
0010
0100
0001
1000
0010
0100
0001
0010
0100
1000
0001
0010
0100
1000
0000
,
2002
0000
0000
0000
,
3003
0000
0000
0000
,
0000
0000
0000
0000
0000
0000
0000
0000
0000
0000
0000
0000
0000
0000
0000
0000
0000
0000
0000
0000
0000
0000
0000
0000
0000
0000
0000
0000
0000
0000
0000
0000
0000
0000
0000
0000
0000
0000
0000
0000
0000
0000
0000
0000
0000
0000
0000
0000
0000
0000
0000
0000
0000
0000
0000
0000
0000
0000
0000
0000
0000
0010
0000
0000
,
0000
0000
0000
0000
0000
0000
0000
0000
0000
0000
0000
0010
0000
0000
0000
0000
0000
0000
0000
0000
1000
0000
0000
0000
0000
0000
0100
0000
0000
0000
0000
0000
,
0000
1000
0000
0000
0000
0000
0001
0000
0000
0000
0000
0000
0000
0000
0000
0000
0000
0000
0000
0000
0000
0000
0000
0000
0000
0000
0001
0000
0000
0000
0000
0000
0000
0000
0000
0000
0000
0000
0000
0000
0000
0100
0000
0000
0000
0000
0000
0000
0000
0000
0000
0000
0000
0010
0000
0000
0000
0000
0000
0000
0000
0000
0000
0000
,
0000
0000
0000
0000
0000
0000
0000
0000
0000
0000
0000
0000
0000
0000
0000
0000
0000
0000
0000
0000
0000
0000
0000
0000
0000
1000
0000
0000
0000
0000
0000
0000
0000
0000
0000
0000
0000
0000
0000
0000
0000
0000
0000
0000
0000
0000
0000
0000
0010
0000
0000
0000
0100
0000
0000
0000
1000
0000
0000
0000
0100
0000
0000
0000
,
1000
0010
0100
0001
0010
0100
1000
0010
,
1000
0100
0010
0001
0010
0100
1000
0010
,
0100
0001
0010
0001
0100
1000
0010
1000
,
0100
0010
0100
0010
0001
1000
0001
1000
,
0100
0000
0001
0000
0010
0000
0001
0000
0100
0001
0010
0100
1000
0000
0100
0000
,
1000
0000
0010
0000
1000
0000
0100
0000
1000
0010
0100
0001
0100
0000
0001
0000
,
1000
0000
0100
0000
1000
0000
0100
0000
0010
0001
0100
0001
0010
0000
0001
0000
,
1000
1001
0001
1001
1000
1010
0010
0110
,
0100
0001
0010
0100
1000
0001
1000
0001
,
2000
0000
3001
0000
,
1001
1000
0010
0100
0001
0010
0100
1000
,
0001
1000
0001
1000
0010
1100
0010
0101
,
0101
0010
0100
1000
0010
1000
0001
0010
,
0100
0000
1000
0000
0010
0000
0100
0000
0001
1000
0001
0000
0100
0010
0100
0000
,
0010
1000
0001
0010
0100
1000
0010
0100
,
0001
1000
0100
0010
0100
0011
0010
1010
,
0001
0010
0100
1000
0001
0100
0010
1000
,
0001
1000
0001
0000
1000
0001
1000
0000
0010
0100
0001
0010
0100
1000
0100
0010
,
0100
0010
0001
0100
0010
0100
0001
0010
,
0100
1000
0010
1000
1100
1100
0011
0011
,
0001
1000
0010
1000
0001
0010
0100
1000
,
0010
1000
0100
1000
0110
0101
1001
0110
,
0100
0001
0100
0001
0100
0000
0010
1000
0100
1000
0010
0000
1000
0100
1000
0100
,
0001
0100
0001
0100
0010
0100
0010
0000
1000
0100
0001
0100
1000
0000
1000
0100
,
0010
0001
0010
0000
0100
0010
0001
0010
0100
0000
0100
0010
0001
0100
0010
0000
,
1000
0001
1000
0001
1000
0001
1000
0001
1000
0100
1000
0100
1000
0100
1000
0100
,
0010
0001
0100
0001
0010
0100
1000
0010
,
1000
0100
0010
0001
1000
1001
0001
0101
,
0100
0010
0100
0001
0010
0100
1000
0010
,
1000
0000
1100
0000
0001
0000
0101
0000
0010
1000
0010
1000
0010
0001
0010
0001
,
0020
0000
0000
0000
,
0000
0000
0000
0000
,
0030
0000
0000
0000
;

//---------------dance-single - Chewi----------------
#NOTES:
     dance-single:
     Chewi:
     Medium:
     9:
     0.410,0.446,0.267,0.095,0.039: // measure 1
0000
0000
0000
0000
,  // measure 2
0000
0000
0000
0000
,  // measure 3
0000
0000
0000
0000
,  // measure 4
0000
0000
0000
0000
,  // measure 5
1000
1100
0001
0101
,  // measure 6
0010
0010
0010
0000
0100
0100
0100
0000
,  // measure 7
0010
1010
0010
0011
,  // measure 8
0100
0010
0001
0000
0001
0100
0010
0000
,  // measure 9
1000
0100
0010
0100
,  // measure 10
2002
0000
0000
0000
,  // measure 11
0000
0000
0000
3003
,  // measure 12
1000
0100
1000
0000
0001
0000
1100
0000
,  // measure 13
0001
0100
0010
0001
,  // measure 14
0100
0010
0001
0000
1000
0000
1100
0000
,  // measure 15
0001
1000
0010
0100
,  // measure 16
0010
0100
0001
0000
0100
0000
0101
0000
,  // measure 17
0001
0010
0100
1000
,  // measure 18
0010
1000
0100
0000
0010
0000
0110
0000
,  // measure 19
1000
1001
0001
1001
,  // measure 20
0100
0010
1000
0000
0001
0000
1100
0000
,  // measure 21
0001
0010
0100
1000
,  // measure 22
0001
0100
0010
0000
0100
0000
0101
0000
,  // measure 23
1000
0001
1000
0000
0001
1000
0001
1000
,  // measure 24
0010
0000
0011
0000
0010
1000
0100
0000
,  // measure 25
1000
0100
0001
0000
0001
0010
0100
0000
,  // measure 26
0001
0000
0101
0000
0001
0100
0010
0000
,  // measure 27
1000
0100
0010
0000
0001
1000
0010
0000
,  // measure 28
0100
0010
0100
0000
0010
0001
0010
0000
,  // measure 29
0001
0100
1000
0000
1000
0100
0001
0000
,  // measure 30
0100
1000
0100
0000
1000
0010
1000
0000
,  // measure 31
1000
0010
0001
0000
0001
0010
1000
0000
,  // measure 32
2002
0000
0000
0000
,  // measure 33
3003
0000
0000
0000
,  // measure 34
0000
0000
0000
0000
0000
0000
0000
0000
0000
0000
0000
0000
0000
0000
0000
0000
0000
0000
0000
0000
0000
0000
0000
0000
0000
0000
0000
0000
0000
0000
0000
0000
0000
0000
0000
0000
0000
0000
0000
0000
0000
0000
0000
0000
0000
0000
0000
0000
0000
0000
0000
0000
0000
0000
0000
0000
0000
0000
0000
0000
0000
0010
0000
0000
,  // measure 35
0000
0000
0000
0000
0000
0000
0000
0000
0000
0000
0000
0010
0000
0000
0000
0000
0000
0000
0000
0000
1000
0000
0000
0000
0000
0000
0100
0000
0000
0000
0000
0000
,  // measure 36
0000
1000
0000
0000
0000
0000
0001
0000
0000
0000
0000
0000
0000
0000
0000
0000
0000
0000
0000
0000
0000
0000
0000
0000
0000
0000
0001
0000
0000
0000
0000
0000
0000
0000
0000
0000
0000
0000
0000
0000
0000
0100
0000
0000
0000
0000
0000
0000
0000
0000
0000
0000
0000
0010
0000
0000
0000
0000
0000
0000
0000
0000
0000
0000
,  // measure 37
0000
0000
0000
0000
0000
0000
0000
0000
0000
0000
0000
0000
0000
0000
0000
0000
0000
0000
0000
0000
0000
0000
0000
0000
0000
1000
0000
0000
0000
0000
0000
0000
0000
0000
0000
0000
0000
0000
0000
0000
0000
0000
0000
0000
0000
0000
0000
0000
0010
0000
0000
0000
0000
0000
0000
0000
0000
0000
0000
0000
0000
0000
0000
0000
,  // measure 38
0100
0000
0101
0000
0001
0010
0100
0000
,  // measure 39
1000
0000
1100
0000
1000
0100
0010
0000
,  // measure 40
0001
1000
0001
0000
1000
0001
1000
0000
,  // measure 41
0010
0001
0100
1000
,  // measure 42
0010
1000
0100
0000
0010
0000
0001
0000
,  // measure 43
0010
0001
0100
0000
0010
0000
1000
0000
,  // measure 44
0001
1000
0001
0000
1000
0001
1000
0000
,  // measure 45
1100
0101
1010
0011
,  // measure 46
0001
0010
0100
0000
1000
0010
0100
0000
,  // measure 47
0020
0000
0130
0000
,  // measure 48
0100
0010
0100
0000
0010
0100
0010
0000
,  // measure 49
1000
0100
0010
0001
,  // measure 50
1000
0100
1000
0000
0001
0100
0001
0000
,  // measure 51
0001
0100
0010
0001
,  // measure 52
0100
0001
0100
0000
0100
1000
0100
0000
,  // measure 53
1000
0001
0100
0010
,  // measure 54
1000
0010
1000
0000
0001
0010
0001
0000
,  // measure 55
1100
0101
1010
0011
,  // measure 56
0001
1000
0010
0000
0100
0001
1000
0000
,  // measure 57
0100
0010
0100
0000
0010
0000
0001
0000
,  // measure 58
1000
0100
0010
0000
0001
0100
0010
0000
,  // measure 59
1000
0001
1000
0000
0101
0000
1010
0000
,  // measure 60
1000
0010
0001
0000
0010
1000
0001
0000
,  // measure 61
1000
0100
0010
0000
0001
0010
0100
0000
,  // measure 62
1000
0001
1000
0000
0010
0100
0010
0000
,  // measure 63
0100
0001
0010
0000
0100
1000
0010
0000
,  // measure 64
0220
0000
0000
0330
,  // measure 65
1000
0100
0010
0001
1000
0100
0010
0000
,  // measure 66
0220
0000
0000
0330
,  // measure 67
0001
0010
0100
1000
0001
0010
0100
0000
,  // measure 68
2002
0000
0000
0000
,  // measure 69
0000
0000
0000
0000
,  // measure 70
3003
0000
0000
0000
;

//---------------dance-single - Chewi----------------
#NOTES:
     dance-single:
     Chewi:
     Easy:
     6:
     0.370,0.476,0.353,0.095,0.039: // measure 1
0000
0000
0000
0000
,  // measure 2
0000
0000
0000
0000
,  // measure 3
0000
0000
0000
0000
,  // measure 4
0000
0000
0000
0000
,  // measure 5
1000
0100
0001
1001
,  // measure 6
0001
0100
1000
1001
,  // measure 7
0010
0001
0100
1000
,  // measure 8
0010
0100
0010
0000
0100
0000
0010
0000
,  // measure 9
0100
0010
0100
0000
0010
0000
0100
0000
,  // measure 10
2002
0000
0000
0000
,  // measure 11
0000
0000
0000
3003
,  // measure 12
1000
1100
0001
0011
,  // measure 13
0010
0100
0010
0000
0100
0000
0010
0000
,  // measure 14
0001
0101
1000
1100
,  // measure 15
0001
1000
0001
0000
1000
0000
1000
0000
,  // measure 16
0010
0001
0100
0010
,  // measure 17
0001
0100
0010
1000
,  // measure 18
0100
0010
1000
0100
,  // measure 19
0010
0100
0001
1000
,  // measure 20
0110
0110
0100
0010
,  // measure 21
1001
1001
1000
0001
,  // measure 22
1010
1010
0100
0001
,  // measure 23
0101
0101
0010
1000
,  // measure 24
0002
0010
0100
1003
,  // measure 25
0100
0010
0100
0010
,  // measure 26
2000
0100
0001
3010
,  // measure 27
0010
0001
0010
1000
,  // measure 28
0200
0001
1000
0301
,  // measure 29
0010
0001
0100
0010
,  // measure 30
0020
0001
1000
0031
,  // measure 31
1000
0100
0010
0001
,  // measure 32
2002
0000
0000
0000
,  // measure 33
3003
0000
0000
0000
,  // measure 34
0000
0000
0000
0000
0000
0000
0000
0000
0000
0000
0000
0000
0000
0000
0000
0000
0000
0000
0000
0000
0000
0000
0000
0000
0000
0000
0000
0000
0000
0000
0000
0000
0000
0000
0000
0000
0000
0000
0000
0000
0000
0000
0000
0000
0000
0000
0000
0000
0000
0000
0000
0000
0000
0000
0000
0000
0000
0000
0000
0000
0000
0010
0000
0000
,  // measure 35
0000
0000
0000
0000
0000
0000
0000
0000
0000
0000
0000
0010
0000
0000
0000
0000
0000
0000
0000
0000
0100
0000
0000
0000
0000
0000
0100
0000
0000
0000
0000
0000
,  // measure 36
0000
1000
0000
0000
0000
0000
0001
0000
0000
0000
0000
0000
0000
0000
0000
0000
0000
0000
0000
0000
0000
0000
0000
0000
0000
0000
0001
0000
0000
0000
0000
0000
0000
0000
0000
0000
0000
0000
0000
0000
0000
1000
0000
0000
0000
0000
0000
0000
0000
0000
0000
0000
0000
0010
0000
0000
0000
0000
0000
0000
0000
0000
0000
0000
,  // measure 37
0000
0000
0000
0000
0000
0000
0000
0000
0000
0000
0000
0000
0000
0000
0000
0000
0000
0000
0000
0000
0000
0000
0000
0000
0000
0010
0000
0000
0000
0000
0000
0000
0000
0000
0000
0000
0000
0000
0000
0000
0000
0000
0000
0000
0000
0000
0000
0000
0000
0000
0000
0000
0000
0000
0000
0000
0000
0000
0000
0000
0000
0000
0000
0000
,  // measure 38
0010
0100
0001
0101
,  // measure 39
0001
1000
0001
0000
1000
0001
1000
0000
,  // measure 40
1000
0100
0010
0110
,  // measure 41
0100
0010
0100
0000
0100
1000
0100
0000
,  // measure 42
1000
1001
0001
0100
,  // measure 43
0010
0110
0100
0010
,  // measure 44
1000
0010
1000
0000
0001
0000
0100
0000
,  // measure 45
0010
0100
0010
0000
0100
0000
0001
0000
,  // measure 46
1000
1100
0001
0101
,  // measure 47
0220
0000
0330
0000
,  // measure 48
1000
1100
0001
0101
,  // measure 49
1010
0101
1010
0101
,  // measure 50
1000
1100
0001
0011
,  // measure 51
0011
1100
0011
1100
,  // measure 52
0001
1000
0001
0000
1000
0000
0001
0000
,  // measure 53
1000
0001
1000
0000
0001
0000
1000
0000
,  // measure 54
0010
0100
0010
0000
0100
0000
0010
0000
,  // measure 55
0100
0010
0100
0000
0010
0000
0100
0000
,  // measure 56
0010
0001
0100
1000
,  // measure 57
0010
0000
0001
0000
0010
0001
0010
0000
,  // measure 58
0010
1000
0100
0001
,  // measure 59
0010
0000
0100
0000
0001
0100
0001
0000
,  // measure 60
0100
0010
1000
0001
,  // measure 61
1000
0100
0010
0001
,  // measure 62
1000
0100
1000
0000
0001
0010
0001
0000
,  // measure 63
0001
0100
0001
0000
1000
0010
1000
0000
,  // measure 64
0110
0000
1001
0000
,  // measure 65
0110
0000
0000
0000
0100
0010
0100
0010
,  // measure 66
0110
0000
1001
0000
,  // measure 67
0110
0000
0000
0000
0100
0010
0100
0010
,  // measure 68
0200
0000
0000
0000
,  // measure 69
0000
0000
0000
0000
,  // measure 70
0300
0000
0000
0000
;

//---------------dance-single - Chewi----------------
#NOTES:
     dance-single:
     Chewi:
     Beginner:
     3:
     0.172,0.268,0.164,0.043,0.000: // measure 1
0000
0000
0000
0000
,  // measure 2
0000
0000
0000
0000
,  // measure 3
0000
0000
0000
0000
,  // measure 4
0000
0000
0000
0000
,  // measure 5
1000
0000
1000
0000
,  // measure 6
0001
0000
0001
0000
,  // measure 7
0010
0010
0010
0000
,  // measure 8
0100
0000
0100
0000
,  // measure 9
1000
0000
1000
0000
,  // measure 10
0001
0001
0001
0000
,  // measure 11
0000
0000
0000
0000
,  // measure 12
1100
0000
0100
0000
,  // measure 13
0001
0000
0100
0000
,  // measure 14
0101
0000
0100
0000
,  // measure 15
1000
0000
0010
0000
,  // measure 16
0110
0000
0010
0000
,  // measure 17
0100
0000
1000
0000
,  // measure 18
1001
0000
0001
0000
,  // measure 19
1000
0000
1000
0000
,  // measure 20
1000
0000
0100
0000
,  // measure 21
0010
0000
0001
0000
,  // measure 22
0001
0000
0100
0000
,  // measure 23
0010
0000
1000
0000
,  // measure 24
1001
0000
0000
0000
,  // measure 25
1000
1000
1000
0000
,  // measure 26
1001
0000
0000
0000
,  // measure 27
0001
0001
0001
0000
,  // measure 28
0110
0000
0000
0000
,  // measure 29
0100
0100
0100
0000
,  // measure 30
0110
0000
0000
0000
,  // measure 31
0010
0010
0010
0000
,  // measure 32
0010
0000
0000
0000
,  // measure 33
0000
2000
0000
0000
0000
0000
0000
0000
,  // measure 34
0000
0000
0000
0000
,  // measure 35
0000
0000
0000
0000
,  // measure 36
0000
0000
0000
0000
,  // measure 37
0000
0000
0000
0000
,  // measure 38
3001
0000
0001
0000
,  // measure 39
0001
0000
1000
0000
,  // measure 40
1000
0000
0010
0000
,  // measure 41
0100
0000
0100
0000
,  // measure 42
1000
0000
0001
0000
,  // measure 43
0010
0000
0100
0000
,  // measure 44
1000
0000
0001
0000
,  // measure 45
0010
0000
0100
0000
,  // measure 46
1000
0000
0001
0000
,  // measure 47
0220
0000
0330
0000
,  // measure 48
1000
0000
0001
0000
,  // measure 49
1001
0000
0010
0000
,  // measure 50
1000
0000
0001
0000
,  // measure 51
0110
0000
0010
0000
,  // measure 52
0001
0000
1000
0000
,  // measure 53
1000
0000
0001
0000
,  // measure 54
0010
0000
0100
0000
,  // measure 55
0100
0000
0010
0000
,  // measure 56
0010
0000
0100
0000
,  // measure 57
0010
0000
0010
0000
,  // measure 58
0010
0000
0100
0000
,  // measure 59
0010
0000
0001
0000
,  // measure 60
0100
0000
1000
0000
,  // measure 61
1000
0000
0010
0000
,  // measure 62
1000
0000
0001
0000
,  // measure 63
0001
0000
1000
0000
,  // measure 64
0110
0000
1001
0000
,  // measure 65
0110
0000
0100
0000
,  // measure 66
0110
0000
1001
0000
,  // measure 67
0110
0000
0000
0110
,  // measure 68
0220
0000
0000
0000
,  // measure 69
0000
0000
0000
0000
,  // measure 70
0330
0000
0000
0000
;
