#TITLE:MANDOLIN SUMMER SUN;
#SUBTITLE:;
#ARTIST:JAMIE LYNN SPEARS;
#TITLETRANSLIT:;
#SUBTITLETRANSLIT:;
#ARTISTTRANSLIT:;
#GENRE:;
#CREDIT:;
#BANNER:MANDOLIN SUMMER SUN.png;
#BACKGROUND:MANDOLIN SUMMER SUN-bg.png;
#LYRICSPATH:;
#CDTITLE:cdtitle.png;
#MUSIC:MANDOLIN SUMMER SUN.ogg;
#OFFSET:-0.035000;
#SAMPLESTART:26.452000;
#SAMPLELENGTH:12.000000;
#SELECTABLE:YES;
#BPMS:0.000000=109.018997
;
#STOPS:
;
#BGCHANGES:;
#KEYSOUNDS:;
#ATTACKS:;

//---------------dance-single - ----------------
#NOTES:
     dance-single:
     :
     Hard:
     12:
     0.416273,0.487639,0.248875,0.031109,0.222950,281.000000,257.000000,24.000000,3.000000,0.000000,0.000000,0.416273,0.487639,0.248875,0.031109,0.222950,281.000000,257.000000,24.000000,3.000000,0.000000,0.000000:
0000
0000
0000
0000
,
0000
0000
0000
0000
,
0000
0000
0000
0000
,
0000
0000
0000
0000
,
0000
1000
0000
0010
0100
0001
0010
0010
,
0000
0001
0100
1000
0001
0010
1000
0000
,
0000
0001
0010
0100
1000
0010
0100
0100
,
0010
0001
1000
0100
0001
0010
0100
0000
,
0000
0001
0000
0100
0010
0001
1000
1000
,
0000
1000
0010
0001
1000
0100
0001
0000
,
0000
1000
0100
0010
0001
0100
0010
0010
,
0100
0001
1000
0010
1000
0100
0010
0000
,
0000
0000
0001
0010
1000
0000
0000
0000
0001
0010
1000
0000
0000
0000
0000
0000
,
0010
0000
0100
0010
0000
0000
0001
1000
0010
0000
0100
0000
0001
0000
0000
0000
,
0010
0000
0001
0000
0010
0100
1000
0000
0001
0000
1000
0000
1001
0000
0000
0000
,
0010
0000
1000
0100
0000
0000
0001
0000
0100
1000
0010
0000
0100
0000
0001
0000
,
0000
0000
1000
0100
0001
0000
0000
0000
1000
0100
0001
0000
0000
0000
0000
0000
,
0100
0000
0010
0100
0000
0000
1000
0001
0100
0000
0010
0000
1000
0000
0100
0000
,
1000
0001
1001
0000
0001
1000
1001
0000
,
0100
0010
0110
0000
0110
0110
1001
0000
,
1000
0000
0000
0100
0000
0000
1000
0000
0000
0001
0000
0000
0100
0000
0010
0000
,
0100
0000
0000
0001
0000
0000
1000
0000
0000
0010
0000
0000
1000
0000
0100
0000
,
0001
0000
0000
0010
0000
0000
0001
0000
0000
1000
0000
0000
0010
0000
0100
0010
,
0100
0000
0000
0001
0000
0000
0010
0000
0100
0000
0000
0100
0000
0000
0100
0000
,
0000
0000
1000
0100
0001
0000
0000
0000
1000
0100
0001
0000
0000
0000
0000
0000
,
0100
0000
0010
0100
0000
0000
1000
0001
0100
0000
0010
0000
1000
0000
0000
0000
,
0100
0000
1000
0000
0100
0010
0001
0000
1000
0000
0001
0000
1001
0000
0000
0000
,
0100
0000
0001
0010
0000
0000
1000
0000
0010
0001
0100
0000
0010
0000
1000
0000
,
0000
0000
0001
0010
1000
0000
0000
0000
0001
0010
1000
0000
0000
0000
0000
0000
,
0010
0000
0100
0010
0000
0000
0001
1000
0010
0000
0100
0000
0001
0000
0010
0000
,
0001
1000
1001
0000
1000
0001
1001
0000
,
0010
0100
0110
0000
0100
0010
0110
0000
,
0110
0010
0011
0001
1001
1000
1010
0010
,
0110
0000
1001
0000
,
0000
0000
0001
0010
0000
0000
1100
0000
0000
0000
0001
0010
0000
0000
1100
0000
,
0000
2001
0010
0001
0100
0001
3010
0000
,
0000
0000
1000
0100
0000
0000
0011
0000
0000
0000
1000
0100
0000
0000
0011
0000
,
0000
1002
0100
1000
0010
1000
0103
0000
,
0000
0000
0010
1000
0100
0000
0000
0000
0010
1000
0100
0000
0000
0000
0000
0000
,
1000
0000
0001
1000
0000
0000
0010
0100
0001
0000
1000
0000
0100
0000
0000
0000
,
0000
0000
0010
0001
0100
0000
0000
0000
0010
0001
0100
0000
0000
0000
0000
0000
,
0001
0000
1000
0001
0000
0000
0010
0100
1000
0000
0010
0000
0001
0000
0100
0000
,
2000
0000
0000
3000
;

//---------------dance-single - ----------------
#NOTES:
     dance-single:
     :
     Medium:
     8:
     0.322945,0.376812,0.062219,0.228135,0.041479,218.000000,212.000000,6.000000,22.000000,0.000000,0.000000,0.322945,0.376812,0.062219,0.228135,0.041479,218.000000,212.000000,6.000000,22.000000,0.000000,0.000000:
// measure 0
0000
0000
0000
0000
,  // measure 1
0000
0000
0000
0000
,  // measure 2
0000
0000
0000
0000
,  // measure 3
0000
0000
0000
0000
,  // measure 4
2000
0000
3100
0000
0010
0001
0100
0000
,  // measure 5
0002
0000
0103
0000
0010
1000
0100
0000
,  // measure 6
2000
0000
3001
0000
1000
0001
0100
0000
,  // measure 7
0001
1000
0100
0000
1000
0100
0010
0001
,  // measure 8
0002
0000
0013
0000
0100
1000
0010
0000
,  // measure 9
2000
0000
3010
0000
0100
0001
0010
0000
,  // measure 10
0002
0000
1003
0000
0001
1000
0010
0000
,  // measure 11
1000
0001
0010
0000
0001
0010
0100
1000
,  // measure 12
0100
1000
0010
0000
1000
0010
0000
0000
,  // measure 13
1000
0100
0010
0000
0001
1000
0100
0000
,  // measure 14
0001
0100
0010
0000
0100
0001
1000
0000
,  // measure 15
0100
0001
0010
1000
,  // measure 16
0100
0010
0001
0000
0010
0001
0000
0000
,  // measure 17
0010
0001
1000
0000
0100
1000
0001
0000
,  // measure 18
1200
1000
1300
0000
0201
0001
0301
0000
,  // measure 19
1000
0001
1000
0001
0100
0010
0100
0010
,  // measure 20
0001
0000
0000
1000
0000
0000
0001
0000
0000
1000
0000
0000
0001
0000
1000
0000
,  // measure 21
0100
0000
0000
0010
0000
0000
0100
0000
0000
0010
0000
0000
0100
0000
1000
0000
,  // measure 22
0010
0000
0000
0100
0000
0000
0010
0000
0000
0100
0000
0000
0010
0000
0010
0000
,  // measure 23
0010
0000
0000
1000
0000
0000
0001
0000
0100
0000
0000
0001
0000
0000
1000
0000
,  // measure 24
0001
0001
0100
0000
0001
0100
0000
0000
,  // measure 25
0001
0010
0100
0000
1000
0001
0010
0000
,  // measure 26
1000
0010
0100
0000
0010
1000
0001
0000
,  // measure 27
0010
1000
0100
0001
,  // measure 28
0010
0100
1000
0000
0100
1000
0000
0000
,  // measure 29
0100
1000
0001
0000
0010
0001
1000
0000
,  // measure 30
0021
0001
0031
0000
1020
1000
1030
0000
,  // measure 31
1002
1000
1003
0000
2001
0001
3001
0000
,  // measure 32
1000
0100
0010
0001
1000
0100
0010
0001
,  // measure 33
2000
0000
3002
0000
,  // measure 34
2003
0000
3013
0000
0100
0001
0010
0000
,  // measure 35
0002
0000
3023
0000
0130
0100
0103
0000
,  // measure 36
3002
0000
3103
0000
0010
1000
0100
0000
,  // measure 37
2000
0000
3203
0000
0310
0010
3010
0000
,  // measure 38
0100
1000
0010
0000
1000
0010
0000
0000
,  // measure 39
1000
0100
0010
0000
0001
0010
0100
0000
,  // measure 40
0010
0001
0100
0000
0001
0100
0000
0000
,  // measure 41
0001
0010
0100
0000
1000
0100
0010
0002
,  // measure 42
2000
0000
0000
3003
;

//---------------dance-single - ----------------
#NOTES:
     dance-single:
     :
     Easy:
     4:
     0.171842,0.202989,0.000000,0.041479,0.000000,116.000000,116.000000,0.000000,4.000000,0.000000,0.000000,0.171842,0.202989,0.000000,0.041479,0.000000,116.000000,116.000000,0.000000,4.000000,0.000000,0.000000:
0000
0000
0000
0000
,
0000
0000
0000
0000
,
0000
0000
0000
0000
,
0000
0000
0000
0000
,
1000
0010
1000
0000
,
0001
0010
0001
0000
,
1000
0100
1000
0000
,
0001
0100
0001
0000
,
0100
0010
1000
0000
,
0100
0010
0001
0000
,
0001
0010
0100
1000
,
1000
0010
0100
0001
,
0000
1000
0000
0000
1000
0000
0000
0000
,
1000
0000
0010
0000
0001
0000
0100
0300
,
1000
1000
0001
0000
,
0001
0001
1000
0000
,
0000
0001
0000
0000
0001
0000
0000
0000
,
0001
0010
1000
0100
,
0001
0010
0001
0010
,
0100
1000
0100
1000
,
2000
0000
0000
3000
,
0002
0000
0000
0003
,
0200
0000
0000
0300
,
0100
0010
1000
0001
,
0001
0001
0000
0000
0001
0000
0000
0000
,
0001
0000
0100
0000
1000
0000
0010
0030
,
0001
0001
1000
0000
,
1000
1000
0001
0000
,
0000
1000
0000
0000
1000
0000
0000
0000
,
1000
0100
0001
0010
,
1000
0100
1000
0100
,
0010
0001
0010
0001
,
0001
0100
0001
0103
,
0010
0000
1000
0000
,
0000
1000
0000
0000
0000
1000
0030
0000
,
0000
1000
0001
0100
,
0000
0010
0000
0000
0000
0010
0000
0000
,
0000
0010
0100
0010
,
1000
1000
0000
0000
1000
0000
0000
0000
,
1000
0000
0010
0000
0001
0000
0100
0300
,
0000
1000
0000
0000
1000
0000
0000
0000
,
1000
0000
0010
0000
0001
0000
0100
0300
,
2000
0000
0000
3000
,
0000
0000
0003
0000
;

//---------------dance-single - ----------------
#NOTES:
     dance-single:
     :
     Beginner:
     2:
     0.085921,0.130659,0.051849,0.062219,0.000000,58.000000,53.000000,5.000000,6.000000,0.000000,0.000000,0.085921,0.130659,0.051849,0.062219,0.000000,58.000000,53.000000,5.000000,6.000000,0.000000,0.000000:
0000
0000
0000
0000
,
0000
0000
0000
0000
,
0000
0000
0000
0000
,
0000
0000
0000
0000
,
1000
0000
0000
0000
,
0100
0000
0000
0000
,
0010
0000
0000
0000
,
0001
0000
0000
0000
,
0001
0000
0000
0000
,
0100
0000
0000
0000
,
0010
0000
0000
0000
,
1000
0000
0000
0000
,
0002
0000
0000
3003
,
0001
0000
0000
0000
1000
0000
0000
0300
,
0100
0000
1000
0000
,
0100
0000
1000
0000
,
2000
0000
0003
3000
,
1000
0000
0001
0000
,
0010
0000
0001
0000
,
0010
0000
0001
0000
,
0010
0000
0000
3000
,
0001
0000
0000
0003
,
0100
0000
0000
0300
,
1000
0000
0000
0000
,
0020
0000
0000
0330
,
0010
0000
0000
0000
0100
0000
0000
0003
,
0001
0000
0100
0000
,
0001
0000
0100
0000
,
0200
0000
0030
0300
,
0100
0000
0010
0000
,
1000
0000
0010
0000
,
1000
0000
0010
0000
,
1000
0000
1000
0300
,
0001
0000
0001
0030
,
1001
0000
0000
0003
,
0110
0000
0000
0000
,
1001
0000
0000
0000
,
0110
0000
0000
0000
,
2000
0000
0000
3000
,
1000
0000
0000
0000
,
0002
0000
0000
0003
,
0001
0000
0000
0000
,
1001
0000
0000
0000
;
