#TITLE:M.A.D.;
#SUBTITLE:;
#ARTIST:Hadouken!;
#TITLETRANSLIT:;
#SUBTITLETRANSLIT:;
#ARTISTTRANSLIT:;
#GENRE:;
#CREDIT:Chewi☆;
#MENUCOLOR:;
#METERTYPE:DDR X;
#BANNER:MAD.png;
#BACKGROUND:MAD-bg.png;
#LYRICSPATH:;
#CDTITLE:;
#MUSIC:MAD.mp3;
#OFFSET:-0.159;
#SAMPLESTART:28.799;
#SAMPLELENGTH:15.000;
#SELECTABLE:YES;
#LISTSORT:;
#DISPLAYBPM:134.000;
#BPMS:0.000=133.970;
#STOPS:;
#BGCHANGES:;
#ATTACKS:;

//---------------dance-single - Chewi----------------
#NOTES:
     dance-single:
     Chewi:
     Beginner:
     3:
     0.147,0.195,0.041,0.052,0.000: // measure 1
0000
0000
0000
0000
,  // measure 2
0000
0000
0000
0000
,  // measure 3
0000
0000
0000
0000
,  // measure 4
0000
0000
0000
0000
,  // measure 5
0002
0000
0000
0003
,  // measure 6
0001
0001
0001
0000
,  // measure 7
2000
0000
0000
3000
,  // measure 8
1000
1000
1000
0000
,  // measure 9
0000
0010
0000
0010
,  // measure 10
0000
0010
0000
0010
,  // measure 11
0000
0010
0000
0010
,  // measure 12
0000
0010
0000
0010
,  // measure 13
0000
0100
0000
0100
,  // measure 14
0000
0100
0000
0100
,  // measure 15
0000
0100
0000
0100
,  // measure 16
0000
0100
0000
0100
,  // measure 17
0100
0000
0000
0000
,  // measure 18
0010
0000
1000
0000
,  // measure 19
0001
0000
0000
0000
,  // measure 20
0001
0000
1000
0000
,  // measure 21
0100
0000
0000
0000
,  // measure 22
0100
0000
0010
0000
,  // measure 23
0100
0000
0000
0000
,  // measure 24
1000
0000
0001
0000
,  // measure 25
1001
0000
0000
0000
,  // measure 26
0100
0100
0100
0000
,  // measure 27
1001
0000
0000
0000
,  // measure 28
0010
0000
0100
0000
,  // measure 29
1000
0000
0001
0000
,  // measure 30
0010
0000
0100
0000
,  // measure 31
1000
0000
0001
0000
,  // measure 32
0010
0000
0100
0000
,  // measure 33
1000
0000
0001
0000
,  // measure 34
0010
0000
0100
0000
,  // measure 35
0010
0010
0010
0020
,  // measure 36
0000
0000
0000
0030
,  // measure 37
0100
0100
0100
0200
,  // measure 38
0000
0000
0000
0300
,  // measure 39
1000
0000
0001
0000
,  // measure 40
0010
0000
0010
0000
,  // measure 41
0001
0000
1000
0000
,  // measure 42
0100
0000
0100
0000
,  // measure 43
1001
0000
1000
1000
,  // measure 44
1000
0000
0001
0000
,  // measure 45
0100
0000
0010
0000
,  // measure 46
0010
0000
0100
0000
,  // measure 47
0001
0001
0001
0000
,  // measure 48
1000
0000
0001
0000
,  // measure 49
0100
0000
0110
0000
,  // measure 50
0010
0010
0010
0000
,  // measure 51
0020
0000
0000
0000
,  // measure 52
0000
0000
0000
0000
,  // measure 53
0000
0000
0000
0000
,  // measure 54
0000
0000
0000
0000
,  // measure 55
0030
0000
0000
0000
;

//---------------dance-single - Chewi----------------
#NOTES:
     dance-single:
     Chewi:
     Easy:
     6:
     0.265,0.278,0.083,0.186,0.000:
0000
0000
0000
0000
,
0000
0000
0000
0000
,
0000
0000
0000
0000
,
0000
0000
0000
0000
,
2002
0000
0000
3000
,
0100
0100
0100
0103
,
2002
0000
0000
0003
,
0010
0010
0010
3010
,
0010
0100
0010
0100
,
0010
0100
0010
0100
,
1000
0001
1000
0001
,
1000
0001
1000
0001
,
1000
0100
0010
0001
,
1000
0100
0010
0001
,
0001
0100
0010
1000
,
0001
0100
0010
1000
,
0220
0000
0000
0330
,
0010
0000
0100
0100
,
0100
0000
1000
0000
,
0001
0001
0001
0000
,
1000
0010
1000
1000
,
0010
1000
0010
0010
,
0001
0010
0001
0001
,
0010
0001
0010
0010
,
0200
0000
0000
0000
,
0302
0000
0000
0000
,
0013
0100
0010
0010
,
0100
0010
0100
0100
,
0010
0100
1000
0100
,
0010
0100
0010
0100
,
0010
0001
0100
0100
,
0001
0010
0100
0100
,
0010
1000
0100
0100
,
1000
0010
0100
0100
,
0220
0000
0000
0330
,
1000
0100
0001
0100
,
2002
0000
0000
3003
,
1000
0010
0001
0010
,
0220
0000
0000
0330
,
0100
0010
0001
0010
,
0220
0000
0000
0330
,
0100
1000
0100
0010
,
0001
0001
0001
0001
,
1000
0001
1000
0001
,
1000
1000
1000
1000
,
0001
1000
0001
1000
,
0010
0010
0010
0010
,
0100
0010
0100
0010
,
0100
0100
0100
0100
,
0010
0100
0010
0100
,
0220
0000
0000
0000
,
0000
0000
0000
0000
,
0000
0000
0000
0000
,
0000
0000
0000
0000
,
0330
0000
0000
0000
;

//---------------dance-single - Chewi----------------
#NOTES:
     dance-single:
     Chewi:
     Medium:
     8:
     0.318,0.362,0.072,0.165,0.000:
0000
0000
0000
0000
,
0000
0000
0000
0000
,
0000
0000
0000
0000
,
0000
0000
0000
0000
,
2000
0100
0100
3100
,
0002
0100
0100
0103
,
2000
0010
0010
3010
,
0002
0010
0010
0013
,
1000
0100
0001
0100
,
1000
0000
0100
0000
0001
0001
0001
0000
,
0001
0010
1000
0010
,
0001
0000
0010
0000
1000
1000
1000
0000
,
0010
1000
0100
0010
,
1000
0000
0100
0000
0010
0010
0010
0000
,
0010
0001
0100
0010
,
0001
0000
0100
0000
0010
0010
0010
0000
,
1000
0000
1001
0010
,
0100
0000
1000
0000
0001
0001
0001
0000
,
1000
0010
0100
0001
,
0100
0000
0010
0000
1000
1000
1000
0000
,
0100
0010
0001
1000
,
0100
0000
1000
0000
0001
0001
0001
0000
,
0100
0010
1000
0001
,
0010
0000
0100
0000
1000
1000
1000
0000
,
2000
0010
0001
0100
,
0001
0010
0020
3030
,
0001
0100
1000
0010
,
0001
0010
0001
0000
1000
0010
1000
0000
,
1000
0100
0001
0010
,
0001
0010
0001
0000
1000
0010
1000
0000
,
0001
1000
0001
0011
,
0001
1000
0001
1100
,
1000
0001
0100
1000
,
1000
0001
0100
1000
,
0001
1000
0001
0000
0010
0000
0020
0000
,
0000
0000
0030
0000
,
0100
0010
0100
0000
0100
0000
2000
0000
,
0000
0000
3000
0000
,
0001
0100
0010
0000
1000
0000
2002
0000
,
0000
0000
3003
0000
,
1000
0001
1000
0000
0010
0000
2200
0000
,
0000
0000
3300
0000
,
1000
1000
0001
0000
0010
0100
1000
0000
,
0001
1000
0010
0010
,
1000
1000
0001
0000
0010
0010
0001
0000
,
0010
0100
1000
0010
,
0100
0100
0001
0000
0100
0100
0010
0000
,
1000
0001
0010
0100
,
1000
1000
0100
0000
0001
0001
0010
0000
,
1001
0100
0010
0100
,
2020
0000
0000
0030
,
0002
0000
0000
3000
,
0020
0000
0000
0000
,
0000
0000
0000
0000
,
0033
0000
0000
0000
;

//---------------dance-single - Chewi----------------
#NOTES:
     dance-single:
     Chewi:
     Hard:
     11:
     0.504,0.641,0.227,0.124,0.052:
0000
0000
0000
0000
,
0000
0000
0000
0000
,
0000
0000
0000
0000
,
0000
0000
0000
0000
,
1000
0100
1000
0100
0010
0001
0010
0001
,
1000
0100
1000
0100
0010
0001
0010
0001
,
1000
0001
1000
0001
0100
0010
0100
0010
,
1000
0001
1000
0001
0010
0100
0010
0100
,
0011
0000
0101
0000
0010
1000
0100
0000
,
1010
0000
1100
0000
0010
0001
0100
0000
,
1000
0000
0101
0000
0001
1000
0100
0000
,
0001
0000
1100
0000
1000
0001
0100
0000
,
0010
0010
0100
0100
0010
0100
0001
0100
,
0010
0100
0001
0100
0010
1000
0100
0010
,
0100
0100
0010
0010
0100
1000
0010
1000
,
0100
0010
0100
1000
0100
0010
0001
0100
,
2020
0000
3030
0000
0001
0100
0010
1000
,
1001
0000
0010
0100
1000
0010
0100
0000
,
0001
0000
1100
0000
1000
0001
0100
1000
,
0100
0000
1000
0001
0100
1000
0100
0000
,
0001
0010
0100
0000
1000
0010
0100
0010
,
1000
0000
0100
1000
0010
1000
0100
0000
,
0011
0000
0101
0000
1000
0100
1000
0010
,
1000
0000
1001
0010
0100
0010
0001
0000
,
0001
0000
0010
0000
0100
1000
0010
1000
0100
0000
0100
0000
1000
0010
1000
0001
,
0100
0000
0100
0000
0010
0100
0001
0100
0010
0000
1000
0000
1001
0000
0000
0000
,
0010
1000
0100
1000
0010
0010
0010
0000
,
0100
0001
0010
0001
0100
0100
0100
0000
,
0010
1000
0001
0010
0100
0010
0110
0000
,
0010
0001
1000
0010
0100
0010
0110
0000
,
1000
0100
0010
0001
1000
0000
0001
0000
0010
0000
0100
0000
1000
0000
0000
0000
,
0001
0100
1000
0100
0001
0010
1000
0000
,
1000
0010
0100
0001
1000
0000
0001
0000
0010
0000
0100
0000
1000
0000
0000
0000
,
0001
1000
0010
0100
0001
1000
0100
0000
,
1000
0100
0001
0100
1000
0100
0002
0000
,
0010
1000
0100
0013
,
1000
0010
0001
0010
1000
0010
0002
0000
,
0010
1000
0100
0013
,
1000
0001
0100
0010
1000
0001
0020
0000
,
0100
0001
0001
0031
,
0001
1000
0010
0100
0001
1000
0020
0000
,
0100
1000
0100
0130
,
2200
0000
3300
0000
0010
0001
1000
0100
,
0110
0000
1000
0001
0100
1000
0001
0000
,
0010
0000
0101
0000
0100
0010
0001
0100
,
0001
0000
0100
0010
0001
0100
0001
0000
,
0010
1000
0001
0000
0100
1000
0001
1000
,
0100
0000
0001
0100
1000
0100
0001
0000
,
1010
0000
0011
0000
0100
0001
0100
1000
,
0100
0000
0110
1000
0001
1000
0010
0000
,
2020
0000
0000
0000
,
0000
0000
0000
3000
,
0200
0000
0000
0030
,
0002
0000
0000
0000
,
0303
0000
0000
0000
;

//---------------dance-double - Chewi----------------
#NOTES:
     dance-double:
     Chewi:
     Easy:
     6:
     0.265,0.306,0.134,0.206,0.000:
00000000
00000000
00000000
00000000
,
00000000
00000000
00000000
00000000
,
00000000
00000000
00000000
00000000
,
00000000
00000000
00000000
00000000
,
00022000
00000000
00000000
00030000
,
00010000
00010000
00010000
00013000
,
00002020
00000000
00000000
00000030
,
00000010
00000010
00000010
00003010
,
00000010
00000100
00000010
00000100
,
00000010
00000100
00000010
00000100
,
00001000
00000100
00001000
00000100
,
00001000
00000100
00001000
00000100
,
00010000
00000100
00010000
00000100
,
00010000
00000100
00010000
00000100
,
00010000
00001000
00010000
00001000
,
00010000
00001000
00010000
00001000
,
00022000
00000000
00000000
00033000
,
00010000
00000000
00100000
10000000
,
01000000
00000000
00010000
00000000
,
00100000
10000000
01000000
00000000
,
00100000
00010000
00100000
00100000
,
00001000
00010000
00001000
00001000
,
00000010
00000100
00000010
00000010
,
00000100
00000001
00000100
00000100
,
00002000
00000000
00000000
00000000
,
00003200
00000000
00000000
00000000
,
00010300
00001000
00010000
00011000
,
00001000
00010000
01000000
01010000
,
10000000
01000000
00100000
00010000
,
10000000
00100000
01000000
00010000
,
00100000
00010000
00001000
00011000
,
00001000
00000010
00001000
00001010
,
00001000
00000001
00000010
00000100
,
00001000
00000010
00000100
00000100
,
00000220
00000000
00000000
00000330
,
00001000
00000100
00000100
00001000
,
00022000
00000000
00000000
00033000
,
00001000
00010000
00100000
10000000
,
20200000
00000000
00000000
30300000
,
00100000
10000000
01000000
01000000
,
02200000
00000000
00000000
03300000
,
00100000
00010000
00001000
00010000
,
00022000
00000000
00000000
00033000
,
00010000
00000000
00100000
10000000
,
01000000
00000000
00010000
00000000
,
00100000
10000000
01000000
00000000
,
00100000
00010000
00100000
00100000
,
00001000
00010000
00001000
00001000
,
00000010
00000100
00000010
00000010
,
00000100
00000001
00000100
00000100
,
00002002
00000000
00000000
00000000
,
00000000
00000000
00000000
00000000
,
00000000
00000000
00000000
00000000
,
00000000
00000000
00000000
00000000
,
00003003
00000000
00000000
00000000
;

//---------------dance-double - Chewi----------------
#NOTES:
     dance-double:
     Chewi:
     Medium:
     8:
     0.357,0.418,0.217,0.134,0.000:
00000000
00000000
00000000
00000000
,
00000000
00000000
00000000
00000000
,
00000000
00000000
00000000
00000000
,
00000000
00000000
00000000
00000000
,
20000000
01000000
01000000
31000000
,
00020000
00100000
00100000
00130000
,
00200000
00001000
00001000
00301000
,
00020000
00001000
00001000
00031000
,
00001000
00000100
00000001
00000100
,
00001000
00000000
00000010
00000000
00000001
00000001
00000001
00000000
,
00000001
00000100
00001000
00000100
,
00010000
00000000
00001000
00000000
00010000
00001000
00010000
00000000
,
00010000
00100000
10000000
00100000
,
00010000
00000000
00100000
00000000
10000000
10000000
10000000
00000000
,
01000000
00100000
10000000
01000000
,
00010000
00000000
00001000
00000000
00000010
00000010
00000010
00000000
,
00001000
00000001
00000010
00000100
,
00001100
00000100
00010000
00011000
,
00001000
00010000
00100000
00000000
10000000
00000000
01000000
00000000
,
00110000
01000000
10100000
01010000
,
00010000
00001000
00010000
00000100
,
00001100
00000001
00000101
00000010
,
00001000
00000001
00001000
00000000
00000010
00000100
00000010
00000000
,
00001010
00000000
00000100
00001000
00000100
00010000
00001000
00000000
,
00012000
00010000
00010000
00013000
,
00020000
00031000
00010000
00000000
00002000
00013000
00001000
00000000
,
00010000
00100000
10000000
00000000
01000000
00000000
10000000
00000000
,
10000000
01000000
00010000
00000000
00100000
00000000
00001000
00000000
,
00010000
00000100
00001000
00000101
,
00001000
00000000
00000010
00000000
00000100
00000001
00000010
00000000
,
00000100
00001100
00000001
00000011
,
00001000
00000100
00010000
00011000
,
00001000
00010000
00100000
10000000
,
10000000
00010000
10000000
00000000
00100000
00100000
00100000
00000000
,
00000000
00000000
01000000
00000000
00010000
00100000
00001000
00000000
,
00000000
00010000
00010000
00010000
,
00010000
00000000
00001000
00000000
00000010
00001000
00000001
00000000
,
00000100
00000100
00000010
00000010
,
00000001
00000000
00000010
00000000
00000100
00001000
00000010
00000000
,
00001000
00001000
00000100
00000100
,
00010000
00000000
00001000
00000000
00100000
00010000
01000000
00000000
,
10100000
00110000
11000000
01010000
,
22000000
00000000
00000000
33000000
,
10000000
10000000
00010000
00000000
00100000
01000000
10000000
00000000
,
00010000
10000000
00100000
00100000
,
10000000
10000000
00010000
00000000
00100000
00100000
00010000
00000000
,
00010000
00000000
00000100
00000000
00000001
00000010
00001000
00000000
,
00000010
00000000
00001000
00000000
00001000
00000010
00000001
00000000
,
00000100
00001010
00001000
00000011
,
00000100
00000100
00001000
00000001
,
00000220
00000000
00000000
00000000
,
00000000
00000000
00000000
00000300
,
00002000
00000000
00000000
00000030
,
00000200
00000000
00000000
00000000
,
00003300
00000000
00000000
00000000
;

//---------------dance-double - Chewi----------------
#NOTES:
     dance-double:
     Chewi:
     Hard:
     11:
     0.491,0.641,0.155,0.124,0.052:
00000000
00000000
00000000
00000000
,
00000000
00000000
00000000
00000000
,
00000000
00000000
00000000
00000000
,
00000000
00000000
00000000
00000000
,
00010000
00001000
00010000
00001000
00001000
00000010
00001000
00000010
,
00001000
00010000
00001000
00010000
00010000
01000000
00010000
01000000
,
00010000
01000000
00100000
10000000
00010000
00100000
01000000
10000000
,
10000000
01000000
00100000
00010000
00001000
00010000
00000100
00001000
,
00001001
00000000
00000100
00000000
00000010
00001000
00000100
00000000
,
00000011
00000000
00001100
00000000
00000010
00000001
00000100
00000000
,
00001000
00000000
00000101
00000000
00000001
00001000
00000100
00000000
,
00000001
00000000
00001100
00000000
00000100
00010000
00001000
00000000
,
00001000
00010000
00100000
10000000
01000000
01000000
00100000
00100000
,
01000000
00100000
00010000
01000000
00100000
01000000
00010000
00100000
,
00010000
01000000
00001000
00010000
00000100
00000100
00001000
00001000
,
00000001
00000100
00000010
00000100
00000001
00000010
00000100
00001000
,
00002020
00000000
00003030
00000000
00000001
00000100
00000010
00001000
,
00001001
00000000
00000010
00000100
00001000
00000010
00000100
00000000
,
00000001
00000000
00001100
00000000
00000100
00010000
00001000
00010000
,
00100000
00000000
00100000
10000000
01000000
00100000
00010000
00000000
,
11000000
00000000
10000000
00000000
00010000
01000000
10000000
00100000
,
01000000
00000000
00100000
10000000
01000000
00010000
00100000
00000000
,
01000000
00000000
00110000
00000000
01000000
00010000
00100000
00001000
,
00010000
00000000
00000100
00001000
00000001
00000100
00000010
00000000
,
00001000
00000000
00000010
00000000
00000100
00000001
00000100
00000001
00000100
00000000
00001000
00000000
00010000
00001000
00010000
01000000
,
00010000
00000000
01000000
00000000
00010000
10000000
00010000
00100000
01000000
00000000
01000000
00000000
01100000
00000000
00000000
00000000
,
00100000
10000000
01000000
10000000
00100000
00100000
00100000
00000000
,
01000000
00010000
00100000
00010000
01000000
01000000
01000000
00000000
,
00100000
00010000
00100000
00001000
00010000
00010000
00010000
00000000
,
00010000
00000100
00001000
00000001
00000100
00000100
00000100
00000000
,
00000010
00001000
00000100
00000010
00000100
00000000
00000010
00000000
00000001
00000000
00000010
00000000
00001100
00000000
00000000
00000000
,
00000001
00000100
00000010
00001000
00000001
00000010
00001100
00000000
,
00000001
00001000
00000010
00001000
00000010
00000000
00001000
00000000
00000001
00000000
00000010
00000000
00000100
00000000
00000000
00000000
,
00000100
00010000
00001000
00010000
00100000
10000000
01000000
00000000
,
00020000
01000000
10000000
00130000
,
00100000
00010000
00001000
00010000
00001000
00000010
00001000
00000000
,
00002000
00000100
00000001
00003010
,
00000001
00000100
00000010
00001000
00000100
00000010
00000001
00000000
,
00002000
00000100
00000010
00003010
,
00000010
00001000
00010000
00100000
10000000
01000000
00100000
00000000
,
00020000
00100000
10000000
01030000
,
10000000
01000000
00010000
01000000
,
02200000
00000000
03300000
00000000
10000000
00100000
00010000
00100000
,
00010000
00000000
00100000
00010000
00001000
00000100
00000001
00000000
,
00000100
00000000
00000010
00000000
00001000
00000001
00000010
00000100
,
00001000
00000000
00000010
00001000
00000100
00010000
00001000
00000000
,
00001000
00100000
10000000
00000000
10000000
00100000
00010000
01000000
,
10000000
00000000
10000000
01000000
00010000
00100000
00001000
00000000
,
00010000
00000100
00001000
00000001
00000100
00000010
00001000
00000001
,
00000010
00000000
00000010
00000010
00000100
00001000
00000001
00000000
,
00002200
00000000
00000000
00000000
,
00000000
00000000
00000000
00003000
,
00020000
00000000
00000000
00000300
,
00002000
00000000
00000000
00000000
,
00033000
00000000
00000000
00000000
;
