#TITLE:Love is forever;
#SUBTITLE:;
#ARTIST:Tommy february6;
#TITLETRANSLIT:;
#SUBTITLETRANSLIT:;
#ARTISTTRANSLIT:;
#GENRE:;
#CREDIT:chewi;
#BANNER:love is forever.png;
#BACKGROUND:love is forever-bg.png;
#LYRICSPATH:;
#CDTITLE:cdtitle.png;
#MUSIC:Love is forever.ogg;
#OFFSET:-0.259964;
#SAMPLESTART:52.009998;
#SAMPLELENGTH:15.000000;
#SELECTABLE:YES;
#BPMS:0.000000=120.000000
;
#STOPS:
;
#BGCHANGES:-0.520=Love is forever.avi=1.000=1=0=1===CrossFade==,
99999=-nosongbg-=1.000=0=0=0 // don't automatically add -songbackground-
;
#KEYSOUNDS:;
#ATTACKS:;

//---------------dance-single - ----------------
#NOTES:
     dance-single:
     :
     Hard:
     9:
     0.364283,0.428397,0.158665,0.067999,0.028333,225.000000,211.000000,14.000000,6.000000,0.000000,0.000000,0.364283,0.428397,0.158665,0.067999,0.028333,225.000000,211.000000,14.000000,6.000000,0.000000,0.000000:
// measure 0
0000
0000
0000
0000
,  // measure 1
0000
0000
0000
0000
,  // measure 2
0000
0000
0000
0000
,  // measure 3
0000
0000
0000
0001
,  // measure 4
1000
0000
0000
0000
0100
0010
0001
1000
,  // measure 5
0100
0000
0000
0000
0100
0000
0000
1000
,  // measure 6
0010
0000
0000
0000
0000
0100
0001
1000
,  // measure 7
0010
0000
0000
0000
,  // measure 8
0110
0000
0000
0000
,  // measure 9
0000
0000
0010
0000
0010
0000
0000
1000
0000
1000
0000
0001
1000
0001
1000
0001
,  // measure 10
1000
0100
0010
0100
2000
0000
3001
0000
,  // measure 11
0010
0100
0010
0001
0200
0000
0310
1000
,  // measure 12
1000
0000
0010
0010
0100
0000
0100
0100
,  // measure 13
0001
0000
0001
0001
1000
0000
0001
0000
,  // measure 14
1000
0100
0001
0100
2000
0000
3001
0000
,  // measure 15
1000
0100
0001
0100
2000
0000
3001
0000
,  // measure 16
1000
0010
0001
0010
2000
0000
3001
0000
,  // measure 17
1000
0010
0001
0010
2000
0000
3001
0000
,  // measure 18
0010
0100
1000
0010
0100
0001
1001
0000
,  // measure 19
0001
1000
0100
0001
0100
1000
1001
0000
,  // measure 20
0100
0010
1000
0001
0010
0100
1100
0000
,  // measure 21
0001
0010
0100
0010
0001
0100
0101
0000
,  // measure 22
1000
0100
0010
0100
1000
0010
1010
0000
,  // measure 23
0001
0100
0010
0100
0001
0010
0011
0000
,  // measure 24
1000
0001
1000
0000
0001
1000
0001
0000
,  // measure 25
1000
0010
1000
0001
1000
0100
0010
0001
,  // measure 26
0000
1000
1000
0000
0001
0000
0100
0100
,  // measure 27
0000
0010
0010
0000
1000
0000
0000
0001
,  // measure 28
0010
1000
0010
0001
0000
0101
0000
1000
,  // measure 29
0000
1010
0000
1001
1000
0000
0000
0100
,  // measure 30
0100
0100
0000
0010
0010
0010
0000
0001
,  // measure 31
0001
0001
0000
1000
1000
1000
0000
0010
,  // measure 32
1000
1000
0100
0000
0010
0001
0100
0000
,  // measure 33
0100
0100
0010
0000
1000
0001
1000
0001
,  // measure 34
1000
1000
1000
0000
1000
0000
0100
0100
,  // measure 35
0000
0010
0010
0000
0001
0000
0000
1000
,  // measure 36
0010
0001
0010
1000
0000
1010
0000
0001
,  // measure 37
0000
0101
0000
1001
1000
0000
1000
0100
,  // measure 38
0010
0000
0001
0000
1000
0001
1000
0001
,  // measure 39
0100
0000
0000
0100
0100
0000
0000
0000
,  // measure 40
0001
0000
0000
0000
0000
0001
0010
0100
,  // measure 41
1000
0010
1000
0001
,  // measure 42
1001
0000
0000
0000
;

//---------------dance-single - ----------------
#NOTES:
     dance-single:
     :
     Medium:
     7:
     0.281712,0.309398,0.067999,0.000000,0.017000,174.000000,168.000000,6.000000,0.000000,24.000000,0.000000,0.281712,0.309398,0.067999,0.000000,0.017000,174.000000,168.000000,6.000000,0.000000,24.000000,0.000000:
// measure 0
0000
0000
0000
0000
,  // measure 1
0000
0000
0000
0000
,  // measure 2
0000
0000
0000
0000
,  // measure 3
0000
0000
0000
0001
,  // measure 4
1000
0000
0000
0000
0100
0010
0001
1000
,  // measure 5
0100
0000
0000
0000
0100
0000
0000
1000
,  // measure 6
0010
0000
0000
0000
0000
0100
0001
1000
,  // measure 7
0010
0000
0000
0000
,  // measure 8
0110
0000
0000
0000
,  // measure 9
0000
0000
0010
0000
0010
0000
0000
1000
0000
1000
0000
1000
0000
0000
0000
0000
,  // measure 10
1000
0100
0010
0000
0011
0000
0000
0000
,  // measure 11
0001
0010
0100
0000
1100
0000
0010
1000
,  // measure 12
1000
0000
0000
0010
0010
0000
0000
0100
,  // measure 13
0100
0000
0000
0001
0001
0000
0000
0000
,  // measure 14
1000
0100
0010
0100
1000
0000
0000
0000
,  // measure 15
1000
0010
0100
0010
1000
0000
0000
0000
,  // measure 16
0010
0000
0100
0000
0001
0001
0001
0000
,  // measure 17
0010
0000
0100
0000
1000
1000
1000
0000
,  // measure 18
0001
0010
0100
0000
1100
0000
0000
0000
,  // measure 19
1000
0100
0010
0000
0011
0000
0100
0001
,  // measure 20
0001
0000
0000
0100
0100
0000
0000
0010
,  // measure 21
0010
0000
0000
1000
1000
0000
0000
0000
,  // measure 22
0001
0010
0100
0010
0001
0000
0000
0000
,  // measure 23
0001
0100
0010
0100
0001
0000
0000
0000
,  // measure 24
0100
0000
0010
0000
1000
1000
1000
0000
,  // measure 25
0100
0000
0010
0000
0001
0001
0001
1000
,  // measure 26
0000
0010
0010
0000
1000
0000
0100
0100
,  // measure 27
0000
0010
0010
0000
0001
0000
0000
0100
,  // measure 28
0001
0100
0010
1000
0000
0100
0000
0010
,  // measure 29
0000
0001
0000
0010
0001
0000
0000
1000
,  // measure 30
1000
1000
0000
MMMM
MMMM
MMMM
0000
0010
,  // measure 31
0010
0010
0000
MMMM
MMMM
MMMM
0000
0100
,  // measure 32
0001
0010
0100
1000
,  // measure 33
0100
0000
0010
0000
0001
0001
0001
0001
,  // measure 34
0000
0100
0100
0000
0001
0000
0010
0010
,  // measure 35
0000
0100
0100
0000
1000
0000
0000
0010
,  // measure 36
1000
0010
0100
0001
0000
0010
0000
0100
,  // measure 37
0000
1000
0000
0001
0001
0000
1000
0000
,  // measure 38
0001
0000
0100
0000
0010
0010
0010
0010
,  // measure 39
0010
0000
1000
0100
,  // measure 40
0100
0010
0001
1000
,  // measure 41
1000
0000
0010
0000
0100
0100
0100
0000
,  // measure 42
0110
0000
0000
0000
;

//---------------dance-single - ----------------
#NOTES:
     dance-single:
     :
     Easy:
     5:
     0.191046,0.237998,0.056666,0.000000,0.000000,118.000000,113.000000,5.000000,0.000000,0.000000,0.000000,0.191046,0.237998,0.056666,0.000000,0.000000,118.000000,113.000000,5.000000,0.000000,0.000000,0.000000:
// measure 0
0000
0000
0000
0000
,  // measure 1
0000
0000
0000
0000
,  // measure 2
0000
0000
0000
0000
,  // measure 3
0000
0000
0000
0010
,  // measure 4
0100
0000
0001
0010
,  // measure 5
0100
0000
1000
0000
,  // measure 6
0001
0000
0000
1000
,  // measure 7
0001
0000
0000
0000
,  // measure 8
1000
0000
0000
0000
,  // measure 9
0010
0010
0010
0010
,  // measure 10
0010
1000
0010
0000
,  // measure 11
1000
0010
1000
0000
,  // measure 12
0100
0100
0010
0010
,  // measure 13
0001
0001
1000
1000
,  // measure 14
0001
0000
0100
0000
,  // measure 15
1000
0000
0010
0000
,  // measure 16
0001
0000
0010
0000
,  // measure 17
1000
0000
0100
0000
,  // measure 18
0100
0001
0100
0000
,  // measure 19
0001
0100
0001
0000
,  // measure 20
0010
0010
0100
0100
,  // measure 21
1000
1000
0001
0001
,  // measure 22
1000
0000
0010
0000
,  // measure 23
0001
0000
0100
0000
,  // measure 24
1000
0000
0100
0000
,  // measure 25
0001
0000
0010
0000
,  // measure 26
1000
0100
1000
0100
,  // measure 27
0001
0100
0001
0100
,  // measure 28
1000
0100
0001
0100
,  // measure 29
1000
0001
1000
0000
,  // measure 30
1001
0000
0100
0000
,  // measure 31
0110
0000
0010
0000
,  // measure 32
0010
0100
0010
0100
,  // measure 33
0001
1000
0001
1000
,  // measure 34
0001
0010
0001
0010
,  // measure 35
1000
0010
1000
0010
,  // measure 36
0001
0010
1000
0010
,  // measure 37
0001
1000
0001
0000
,  // measure 38
1001
0000
0010
0000
,  // measure 39
0110
0000
0100
0000
,  // measure 40
0100
0010
0100
0010
,  // measure 41
1000
0001
1000
0001
,  // measure 42
1001
0000
0000
0000
;

//---------------dance-single - ----------------
#NOTES:
     dance-single:
     :
     Beginner:
     2:
     0.134380,0.190398,0.056666,0.011333,0.000000,83.000000,78.000000,5.000000,1.000000,0.000000,0.000000,0.134380,0.190398,0.056666,0.011333,0.000000,83.000000,78.000000,5.000000,1.000000,0.000000,0.000000:
// measure 0
0000
0000
0000
0000
,  // measure 1
0000
0000
0000
0000
,  // measure 2
0000
0000
0000
0000
,  // measure 3
0000
0000
0000
0000
,  // measure 4
0100
0000
0100
0000
,  // measure 5
0010
0000
0010
0000
,  // measure 6
1000
0000
0000
0001
,  // measure 7
0001
0000
0000
0000
,  // measure 8
1000
0000
0000
0000
,  // measure 9
0020
0000
0000
0030
,  // measure 10
0010
0000
0010
0000
,  // measure 11
1000
0000
1000
0000
,  // measure 12
0100
0000
0010
0000
,  // measure 13
0001
0000
1000
0000
,  // measure 14
0001
0000
0100
0000
,  // measure 15
1000
0000
0010
0000
,  // measure 16
0001
0000
0010
0000
,  // measure 17
1000
0000
0100
0000
,  // measure 18
0100
0000
0100
0000
,  // measure 19
0001
0000
0001
0000
,  // measure 20
0010
0000
0100
0000
,  // measure 21
1000
0000
0001
0000
,  // measure 22
1000
0000
0010
0000
,  // measure 23
0001
0000
0100
0000
,  // measure 24
1000
0000
0100
0000
,  // measure 25
0001
0000
0010
0000
,  // measure 26
1000
0000
1000
0000
,  // measure 27
0001
0000
0001
0000
,  // measure 28
1000
0000
0001
0000
,  // measure 29
1000
0001
1000
0000
,  // measure 30
1001
0000
0100
0000
,  // measure 31
0110
0000
0010
0000
,  // measure 32
0010
0000
0010
0000
,  // measure 33
0001
0000
0001
0000
,  // measure 34
0001
0000
0001
0000
,  // measure 35
1000
0000
1000
0000
,  // measure 36
0001
0000
1000
0000
,  // measure 37
0001
1000
0001
0000
,  // measure 38
1001
0000
0010
0000
,  // measure 39
0110
0000
0100
0000
,  // measure 40
0100
0100
0100
0000
,  // measure 41
1000
1000
1000
0000
,  // measure 42
1001
0000
0000
0000
;
