#TITLE:Love Train;
#SUBTITLE:;
#ARTIST:Marin&Riena;
#TITLETRANSLIT:;
#SUBTITLETRANSLIT:;
#ARTISTTRANSLIT:;
#GENRE:Pop;
#CREDIT:chewi;
#BANNER:Love Train.png;
#BACKGROUND:Love Train-bg.png;
#LYRICSPATH:;
#CDTITLE:cdtitle.png;
#MUSIC:Love Train.ogg;
#OFFSET:-0.416000;
#SAMPLESTART:47.984001;
#SAMPLELENGTH:15.000000;
#SELECTABLE:YES;
#DISPLAYBPM:121.000000;
#BPMS:0.000000=121.000000
;
#STOPS:
;
#BGCHANGES:-0.832=Love Train.avi=1.000=0=0=1=====,
99999=-nosongbg-=1.000=0=0=0 // don't automatically add -songbackground-
;
#KEYSOUNDS:;
#ATTACKS:;

//---------------dance-single - ----------------
#NOTES:
     dance-single:
     :
     Beginner:
     1:
     0.080783,0.143940,0.008568,0.051407,0.000000,66.000000,65.000000,1.000000,6.000000,0.000000,0.000000,0.080783,0.143940,0.008568,0.051407,0.000000,66.000000,65.000000,1.000000,6.000000,0.000000,0.000000:
// measure 0
0000
0000
0000
0000
,  // measure 1
0000
0000
0000
0000
,  // measure 2
0000
0000
0000
0000
,  // measure 3
0000
0000
0000
0000
,  // measure 4
0010
0000
0000
0000
,  // measure 5
0020
0000
0000
0030
,  // measure 6
0100
0000
0000
0000
,  // measure 7
0200
0000
0000
0300
,  // measure 8
0001
0000
0000
0000
,  // measure 9
1000
0000
0000
0000
,  // measure 10
0001
0000
0000
0000
,  // measure 11
1000
0000
0000
0000
,  // measure 12
0010
0000
0000
0000
,  // measure 13
0100
0000
0000
0000
,  // measure 14
0001
0000
0000
0000
,  // measure 15
1000
0000
0000
0000
,  // measure 16
1000
0000
0000
0000
,  // measure 17
0100
0000
0000
0000
,  // measure 18
0001
0000
0000
0000
,  // measure 19
0010
0000
0000
0000
,  // measure 20
0010
0000
0000
0000
,  // measure 21
0100
0000
0000
0000
,  // measure 22
0001
0000
0000
0000
,  // measure 23
1000
0000
0000
0000
,  // measure 24
0002
0000
0000
0003
,  // measure 25
0001
0000
0000
0000
,  // measure 26
1000
0000
0000
0000
,  // measure 27
0010
0000
0000
0000
,  // measure 28
2000
0000
0000
3000
,  // measure 29
1000
0000
0000
0000
,  // measure 30
0001
0000
0000
0000
,  // measure 31
0100
0000
0000
0000
,  // measure 32
0020
0000
0000
0030
,  // measure 33
0010
0000
0000
0000
,  // measure 34
0100
0000
0000
0000
,  // measure 35
1000
0000
0000
0000
,  // measure 36
0200
0000
0000
0300
,  // measure 37
0100
0000
0000
0000
,  // measure 38
0010
0000
0000
0000
,  // measure 39
0001
0000
0000
0000
,  // measure 40
0001
0001
0001
0001
,  // measure 41
0001
0000
0000
0000
,  // measure 42
1000
0000
0000
0000
,  // measure 43
0001
0000
0000
0000
,  // measure 44
0010
0010
0010
0010
,  // measure 45
0010
0000
0000
0000
,  // measure 46
0001
0000
0000
0000
,  // measure 47
1000
0000
0000
0000
,  // measure 48
0100
0100
0100
0100
,  // measure 49
0100
0000
0000
0000
,  // measure 50
0001
0000
0000
0000
,  // measure 51
1000
0000
0000
0000
,  // measure 52
0010
0010
0010
0010
,  // measure 53
0010
0000
0000
0000
,  // measure 54
1000
0000
0000
0000
,  // measure 55
0001
0000
0000
0000
,  // measure 56
1001
0000
0000
0000
;

//---------------dance-single - ----------------
#NOTES:
     dance-single:
     :
     Easy:
     4:
     0.157894,0.191920,0.008568,0.085679,0.000000,129.000000,128.000000,1.000000,10.000000,0.000000,0.000000,0.157894,0.191920,0.008568,0.085679,0.000000,129.000000,128.000000,1.000000,10.000000,0.000000,0.000000:
0000
0000
0000
0000
,
0000
0000
0000
0000
,
0000
0000
0000
0000
,
0000
0000
0000
0000
,
0010
0000
0100
0000
,
0020
0000
0000
0030
,
0100
0000
0010
0000
,
0200
0000
0000
0300
,
0001
0000
0010
0000
,
0001
0010
0001
0000
,
1000
0000
0010
0000
,
1000
0010
1000
0000
,
0010
0000
0100
0000
,
0010
0100
0001
0000
,
0010
0000
0100
0000
,
0010
0100
1000
0000
,
1000
0100
1000
0000
,
0100
0001
0100
0000
,
0001
0010
0001
0000
,
0010
1000
0010
0001
,
0010
0100
0010
0000
,
0100
0010
0100
0000
,
0001
1000
0001
0000
,
1000
0001
1000
0000
,
0002
0000
2003
0000
,
3001
0001
0001
0000
,
1000
1000
1000
0000
,
0010
0000
0100
0000
,
2000
0000
3002
0000
,
1003
1000
1000
0000
,
0001
0001
0001
0000
,
0100
0000
0010
0000
,
0020
0000
0230
0000
,
0310
0010
0010
0000
,
0100
0100
0100
0000
,
1000
0000
0001
0000
,
0200
0000
0320
0000
,
0130
0100
0100
0000
,
0010
0010
0010
0000
,
0001
0000
1000
0000
,
0001
0010
0001
0010
,
0001
0000
0000
0000
,
1000
0100
0000
0000
,
0001
0100
0000
0000
,
1000
0010
1000
0010
,
1000
0000
0000
0000
,
0001
0100
0000
0000
,
1000
0100
0000
0000
,
1000
0100
1000
0100
,
1000
0000
0000
0000
,
0001
0010
0000
0000
,
1000
0010
0000
0000
,
0010
0100
0010
0100
,
0010
0000
0000
0000
,
1000
0001
0000
0000
,
0001
1000
0000
0000
,
1001
0000
0000
0000
;

//---------------dance-single - ----------------
#NOTES:
     dance-single:
     :
     Medium:
     7:
     0.281516,0.291736,0.162790,0.085679,0.000000,230.000000,211.000000,19.000000,10.000000,0.000000,0.000000,0.281516,0.291736,0.162790,0.085679,0.000000,230.000000,211.000000,19.000000,10.000000,0.000000,0.000000:
0000
0000
0000
0000
,
0000
0000
0000
0000
,
0000
0000
0000
0000
,
0000
0000
0000
0000
,
2000
0000
0000
3000
,
0002
0000
0000
0003
,
1001
0000
1001
0000
,
0110
0000
0110
0000
,
0010
0000
0010
0000
0010
0000
0010
1000
,
0001
0000
0001
0000
0001
0000
0001
1000
,
0100
0000
0100
0000
0100
0000
0100
0010
,
0001
0001
0001
0001
,
1000
0000
1000
0000
1000
0000
1000
0001
,
0100
0000
0100
0000
0100
0000
0100
0010
,
1000
0000
1000
0000
1000
0000
1000
0001
,
0010
0010
0010
0010
,
0001
0010
0100
1100
,
1000
0010
0100
0101
,
0100
0010
1000
1001
,
0010
0100
1000
0001
,
0010
0100
0010
0110
,
0010
0001
1000
1001
,
1000
0010
0100
0101
,
0200
0000
0020
0330
,
0010
0010
0100
0100
,
0010
0100
0010
0000
0100
0010
0100
0000
,
0010
1000
0100
0001
,
0010
0100
0001
0010
,
0100
0100
0010
0010
,
0100
0010
0100
0000
0010
0100
0010
0000
,
0100
0001
0010
1000
,
0100
0010
1000
0100
,
0001
0001
1000
1000
,
0001
1000
0001
0000
1000
0001
1000
0000
,
0100
0001
0010
1000
,
0100
0001
0010
1000
,
0100
0001
0100
1000
,
0100
0001
0100
0000
0100
1000
0100
0000
,
1000
0100
0001
0010
,
1000
0100
0010
0001
,
2000
0001
0100
3001
,
0001
0000
0010
0000
0100
1000
0000
0000
,
1000
0000
0100
0000
0010
0001
0000
0000
,
0001
1000
1001
1001
,
2000
0100
0010
3001
,
0001
0000
0100
0000
0010
1000
0000
0000
,
1000
0000
0100
0000
0010
0001
0000
0000
,
0001
1000
1100
0101
,
0002
0100
0010
1003
,
0001
0000
0100
0000
0010
1000
0000
0000
,
1000
0000
0001
0000
0100
0010
0000
0000
,
1000
0001
1001
1001
,
0200
0010
0001
0310
,
0001
0000
0010
0000
0100
1000
0000
0000
,
1000
0000
0010
0000
0100
0001
0000
0000
,
0100
0010
0110
0110
,
2002
0000
0000
3003
;

//---------------dance-single - ----------------
#NOTES:
     dance-single:
     :
     Hard:
     10:
     0.365971,0.437604,0.231333,0.077111,0.038555,299.000000,272.000000,27.000000,9.000000,0.000000,0.000000,0.365971,0.437604,0.231333,0.077111,0.038555,299.000000,272.000000,27.000000,9.000000,0.000000,0.000000:
0000
0000
0000
0000
,
0000
0000
0000
0000
,
0000
0000
0000
0000
,
0000
0000
0000
0000
,
2000
0000
0000
3000
,
0002
0000
0000
0003
,
1000
0000
0001
0000
0000
1000
0000
0000
0001
0000
1000
0000
0000
0001
0000
0000
,
0010
0000
0000
0010
0000
0000
0020
0000
0000
0000
0000
0000
0030
0000
0000
0000
,
0001
0010
0100
0000
0010
0100
1000
0000
,
1000
0010
0100
0000
0010
0100
0001
0000
,
0001
1000
0100
0000
1000
0001
0100
0000
,
0001
1000
0010
0000
1000
0001
0010
0000
,
0100
0010
0001
0000
1000
0100
0010
0000
,
0001
0010
0100
0000
0010
0100
1000
0000
,
0001
0100
1000
0000
0001
0010
1000
0000
,
1000
0100
0001
0000
1000
0010
0001
0000
,
0001
0000
0010
0000
0100
0000
1000
0000
0001
0000
0000
0001
0000
0000
0000
0000
,
1000
0000
0100
0000
0010
0000
0001
0000
1000
0000
0000
1000
0000
0000
0000
0000
,
0001
0000
1000
0000
0010
0000
0100
0000
0010
0000
0000
0010
0000
0000
0000
0000
,
0100
0010
1000
0001
0010
0100
0110
0000
,
0010
0000
0100
0000
1000
0000
0001
0000
0010
0000
0000
0010
0000
0000
0000
0000
,
0100
0000
0010
0000
0001
0000
1000
0000
0001
0000
0000
0001
0000
0000
0000
0000
,
0100
0010
1000
0001
0100
0010
0110
0000
,
0010
0000
0100
0000
0010
0000
0100
0000
0001
1000
0001
0000
1000
0000
0000
0000
,
1001
1001
0110
0110
,
0010
0100
1000
0001
0010
0100
1000
0000
,
0001
0010
0001
0000
1000
0100
1000
0000
,
0001
0101
1000
1010
,
1001
1001
1100
1100
,
1000
0001
0100
0010
1000
0001
0010
0000
,
0001
0010
0001
0000
1000
0100
1000
0000
,
0001
0101
1000
1010
,
0101
0101
1100
1100
,
0001
1000
0100
1000
0001
0010
0100
0000
,
0010
0100
1000
0000
0010
0100
0001
0000
,
1000
1001
0100
0110
,
0011
0011
1100
1100
,
0001
0010
0100
0010
0001
0100
0010
0000
,
1000
0010
0100
0000
0001
0100
0010
0000
,
1000
1010
0001
0101
,
0002
1000
0010
1003
,
1000
0000
0100
0000
0010
0001
0010
0000
,
0001
0000
0010
0000
0100
1000
0100
0000
,
1000
0000
0001
0000
1000
0001
1000
0000
,
0020
0001
0100
1030
,
1000
0000
0010
0000
0100
0001
0100
0000
,
0001
0000
0010
0000
0100
1000
0100
0000
,
1000
0000
0001
0000
0010
0100
0010
0000
,
0002
1000
0100
1003
,
1000
0000
0010
0000
0100
0001
0100
0000
,
0001
0000
1000
0000
0010
0100
0010
0000
,
1000
0000
0001
0000
0010
0001
0010
0000
,
0020
0001
0100
0031
,
0001
0000
0100
0000
0010
1000
0010
0000
,
1000
0000
0100
0000
0010
0001
0010
0000
,
0001
0000
1000
0000
0100
0010
0100
0000
,
0220
0000
0000
0330
;
