#TITLE:Love Keeps Calling;
#SUBTITLE:;
#ARTIST:AnnaGrace;
#TITLETRANSLIT:;
#SUBTITLETRANSLIT:;
#ARTISTTRANSLIT:;
#GENRE:;
#CREDIT:Chewi☆;
#MENUCOLOR:#FFFFFF;
#METERTYPE:DDR X;
#BANNER:Love Keeps Calling.png;
#BACKGROUND:Love Keeps Calling-bg.png;
#LYRICSPATH:;
#CDTITLE:./CDTITLES/DanceDanceRevolution skyMIX3 -breeze-.png;
#MUSIC:Love Keeps Calling.mp3;
#OFFSET:-2.413;
#SAMPLESTART:17.075;
#SAMPLELENGTH:15.000;
#SELECTABLE:YES;
#LISTSORT:;
#DISPLAYBPM:65.000:131.000;
#BPMS:0.000=65.500,16.000=131.000,112.000=65.500,128.000=131.000;
#STOPS:;
#BGCHANGES:;
#ATTACKS:;

//---------------dance-single - Chewi----------------
#NOTES:
     dance-single:
     Chewi:
     Beginner:
     2:
     0.067,0.088,0.009,0.000,0.000: // measure 1
0000
0000
0000
0000
,  // measure 2
0000
0000
0000
0000
,  // measure 3
0000
0000
0000
0000
,  // measure 4
0000
0000
0000
0000
,  // measure 5
1000
0000
0000
0000
,  // measure 6
1000
0000
0000
0000
,  // measure 7
1000
0000
0000
0000
,  // measure 8
1000
0000
0000
0000
,  // measure 9
0001
0000
0000
0000
,  // measure 10
0001
0000
0000
0000
,  // measure 11
0001
0000
0000
0000
,  // measure 12
0001
0000
0000
0000
,  // measure 13
0100
0000
0000
0000
,  // measure 14
0100
0000
0000
0000
,  // measure 15
1000
0000
0000
0000
,  // measure 16
1000
0000
0000
0000
,  // measure 17
0100
0000
0000
0000
,  // measure 18
0001
0000
0000
0000
,  // measure 19
0100
0000
0000
0000
,  // measure 20
0100
0000
0000
0000
,  // measure 21
1000
0000
0000
0000
,  // measure 22
0100
0000
0000
0000
,  // measure 23
0001
0000
0000
0000
,  // measure 24
0010
0000
0000
0000
,  // measure 25
0010
0000
0000
0000
,  // measure 26
1000
0000
0000
0000
,  // measure 27
0100
0000
0000
0000
,  // measure 28
1000
0000
0000
0000
,  // measure 29
1000
0000
0000
0000
,  // measure 30
0001
0000
0000
0000
,  // measure 31
1000
0000
0000
0000
,  // measure 32
0100
0000
0000
0000
,  // measure 33
0010
0000
0010
0000
,  // measure 34
0010
0000
0000
0000
,  // measure 35
0010
0000
0010
0000
,  // measure 36
0010
0000
0000
0000
,  // measure 37
0001
0000
0001
0000
,  // measure 38
0001
0000
0000
0000
,  // measure 39
1000
0000
1000
0000
,  // measure 40
1000
0000
0000
0000
,  // measure 41
0010
0000
0010
0000
,  // measure 42
0010
0000
0000
0000
,  // measure 43
0100
0000
0000
0000
,  // measure 44
0001
0000
0000
0000
,  // measure 45
0001
0000
0000
0000
,  // measure 46
0100
0000
0000
0000
,  // measure 47
0100
0000
0000
0000
,  // measure 48
0010
0000
0000
0000
,  // measure 49
0110
0000
0000
0000
;

//---------------dance-single - Chewi----------------
#NOTES:
     dance-single:
     Chewi:
     Easy:
     4:
     0.163,0.201,0.000,0.082,0.000: // measure 1
0000
0000
0000
0000
,  // measure 2
0000
0000
0000
0000
,  // measure 3
0000
0000
0000
0000
,  // measure 4
0000
0000
0000
0000
,  // measure 5
1000
0100
0001
0010
,  // measure 6
1000
0100
0001
0010
,  // measure 7
1000
0100
0001
0010
,  // measure 8
1000
0100
0001
0010
,  // measure 9
0001
0100
1000
0010
,  // measure 10
0001
0100
1000
0010
,  // measure 11
0001
0100
1000
0010
,  // measure 12
0001
0100
1000
0010
,  // measure 13
0100
0000
0010
0100
,  // measure 14
0000
0000
0000
0000
,  // measure 15
1000
0000
0001
1000
,  // measure 16
0000
0000
0000
0000
,  // measure 17
0100
0000
0010
0001
,  // measure 18
0000
0000
0000
0000
,  // measure 19
0100
0000
0010
1000
,  // measure 20
0100
0000
0000
0000
,  // measure 21
1000
1000
1000
0100
,  // measure 22
0000
0000
0000
0000
,  // measure 23
0001
0001
0001
0010
,  // measure 24
0000
0000
0000
0000
,  // measure 25
0010
0100
0001
1000
,  // measure 26
0000
0000
0000
0000
,  // measure 27
0100
0010
0001
1000
,  // measure 28
0000
0000
0000
0000
,  // measure 29
1000
0010
0010
0000
,  // measure 30
0001
0100
0100
0000
,  // measure 31
1000
0001
0000
0000
,  // measure 32
0100
0010
0000
0000
,  // measure 33
0010
1000
0010
1000
,  // measure 34
0010
0000
0000
0000
,  // measure 35
0010
0001
0010
0001
,  // measure 36
0010
0000
0000
0000
,  // measure 37
0001
0100
0001
0100
,  // measure 38
0001
0000
0000
0000
,  // measure 39
1000
0100
1000
0100
,  // measure 40
1000
0000
0000
0000
,  // measure 41
0010
0100
0010
0100
,  // measure 42
2000
3000
0002
0003
,  // measure 43
0100
0010
0100
0010
,  // measure 44
0002
0003
2000
3000
,  // measure 45
0001
0010
0001
0010
,  // measure 46
0200
0300
0020
0030
,  // measure 47
0100
1000
0100
1000
,  // measure 48
0020
0030
0200
0300
,  // measure 49
0020
0000
0000
0000
,  // measure 50
0030
0000
0000
0000
;

//---------------dance-single - Chewi----------------
#NOTES:
     dance-single:
     Chewi:
     Medium:
     7:
     0.234,0.269,0.082,0.073,0.078: // measure 1
0000
0000
0000
0000
,  // measure 2
0000
0000
0000
0000
,  // measure 3
0000
0000
0000
0000
,  // measure 4
0000
0000
0000
0000
,  // measure 5
0010
0100
0001
0101
,  // measure 6
0010
0100
0010
1010
,  // measure 7
1000
0100
0001
0010
,  // measure 8
1000
0010
0001
0100
,  // measure 9
1000
0100
0010
0110
,  // measure 10
0001
0100
0010
0110
,  // measure 11
1000
0100
0010
0010
,  // measure 12
0001
0100
0010
0010
,  // measure 13
1000
0000
0100
0000
0010
0100
0010
0000
,  // measure 14
0000
0100
0000
0100
,  // measure 15
0001
0000
0100
0000
0010
0100
0010
0000
,  // measure 16
0000
0010
0000
0010
,  // measure 17
1000
0000
0001
0000
1000
0001
0100
0000
,  // measure 18
0000
1000
0000
0010
,  // measure 19
0001
0000
0010
0000
0100
0000
1000
0100
,  // measure 20
0001
0010
0000
0100
,  // measure 21
1000
0000
1100
0000
0010
0001
0010
0000
,  // measure 22
0000
0100
0000
0100
,  // measure 23
0001
0000
0101
0000
0100
0010
0100
0000
,  // measure 24
0000
0010
0000
1000
,  // measure 25
1000
0000
0100
0000
0001
0010
1000
0000
,  // measure 26
0000
0100
0000
1000
,  // measure 27
1000
0000
0010
0000
0001
0100
1000
0000
,  // measure 28
0000
0100
0000
0100
,  // measure 29
0010
0000
0000
0000
1000
0010
1000
0010
0000
0000
0000
0000
0000
0000
0000
0000
,  // measure 30
0010
0000
0000
0000
0001
0010
0001
0010
0000
0000
0000
0000
0001
0000
0000
1000
,  // measure 31
0000
0001
2002
0000
0000
0000
3003
0000
,  // measure 32
1000
0000
0000
0010
0000
1000
0000
0020
0000
0000
0000
0000
0030
0000
0000
0000
,  // measure 33
0100
0000
0001
0000
0100
0001
0100
0001
,  // measure 34
0000
0000
0000
0000
,  // measure 35
1000
0000
0001
0000
1000
0001
1000
0001
,  // measure 36
0000
0000
1000
0100
,  // measure 37
0001
0010
0020
0000
,  // measure 38
0030
0000
0000
0000
,  // measure 39
0010
0000
0100
0010
0000
0010
0000
2002
,  // measure 40
0000
0000
0000
3003
,  // measure 41
0001
0000
0000
0010
0000
0000
0000
0000
0001
0000
0000
0010
0000
0000
0000
0000
,  // measure 42
0100
0100
0010
0010
,  // measure 43
0100
0000
0000
1000
0000
0000
0000
0000
0100
0000
0000
1000
0000
0000
0000
0000
,  // measure 44
0010
0010
0100
0100
,  // measure 45
0001
0000
0000
0100
0000
0000
0000
0000
1000
0000
0000
0100
0000
0000
0000
0000
,  // measure 46
0000
0010
0000
0000
0100
0000
0000
0000
0010
0000
0000
0000
0100
0000
0000
0000
,  // measure 47
0010
0000
0000
0001
0000
0000
0000
0000
0010
0000
0000
1000
0000
0000
0000
0000
,  // measure 48
0010
0100
0001
1000
,  // measure 49
2002
0000
0000
0000
,  // measure 50
3003
0000
0000
0000
;

//---------------dance-single - Chewi----------------
#NOTES:
     dance-single:
     Chewi:
     Hard:
     12:
     0.372,0.448,0.110,0.091,0.324: // measure 1
0000
0000
0000
0000
,  // measure 2
0000
0000
0000
0000
,  // measure 3
0000
0000
0000
0000
,  // measure 4
0000
0000
0000
0000
,  // measure 5
1000
0000
0000
0100
0000
0000
0010
0000
0001
0000
0000
0100
0000
0000
0010
0000
,  // measure 6
0000
0010
0000
0000
0100
0000
0000
0100
0000
0000
0010
0000
1000
0000
0001
0000
,  // measure 7
0010
0000
0000
0010
0000
0000
0100
0000
1000
0000
0000
0010
0000
0000
0001
0000
,  // measure 8
0000
0010
0000
0000
1000
0000
0000
0100
0000
0000
0010
0000
0001
0000
0010
0000
,  // measure 9
0100
0000
0000
1000
0000
0000
0010
0000
0100
0000
0000
0010
0000
0000
0001
0000
,  // measure 10
0000
1000
0000
0000
0010
0000
0000
0100
0000
0000
0001
0000
0100
0000
0010
0000
,  // measure 11
0100
0000
0000
0001
0000
0000
0010
0000
0100
0000
0000
0010
0000
0000
0001
0000
,  // measure 12
0000
1000
0000
0000
0010
0000
0000
0100
0000
0000
0001
0000
0100
0000
0010
0000
,  // measure 13
1000
0100
0010
1000
0100
0010
0002
0000
,  // measure 14
0000
0013
0000
0010
,  // measure 15
0001
0010
0100
1000
0010
0001
0200
0000
,  // measure 16
0000
0310
0000
0010
,  // measure 17
0001
0010
0100
1000
0010
0100
0002
0000
,  // measure 18
0000
0103
0000
1000
,  // measure 19
0010
1000
0100
1000
0010
0100
0001
0010
,  // measure 20
0100
0110
0000
1001
,  // measure 21
0001
0000
0010
0001
0000
0100
0000
0000
0010
0000
0010
0000
0010
0000
0000
0000
,  // measure 22
0100
1001
0010
1001
,  // measure 23
1000
0000
0100
0010
0000
0100
0000
0000
1000
0000
1000
0000
1000
0000
0000
0000
,  // measure 24
0010
0101
0010
1100
,  // measure 25
0001
0000
0010
0100
0000
0010
0000
0000
0001
0000
0001
0000
0001
0000
0000
0000
,  // measure 26
1000
0101
0001
1100
,  // measure 27
0001
0000
1000
0100
0000
0010
0001
0000
0010
0000
0100
0000
0100
0000
0000
0000
,  // measure 28
0010
0001
0100
0010
1000
0010
0100
0000
,  // measure 29
1010
0000
0100
0000
0001
0100
1000
0020
0000
0000
0030
0000
0000
0000
0000
0000
,  // measure 30
0110
0000
0000
0000
0000
0000
1000
0000
0000
0000
0000
0000
0100
0000
0000
0001
0000
0000
0010
0000
0000
2000
0000
0000
0000
0000
0000
0000
0000
0000
3000
0000
0000
0001
0000
0000
0010
0000
0000
0000
0100
0000
0000
0000
0000
1000
0000
0000
,  // measure 31
0000
0000
0010
0000
0000
0000
0100
0000
0000
0001
0000
0000
0200
0000
0000
0000
0000
0000
0000
0000
0000
0000
0000
0000
0300
0000
0000
0000
0000
0000
0000
0000
0000
0000
0000
0000
0000
0000
0000
0000
0000
0000
0000
0000
0000
0000
0000
0000
,  // measure 32
0010
0000
1000
0001
0000
0010
0000
0220
0000
0000
0000
0000
0000
0000
0330
0000
,  // measure 33
0001
0000
0000
0010
0000
0000
0001
0000
0100
0000
0000
0010
0000
0000
0100
0000
,  // measure 34
0000
0010
0000
0000
1000
0000
0000
0100
0000
0000
1000
0000
0010
0000
1000
0000
,  // measure 35
0100
0000
0000
0010
0000
0000
0001
0000
0100
0000
0000
0010
0000
0000
0100
0000
,  // measure 36
0000
0001
0000
0000
0010
0000
0000
0100
0000
0000
1000
0000
0010
0000
1000
0000
,  // measure 37
0100
0010
0000
0001
0000
0000
0010
0000
0100
0000
0000
1000
0000
0000
0010
0000
,  // measure 38
0000
0100
0000
0000
0001
0000
0000
0100
0000
0000
0010
0000
1000
0000
0001
0000
,  // measure 39
0010
0000
0000
0100
0000
0000
0010
0000
0001
0000
0000
0100
0000
0000
1000
0000
,  // measure 40
0010
1000
0001
0010
0100
1000
0010
0100
,  // measure 41
0001
0100
0000
0010
0000
0000
1000
0000
0001
0000
0000
1000
0000
0000
0100
0000
,  // measure 42
0000
1000
0000
0000
0001
0000
0000
0100
0000
0000
0010
0000
0100
0000
0001
0000
,  // measure 43
0010
0100
0000
0010
0000
0000
0001
0000
0010
0000
0000
0100
0000
0000
1000
0000
,  // measure 44
0000
0100
0000
0000
0001
0000
0000
0100
0000
0000
1000
0000
0001
0000
0100
0000
,  // measure 45
0010
0100
0000
0100
0000
0000
0010
0000
1000
0000
0000
0010
0000
0000
0100
0000
,  // measure 46
0000
0001
0000
0000
0010
0000
0000
0100
0000
0000
1000
0000
0010
0000
1000
0000
,  // measure 47
0010
1000
0000
0001
0000
0000
0010
0000
0100
0000
0000
1000
0000
0000
0100
0000
,  // measure 48
0000
0010
0000
0000
0001
0000
0000
1000
0000
0000
0010
0000
0100
0000
0001
0000
,  // measure 49
0202
0000
0000
0000
,  // measure 50
0303
0000
0000
0000
;
