#TITLE:Love Forever (DAISHI DANCE REMIX);
#SUBTITLE:;
#ARTIST:加藤ミリヤ×清水翔太;
#TITLETRANSLIT:;
#SUBTITLETRANSLIT:;
#ARTISTTRANSLIT:Miliyah Kato x Shota Shimizu;
#GENRE:Pop;
#CREDIT:chewi;
#BANNER:Love Forever (DAISHI DANCE REMIX).png;
#BACKGROUND:Love Forever (DAISHI DANCE REMIX)-bg.png;
#LYRICSPATH:;
#CDTITLE:cdtitle.png;
#MUSIC:Love Forever (DAISHI DANCE REMIX).ogg;
#OFFSET:-0.969000;
#SAMPLESTART:31.445000;
#SAMPLELENGTH:15.000000;
#SELECTABLE:YES;
#BPMS:0.000000=125.999992
;
#STOPS:
;
#BGCHANGES:;
#KEYSOUNDS:;
#ATTACKS:;

//---------------dance-single - ----------------
#NOTES:
     dance-single:
     :
     Hard:
     10:
     0.381688,0.417086,0.174696,0.041105,0.041105,260.000000,243.000000,17.000000,4.000000,0.000000,0.000000,0.381688,0.417086,0.174696,0.041105,0.041105,260.000000,243.000000,17.000000,4.000000,0.000000,0.000000:
// measure 0
0000
0000
0000
0000
,  // measure 1
0000
0000
0000
0000
,  // measure 2
0000
0000
0000
0000
,  // measure 3
0000
0000
0000
0000
,  // measure 4
1000
0100
0001
0010
,  // measure 5
1000
0001
1000
0001
,  // measure 6
1000
0010
0001
0100
,  // measure 7
1000
0001
1000
0001
,  // measure 8
2000
0010
0010
0000
0001
0000
3100
0000
,  // measure 9
0001
0011
0100
1100
,  // measure 10
0002
0100
0100
0000
1000
0000
0013
0000
,  // measure 11
0010
1100
1000
1001
,  // measure 12
0200
0010
0010
0000
0001
0000
1300
0000
,  // measure 13
0100
0101
0001
0011
,  // measure 14
0020
0100
0100
0000
0001
0000
1030
0000
,  // measure 15
0100
0110
0001
1001
,  // measure 16
0001
0100
0000
0000
0101
0000
0000
0000
0100
0000
0010
0000
1000
0000
0000
0000
,  // measure 17
0010
1000
0000
0000
1010
0000
0000
0000
0010
0000
1000
0000
0100
0000
0000
0000
,  // measure 18
0100
0010
0000
0000
0110
0000
0000
0000
0100
0000
0010
0000
0001
0000
0000
0000
,  // measure 19
0001
1000
0000
0000
1001
0000
0000
0000
0001
0000
1000
0000
0010
0000
1000
0000
,  // measure 20
1000
0010
0000
0000
1010
0000
0000
0000
0010
0000
0100
0000
0001
0000
0000
0000
,  // measure 21
0100
0001
0000
0000
0101
0000
0000
0000
0100
0000
0001
0000
0010
0000
0000
0000
,  // measure 22
0010
0100
0000
0000
0110
0000
0000
0000
0010
0000
0100
0000
1000
0000
0000
0000
,  // measure 23
1000
0001
0000
0000
1001
0000
0000
0000
0001
0000
0000
0000
1001
0000
0000
0000
,  // measure 24
1000
0001
0010
0100
1000
0001
0100
0010
,  // measure 25
1000
0100
0010
0100
1000
0010
1000
0100
,  // measure 26
0010
0001
0100
0001
0010
0001
0100
0010
,  // measure 27
1000
0001
0010
0100
1000
0001
0100
0000
,  // measure 28
0001
1000
0100
0010
0001
1000
0010
0100
,  // measure 29
0001
0010
0100
0010
0001
0100
0001
0010
,  // measure 30
0100
1000
0010
1000
0100
1000
0010
0100
,  // measure 31
0001
1000
0100
0010
0001
1000
0010
0000
,  // measure 32
1000
0100
1000
0000
0100
0001
0100
0000
,  // measure 33
0001
0010
0001
0000
0010
1000
0010
0000
,  // measure 34
1000
0010
1000
0000
0010
0001
0010
0000
,  // measure 35
0001
0100
0001
0000
0100
1000
0100
0000
,  // measure 36
1000
0010
1000
0000
0010
0100
0010
0000
,  // measure 37
0100
0001
0100
0000
0001
0100
0001
0000
,  // measure 38
0100
0010
0100
0000
0010
1000
0010
0000
,  // measure 39
1000
0001
1000
0000
0001
1000
0001
1000
,  // measure 40
0001
1000
0100
0100
,  // measure 41
0010
0001
1000
1000
,  // measure 42
0010
0100
0001
0001
,  // measure 43
0100
0010
1000
1000
,  // measure 44
0100
0001
0010
1000
,  // measure 45
0100
0001
0010
1000
,  // measure 46
0010
0001
0100
1000
,  // measure 47
0010
0001
0100
1000
;

//---------------dance-single - ----------------
#NOTES:
     dance-single:
     :
     Beginner:
     1:
     0.086614,0.120746,0.030829,0.102762,0.000000,59.000000,56.000000,3.000000,10.000000,0.000000,0.000000,0.086614,0.120746,0.030829,0.102762,0.000000,59.000000,56.000000,3.000000,10.000000,0.000000,0.000000:
// measure 0
0000
0000
0000
0000
,  // measure 1
0000
0000
0000
0000
,  // measure 2
0000
0000
0000
0000
,  // measure 3
0000
0000
0000
0000
,  // measure 4
2000
0000
0000
3000
,  // measure 5
1000
0000
0000
0000
,  // measure 6
0002
0000
0000
0003
,  // measure 7
0001
0000
0000
0000
,  // measure 8
1001
0000
0000
0000
,  // measure 9
0100
0000
0000
0000
,  // measure 10
0010
0000
0000
0000
,  // measure 11
0100
0000
0000
0000
,  // measure 12
0001
0000
0000
0000
,  // measure 13
1000
0000
0000
0000
,  // measure 14
0001
0000
0000
0000
,  // measure 15
1000
0000
0000
0000
,  // measure 16
0020
0000
0000
0030
,  // measure 17
0010
0010
0000
0000
,  // measure 18
0200
0000
0000
0300
,  // measure 19
0100
0100
0000
0000
,  // measure 20
0002
0000
0000
0003
,  // measure 21
0001
0001
0000
0000
,  // measure 22
2000
0000
0000
3000
,  // measure 23
1000
1000
0000
0000
,  // measure 24
1000
0000
1000
0000
,  // measure 25
0001
0000
0001
0000
,  // measure 26
0100
0000
0100
0000
,  // measure 27
0010
0000
0010
0000
,  // measure 28
1000
0000
1000
0000
,  // measure 29
0001
0000
0001
0000
,  // measure 30
0010
0000
0010
0000
,  // measure 31
0100
0000
0100
0000
,  // measure 32
0200
0000
0000
0300
,  // measure 33
0100
0000
0000
0000
,  // measure 34
0020
0000
0000
0030
,  // measure 35
0010
0000
0000
0000
,  // measure 36
0002
0000
0000
0003
,  // measure 37
0001
0000
0000
0000
,  // measure 38
2000
0000
0000
3000
,  // measure 39
1000
0000
0000
0000
,  // measure 40
1001
0000
0000
0000
,  // measure 41
0100
0000
0000
0000
,  // measure 42
0010
0000
0000
0000
,  // measure 43
1000
0000
0000
0000
,  // measure 44
1001
0000
0000
0000
,  // measure 45
0100
0000
0000
0000
,  // measure 46
0010
0000
0000
0000
,  // measure 47
0001
0000
0000
0000
;

//---------------dance-single - ----------------
#NOTES:
     dance-single:
     :
     Easy:
     4:
     0.146803,0.195248,0.000000,0.102762,0.000000,100.000000,100.000000,0.000000,10.000000,0.000000,0.000000,0.146803,0.195248,0.000000,0.102762,0.000000,100.000000,100.000000,0.000000,10.000000,0.000000,0.000000:
// measure 0
0000
0000
0000
0000
,  // measure 1
0000
0000
0000
0000
,  // measure 2
0000
0000
0000
0000
,  // measure 3
0000
0000
0000
0000
,  // measure 4
2000
0000
0000
3000
,  // measure 5
0020
0000
0000
0030
,  // measure 6
2000
0000
0000
3000
,  // measure 7
0200
0000
0000
0300
,  // measure 8
0100
0000
0100
0000
,  // measure 9
0010
0000
0010
0000
,  // measure 10
0001
0000
0001
0000
,  // measure 11
0100
0000
0100
0000
,  // measure 12
0100
0010
0100
0000
,  // measure 13
0010
0100
0010
0000
,  // measure 14
1000
0001
1000
0000
,  // measure 15
0001
1000
0001
0000
,  // measure 16
1000
1000
0100
0100
,  // measure 17
1000
0100
1000
0000
,  // measure 18
0100
0100
0010
0010
,  // measure 19
0100
0010
0100
0000
,  // measure 20
0010
0010
0001
0001
,  // measure 21
0010
0001
0010
0000
,  // measure 22
0001
0001
1000
1000
,  // measure 23
0001
1000
0001
0000
,  // measure 24
1000
0000
0010
0000
,  // measure 25
0001
0000
0100
0000
,  // measure 26
1000
0000
0010
0000
,  // measure 27
0001
0000
0010
0000
,  // measure 28
1000
0000
0100
0000
,  // measure 29
0001
0000
0010
0000
,  // measure 30
1000
0000
0010
0000
,  // measure 31
0001
0000
0010
0000
,  // measure 32
0020
0000
0000
0030
,  // measure 33
0010
0100
1000
0000
,  // measure 34
2000
0000
0000
3000
,  // measure 35
0002
0000
0000
0003
,  // measure 36
2000
0000
0000
3000
,  // measure 37
1000
0010
0100
0000
,  // measure 38
0200
0000
0000
0300
,  // measure 39
0002
0000
0000
0003
,  // measure 40
1000
0000
1000
0000
,  // measure 41
1000
0100
1000
0100
,  // measure 42
0010
0000
0010
0000
,  // measure 43
0010
0001
0010
0001
,  // measure 44
0010
0000
0001
0000
,  // measure 45
1000
0000
0010
0000
,  // measure 46
0100
0000
0001
0000
,  // measure 47
1000
0000
0001
0000
;

//---------------dance-single - ----------------
#NOTES:
     dance-single:
     :
     Medium:
     7:
     0.290670,0.392552,0.102762,0.041105,0.000000,198.000000,188.000000,10.000000,4.000000,0.000000,0.000000,0.290670,0.392552,0.102762,0.041105,0.000000,198.000000,188.000000,10.000000,4.000000,0.000000,0.000000:
// measure 0
0000
0000
0000
0000
,  // measure 1
0000
0000
0000
0000
,  // measure 2
0000
0000
0000
0000
,  // measure 3
0000
0000
0000
0000
,  // measure 4
1000
0100
0001
0000
,  // measure 5
0100
0001
1000
0010
,  // measure 6
1000
0010
0001
0000
,  // measure 7
0100
1000
0001
0010
,  // measure 8
2000
0100
0000
3100
,  // measure 9
0002
0010
0000
0013
,  // measure 10
2000
0010
0000
3010
,  // measure 11
0002
0100
0000
0103
,  // measure 12
0100
0000
0001
0000
0100
0010
1000
0000
,  // measure 13
0010
0000
1000
0000
0100
0010
0001
0000
,  // measure 14
1000
0100
0010
0001
,  // measure 15
0001
0010
0100
1000
,  // measure 16
0001
0101
1000
0100
,  // measure 17
0010
0011
1000
0010
,  // measure 18
0100
0101
0100
0010
,  // measure 19
1000
0001
0010
0000
0010
0001
1000
0000
,  // measure 20
0100
0110
0010
0001
,  // measure 21
1000
1010
0010
0100
,  // measure 22
0001
0101
0100
0010
,  // measure 23
1000
0001
0010
0000
0010
0001
1000
0000
,  // measure 24
1000
0010
1000
0000
0001
0100
0001
0000
,  // measure 25
1000
1001
0001
1001
,  // measure 26
1000
0100
1000
0000
0100
0010
0100
0000
,  // measure 27
0010
0011
0001
0011
,  // measure 28
0010
0100
0010
0000
0100
1000
0100
0000
,  // measure 29
1000
0001
1000
0000
0001
1000
0001
0000
,  // measure 30
0100
0001
0100
0001
0100
0001
0100
0001
,  // measure 31
0010
0001
0010
0001
0010
0001
0010
0000
,  // measure 32
0100
1000
0010
0100
,  // measure 33
1000
0010
0100
0000
,  // measure 34
1000
0001
0100
1000
,  // measure 35
0001
0100
1000
0000
,  // measure 36
0010
0001
0100
0010
,  // measure 37
0001
0100
1000
0000
,  // measure 38
0010
0001
0100
1000
,  // measure 39
0010
0001
0100
1000
,  // measure 40
0100
0010
1000
1000
,  // measure 41
0001
0100
0010
0010
,  // measure 42
0001
1000
0100
0100
,  // measure 43
1000
0001
0010
0010
,  // measure 44
1000
0100
0001
0010
,  // measure 45
1000
0100
0001
0010
,  // measure 46
0001
0100
1000
0010
,  // measure 47
0001
0100
1000
0010
;
