#TITLE:Lotta Love (The SUITBOYS Remix);
#SUBTITLE:;
#ARTIST:m-flo loves MINMI;
#TITLETRANSLIT:;
#SUBTITLETRANSLIT:;
#ARTISTTRANSLIT:;
#GENRE:;
#CREDIT:Chewi☆;
#MENUCOLOR:#FFFF00;
#METERTYPE:DDR X;
#BANNER:Lotta Love (The SUITBOYS Remix).png;
#BACKGROUND:Lotta Love (The SUITBOYS Remix)-bg.png;
#LYRICSPATH:;
#CDTITLE:./CDTITLES/DanceDanceRevolution skyMIX2 -FREEDOM-.png;
#MUSIC:Lotta Love (The SUITBOYS Remix).mp3;
#OFFSET:-0.856;
#SAMPLESTART:30.848;
#SAMPLELENGTH:15.000;
#SELECTABLE:YES;
#LISTSORT:;
#DISPLAYBPM:128.000;
#BPMS:0.000=128.000;
#STOPS:;
#BGCHANGES:;
#ATTACKS:;

//---------------dance-single - Chewi----------------
#NOTES:
     dance-single:
     Chewi:
     Beginner:
     2:
     0.156,0.178,0.085,0.074,0.000: // measure 1
0000
0000
0000
0000
,  // measure 2
0000
0000
0000
0000
,  // measure 3
0000
0000
0000
0000
,  // measure 4
0000
0000
0000
0000
,  // measure 5
2000
0000
0000
0000
,  // measure 6
0000
0000
0000
3000
,  // measure 7
1000
0000
1000
0000
,  // measure 8
1001
0000
0000
0000
,  // measure 9
0002
0000
0000
0003
,  // measure 10
0001
0000
0000
0000
,  // measure 11
2000
0000
0000
3000
,  // measure 12
1000
0000
0000
0000
,  // measure 13
0020
0000
0000
0030
,  // measure 14
0010
0000
0000
0000
,  // measure 15
0200
0000
0000
0300
,  // measure 16
0100
0000
0100
0000
,  // measure 17
0110
0000
0010
0000
,  // measure 18
1000
0000
0010
0000
,  // measure 19
0001
0000
0100
0000
,  // measure 20
0001
0000
0100
0000
,  // measure 21
1000
0000
0010
0000
,  // measure 22
0001
0000
0100
0000
,  // measure 23
0001
0000
0010
0000
,  // measure 24
1000
0000
0100
0000
,  // measure 25
0010
0010
0010
0000
,  // measure 26
0100
0000
0110
0000
,  // measure 27
0100
0100
0100
0000
,  // measure 28
0100
0000
0110
0000
,  // measure 29
1000
1000
1000
0000
,  // measure 30
0001
0000
1001
0000
,  // measure 31
0001
0001
0001
0000
,  // measure 32
1000
0000
1001
0000
,  // measure 33
2000
0000
0000
3000
,  // measure 34
1000
0000
1001
0000
,  // measure 35
0002
0000
0000
0003
,  // measure 36
0001
0000
1001
0000
,  // measure 37
0100
0100
0100
0000
,  // measure 38
0010
0010
0010
0000
,  // measure 39
1000
1000
1000
0000
,  // measure 40
0001
0001
0001
0000
,  // measure 41
0100
0000
0100
0000
,  // measure 42
0100
0000
0100
0000
,  // measure 43
0010
0000
0010
0000
,  // measure 44
0010
0000
0010
0000
,  // measure 45
1000
0000
1000
1000
,  // measure 46
1000
0000
0001
0001
,  // measure 47
0001
0000
0010
0010
,  // measure 48
0010
0000
0100
0100
,  // measure 49
0100
0000
0000
0000
;

//---------------dance-single - Chewi----------------
#NOTES:
     dance-single:
     Chewi:
     Easy:
     4:
     0.228,0.254,0.074,0.211,0.000:
0000
0000
0000
0000
,
0000
0000
0000
0000
,
0000
0000
0000
0000
,
0000
0000
0000
0000
,
2000
0000
0000
3000
,
0200
0000
0000
0300
,
0002
0000
0000
0003
,
0020
0000
0000
0030
,
0010
1000
0100
0000
,
0010
0001
0100
0000
,
0010
0010
0100
0100
,
0010
0100
0010
0000
,
0100
1000
0010
0000
,
0100
0001
0010
0000
,
0010
0010
0100
0100
,
0110
0000
0000
0000
,
0001
0100
0001
0100
,
1000
0100
1000
0100
,
0001
0010
0001
0010
,
1000
0010
1000
0010
,
1000
0001
1000
0001
,
0010
0100
0010
0100
,
0001
1000
0001
1000
,
0010
0100
0010
0100
,
0220
0000
0000
0330
,
1000
0100
0010
0001
,
2002
0000
0000
3003
,
0001
0100
1000
0010
,
0220
0000
0000
0330
,
0010
0100
0001
1000
,
2002
0000
0000
3003
,
0001
1000
0001
1000
,
0002
0000
0103
0000
,
2000
0000
3100
0000
,
0002
0000
0013
0000
,
2000
0000
3010
0000
,
0020
0000
0130
0000
,
2000
0000
3100
0000
,
0200
0000
0310
0000
,
0020
0000
0031
0000
,
0001
0001
0001
0001
,
1000
1000
1000
1000
,
0010
0010
0010
0010
,
0100
0100
0100
0100
,
0010
0000
1001
0000
,
0100
0000
1001
0000
,
0001
0100
1000
0010
,
0001
1000
0001
0000
,
1000
0000
0000
0000
;

//---------------dance-single - Chewi----------------
#NOTES:
     dance-single:
     Chewi:
     Medium:
     6:
     0.272,0.330,0.148,0.148,0.042:
0000
0000
0000
0000
,
0000
0000
0000
0000
,
0000
0000
0000
0000
,
0000
0000
0000
0000
,
0010
0000
0000
0000
0010
0000
0000
0010
0000
0000
0000
0000
0000
0000
0000
0000
,
0100
0000
0000
0000
0100
0000
0000
0100
0000
0000
0000
0000
0000
0000
0000
0000
,
1000
0000
0000
0000
1000
0000
0000
1000
0000
0000
0000
0000
0000
0000
0000
0000
,
0001
0000
0000
0000
0001
0000
0000
0001
0000
0000
0000
0000
0000
0000
0000
0000
,
2200
0000
0000
3000
,
0002
0000
0000
0300
,
0020
0000
0000
0003
,
2000
0000
0000
0000
0000
0000
0000
0000
0000
0000
0000
0000
0000
3030
0000
0000
,
0202
0000
0000
0003
,
2000
0000
0000
0300
,
0020
0000
0000
3000
,
0002
0000
0000
0033
,
0001
0000
0010
0000
0100
1000
0000
0000
0001
0000
0100
0000
0010
0000
0000
0000
,
1000
0001
0010
0100
,
1000
0000
0000
0100
0010
0000
0000
0000
0001
0000
0010
0000
0100
0000
0000
0000
,
1000
0001
1000
0100
,
0010
0000
0000
0100
0010
0000
0000
0000
0001
0000
1000
0000
0010
0000
0000
0000
,
0100
0010
1000
0100
,
0010
0000
0000
0001
0010
0000
0000
0000
0100
0000
1000
0000
0010
0000
0000
0000
,
0100
1000
0010
0001
,
1001
0000
0100
0000
0010
0100
0010
0000
,
0100
0001
0010
1000
,
0100
0000
1000
0000
0001
1000
0001
0000
,
1000
0010
0001
0100
,
0110
0000
0001
0000
1000
0001
1000
0000
,
0010
0100
0001
1000
,
0100
0010
0001
1000
,
0100
0010
0100
0010
0100
0000
0100
0000
,
1001
0010
1001
0010
,
1001
0100
1001
0100
,
1000
0100
0010
1000
,
0100
0001
0010
1000
,
1001
0100
1001
0100
,
1001
0010
1001
0010
,
0001
0100
0010
0001
,
0100
1000
0010
0100
,
0101
0000
0100
0000
0100
1000
0100
0000
,
1000
0010
0001
0100
,
1100
0000
0100
0000
0100
0001
0100
0000
,
1000
0010
0001
0100
,
0020
0000
0000
0000
,
0200
0000
0000
0030
,
2000
0000
0000
0300
,
0020
0000
0000
0000
,
3030
0000
0000
0000
;

//---------------dance-single - Chewi----------------
#NOTES:
     dance-single:
     Chewi:
     Hard:
     10:
     0.459,0.431,0.211,0.000,0.206:
0000
0000
0000
0000
,
0000
0000
0000
0000
,
0000
0000
0000
0000
,
0000
0000
0000
0000
,
1000
0000
0000
0000
0010
0000
0000
0100
0000
0000
0001
0000
0000
0100
0000
0000
,
0010
0000
0000
0000
1000
0000
0000
0001
0000
0000
0010
0000
0000
0100
0000
0000
,
1000
0000
0000
0000
0100
0000
0000
0000
0010
0000
0001
0000
0000
0100
0000
0000
,
1000
0010
0110
1001
,
0011
0000
0000
0001
0010
0000
0000
0000
,
1100
0000
0000
0100
1000
0000
0000
0000
,
0100
0000
0000
0000
1000
0000
0000
0010
0000
0000
0100
0000
0000
0001
0000
0000
,
0100
0000
0000
0000
0010
0000
0000
1000
0000
0000
0001
0000
0000
0010
0000
0000
,
1100
0000
0000
1000
0100
0000
0000
0000
,
0011
0000
0000
0010
0001
0000
0000
0000
,
0001
0000
0000
0000
1000
0000
0000
0010
0000
0000
0100
0000
0000
0001
0000
0000
,
0101
1001
1010
1001
,
0001
0000
0010
0000
0100
1000
0000
0000
0010
0000
1000
0000
0100
1000
0000
0000
,
0010
0000
0001
0000
0100
0001
0000
0000
0010
0000
0100
0000
0010
0000
0100
0000
,
0010
0000
0001
0000
0100
0010
0000
0000
0100
0000
0001
0000
0100
0010
0000
0000
,
1000
0000
0100
0000
0010
0100
0000
0000
1000
0000
0010
0000
1000
0000
0010
0000
,
1000
0000
0001
0000
0010
0100
0000
0000
0010
0000
0001
0000
0100
0010
0000
0000
,
0100
0000
0001
0000
0100
0010
0000
0000
1000
0000
0001
0000
0010
0000
0100
0000
,
1000
0000
0010
0000
1000
0100
0000
0000
0010
0000
0001
0000
0100
0001
0000
0000
,
0010
0100
1000
0001
0100
0010
1000
0001
,
0010
0001
0100
0010
1000
0100
0010
0001
,
0100
0010
0100
0010
1000
0001
1000
0001
,
1000
0100
0010
0001
1000
0100
0001
0010
,
0100
0010
0001
0100
0010
1000
0001
0100
,
0010
1000
0010
0001
0100
1000
0010
0100
,
0001
0100
0010
1000
0001
0010
0100
1000
,
0010
0100
0001
1000
0100
0010
0001
1000
,
0010
1000
0100
0001
,
0110
0000
0000
0100
0010
0000
0000
0000
0101
0000
0000
0001
0010
0000
0000
0000
,
1100
0000
0000
1000
0100
0000
0000
0000
0001
0000
0100
0000
1000
0000
0010
0000
,
0001
0010
0000
0000
0011
0000
0000
0000
1000
0010
0000
0000
1010
0000
0000
0000
,
0100
0010
0000
0000
0110
0000
0000
0000
0010
0000
1000
0000
0100
0000
0010
0000
,
0001
0000
0000
0001
0010
0000
0100
0000
1000
0000
0000
1000
0100
0000
0010
0000
,
0001
0000
0000
0001
1000
0000
0010
0000
0100
0000
0001
0000
0100
0000
0010
0000
,
0010
0000
0000
0010
1000
0000
0000
1000
0100
0000
0000
0100
1000
0000
0000
1000
,
0001
0000
0000
0001
0100
0000
0000
0100
0010
0000
0000
0010
1000
0000
0000
1000
,
0001
0010
0100
0000
0100
0000
1100
0000
,
1000
0100
0010
0001
0100
0010
1000
0000
,
0010
1000
0100
0000
0010
0000
0011
0000
,
0010
0001
0100
0001
0010
0100
1000
0010
,
0100
0000
0110
0000
0010
0100
0010
0000
,
1000
0000
1001
0000
0001
1000
0001
0000
,
1000
0100
0010
0001
1000
0100
0010
0001
,
1000
0001
1000
0001
0100
0010
0100
0010
,
0100
0000
0000
0000
;
