#VERSION:0.83;
#TITLE:Lose Control (feat. Ciara & Fatman Scoop);
#SUBTITLE:;
#ARTIST:Missy Elliott;
#TITLETRANSLIT:;
#SUBTITLETRANSLIT:;
#ARTISTTRANSLIT:;
#GENRE:Hip-Hop/Rap;
#ORIGIN:;
#CREDIT:chewi;
#BANNER:Lose Control (feat. Ciara & Fatman Scoop).png;
#BACKGROUND:Lose Control (feat. Ciara & Fatman Scoop)-bg.png;
#PREVIEWVID:;
#JACKET:Lose Control (feat. Ciara & Fatman Scoop)-jacket.png;
#CDIMAGE:;
#DISCIMAGE:;
#LYRICSPATH:;
#CDTITLE:cdtitle.png;
#MUSIC:Lose Control (feat. Ciara & Fatman Scoop).ogg;
#OFFSET:-0.364000;
#SAMPLESTART:46.278999;
#SAMPLELENGTH:15.000000;
#SELECTABLE:YES;
#DISPLAYBPM:125.000000;
#BPMS:0.000=125.450;
#STOPS:;
#DELAYS:;
#WARPS:;
#TIMESIGNATURES:0.000=4=4;
#TICKCOUNTS:0.000=4;
#COMBOS:0.000=1;
#SPEEDS:0.000=1.000=0.000=0;
#SCROLLS:0.000=1.000;
#FAKES:;
#LABELS:0.000=Song Start;
#BGCHANGES:;
#KEYSOUNDS:;
#ATTACKS:
;

//---------------dance-single - ----------------
#NOTEDATA:;
#CHARTNAME:;
#STEPSTYPE:dance-single;
#DESCRIPTION:;
#CHARTSTYLE:;
#DIFFICULTY:Beginner;
#METER:1;
#RADARVALUES:0.076572,0.128569,0.014487,0.057947,0.000000,74.000000,72.000000,2.000000,8.000000,0.000000,0.000000,0.000000,0.000000,0.000000,0.076572,0.128569,0.014487,0.057947,0.000000,74.000000,72.000000,2.000000,8.000000,0.000000,0.000000,0.000000,0.000000,0.000000;
#CREDIT:;
#DISPLAYBPM:125.000000;
#NOTES:
// measure 0
0000
0000
0000
0000
,  // measure 1
0000
0000
0000
0000
,  // measure 2
0000
0000
0000
0000
,  // measure 3
0000
0000
0000
0000
,  // measure 4
1000
0000
0000
0000
,  // measure 5
0001
0000
0000
0000
,  // measure 6
0100
0000
0000
0000
,  // measure 7
0010
0000
0000
0000
,  // measure 8
2000
0000
0000
3000
,  // measure 9
1000
0000
0000
0000
,  // measure 10
0002
0000
0000
0003
,  // measure 11
0001
0000
0000
0000
,  // measure 12
1001
0000
0000
0000
,  // measure 13
0010
0000
0000
0000
,  // measure 14
1001
0000
0000
0000
,  // measure 15
0100
0000
0000
0000
,  // measure 16
0100
0000
0000
0000
,  // measure 17
1000
0000
0000
0000
,  // measure 18
0010
0000
0000
0000
,  // measure 19
0001
0000
0000
0000
,  // measure 20
0100
0000
0000
0000
,  // measure 21
0001
0000
0000
0000
,  // measure 22
0010
0000
0000
0000
,  // measure 23
1000
0000
0000
0000
,  // measure 24
1000
0000
1000
0000
,  // measure 25
2000
0000
0000
3000
,  // measure 26
0001
0000
0001
0000
,  // measure 27
0002
0000
0000
0003
,  // measure 28
0100
0000
0000
0000
,  // measure 29
0100
0000
0000
0000
,  // measure 30
0010
0000
0000
0000
,  // measure 31
0010
0000
0000
0000
,  // measure 32
0010
0000
0000
0000
,  // measure 33
0010
0000
0000
0000
,  // measure 34
0001
0000
0000
0000
,  // measure 35
0001
0000
0000
0000
,  // measure 36
0002
0000
0000
0003
,  // measure 37
0001
0000
0000
0000
,  // measure 38
2000
0000
0000
3000
,  // measure 39
1000
0000
0000
0000
,  // measure 40
1000
0000
0000
0000
,  // measure 41
1000
0000
0000
0000
,  // measure 42
0001
0000
0000
0000
,  // measure 43
0001
0000
0000
0000
,  // measure 44
0001
0000
0000
0000
,  // measure 45
0010
0000
0000
0000
,  // measure 46
0001
0000
0000
0000
,  // measure 47
0100
0000
0000
0000
,  // measure 48
0001
0000
0000
0000
,  // measure 49
0001
0000
0000
0000
,  // measure 50
1000
0000
0000
0000
,  // measure 51
1000
0000
0000
0000
,  // measure 52
1000
0000
0000
0000
,  // measure 53
1000
0000
0000
0000
,  // measure 54
0001
0000
0000
0000
,  // measure 55
0001
0000
0000
0000
,  // measure 56
0001
0000
0000
0000
,  // measure 57
1000
0000
0000
0000
,  // measure 58
0001
0000
0000
0000
,  // measure 59
1000
0000
0000
0000
,  // measure 60
0001
0000
0000
0000
,  // measure 61
1000
0000
0000
0000
,  // measure 62
0001
0000
0000
0000
,  // measure 63
1000
0000
0000
0000
,  // measure 64
1000
0000
1000
0000
,  // measure 65
2000
0000
0000
3000
,  // measure 66
0001
0000
0001
0000
,  // measure 67
0002
0000
0000
0003
,  // measure 68
0100
0000
0000
0000
,  // measure 69
0100
0000
0000
0000
,  // measure 70
0010
0000
0000
0000
,  // measure 71
0010
0000
0000
0000
;

//---------------dance-single - ----------------
#NOTEDATA:;
#CHARTNAME:;
#STEPSTYPE:dance-single;
#DESCRIPTION:;
#CHARTSTYLE:;
#DIFFICULTY:Hard;
#METER:11;
#RADARVALUES:0.430461,0.519709,0.144867,0.210057,0.021730,416.000000,396.000000,20.000000,29.000000,14.000000,4.000000,0.000000,0.000000,0.000000,0.430461,0.519709,0.144867,0.210057,0.021730,416.000000,396.000000,20.000000,29.000000,14.000000,4.000000,0.000000,0.000000,0.000000;
#CREDIT:;
#DISPLAYBPM:125.000000;
#NOTES:
// measure 0
0000
0000
0000
0000
,  // measure 1
0000
0000
0000
0000
,  // measure 2
0000
0000
0000
0000
,  // measure 3
0000
0000
0000
0000
,  // measure 4
1000
0100
0001
1000
,  // measure 5
0010
0000
0001
0000
1000
0001
1001
0000
,  // measure 6
0001
0100
1000
0001
,  // measure 7
0010
0000
1000
0000
0001
1000
1001
0000
,  // measure 8
2000
0000
3002
0000
0013
1000
0100
0000
,  // measure 9
2000
0000
3002
0000
0103
0001
0010
0000
,  // measure 10
0010
0100
1000
0000
0010
0100
0001
0000
,  // measure 11
00M0
0M00
M000
0000
00M0
0M00
000M
0000
,  // measure 12
0001
0010
0100
0000
1000
0010
0100
0000
,  // measure 13
0001
0010
0100
1000
0001
0000
1001
0000
,  // measure 14
0100
0010
1000
0000
0010
0100
0001
0000
,  // measure 15
0100
0010
1000
0001
0010
0000
0110
0000
,  // measure 16
0001
0010
1000
0010
0001
0010
1000
0010
,  // measure 17
0001
0100
1000
0100
,  // measure 18
0001
0100
1000
0100
0001
0100
1000
0100
,  // measure 19
0001
0000
0010
0000
0100
0010
0001
0000
,  // measure 20
0101
0000
1010
0000
1000
0010
0100
0001
,  // measure 21
0101
0011
0000
0000
,  // measure 22
0001
1000
0010
0100
0010
0000
0010
0000
,  // measure 23
0010
0100
0001
1000
0001
0000
0001
0000
,  // measure 24
1000
0100
1000
0010
0100
0000
0001
0010
,  // measure 25
0100
1000
0001
0000
1000
1001
0100
0010
,  // measure 26
1000
0000
0010
0100
0001
1000
0100
0010
,  // measure 27
0001
0010
0100
1000
0001
0101
1000
0000
,  // measure 28
0001
1000
0001
1000
M010
0000
001M
0000
,  // measure 29
0001
1000
0010
0100
0000
0001
0101
0000
,  // measure 30
0001
1000
0100
0010
010M
0000
M100
0000
,  // measure 31
0001
1000
0100
0010
0000
0001
0010
0001
,  // measure 32
0000
0010
0100
0000
1000
0001
0100
0010
,  // measure 33
0000
0100
0010
0000
0100
0010
1000
0100
,  // measure 34
0000
0010
0100
1000
0001
0010
0100
1000
,  // measure 35
0000
0001
0100
1000
0100
0001
1000
0000
,  // measure 36
0001
0010
1000
0100
,  // measure 37
0001
0010
1000
0100
,  // measure 38
0001
0100
0010
1000
,  // measure 39
0001
0100
0100
0001
,  // measure 40
0000
0000
1000
0100
0010
0100
2000
0000
,  // measure 41
3002
0000
0103
0010
0100
0001
0200
0000
,  // measure 42
0302
0000
0103
0010
1000
0001
0020
0000
,  // measure 43
0230
0000
1300
0001
0010
0100
0011
0000
,  // measure 44
1010
0000
0100
1000
0010
1000
0200
0000
,  // measure 45
2300
0000
3010
0100
0001
0010
0002
0000
,  // measure 46
0023
0000
0031
0010
0100
1000
0002
0000
,  // measure 47
2003
0000
3001
0100
0010
0100
0002
0000
,  // measure 48
2003
0000
0000
0000
3001
0000
0010
0000
0100
1000
0100
1000
0100
0000
1000
0000
,  // measure 49
1001
0000
0000
0100
0000
0100
0000
0000
,  // measure 50
0110
0000
0000
0010
1000
1000
0100
0010
,  // measure 51
0010
0001
0010
0001
0100
0010
1000
0001
,  // measure 52
0000
0000
0000
0000
1000
0000
0100
0000
0010
0001
0010
0001
0010
0000
0001
0000
,  // measure 53
1001
0000
0000
0000
0000
0000
0010
0000
0100
0001
0100
0001
0100
0000
0001
0000
,  // measure 54
0101
0000
0001
0100
0001
0001
0010
0100
,  // measure 55
0100
2000
3200
2300
3020
0230
0302
2003
,  // measure 56
3001
0000
0001
0000
0001
0010
0100
0010
,  // measure 57
0001
0000
0001
0000
0001
0010
0100
0010
,  // measure 58
0001
0000
0001
0000
0001
0010
0100
0010
,  // measure 59
0001
0000
0001
0000
0010
0100
1000
0000
,  // measure 60
1000
0010
1000
0000
0010
1000
0010
0000
,  // measure 61
0100
0001
0100
0000
0001
0100
0001
0000
,  // measure 62
2000
0200
0010
3301
,  // measure 63
0002
0200
0010
1303
,  // measure 64
0001
0010
0001
0100
0010
0000
1000
0100
,  // measure 65
0010
0001
1000
0000
0001
1001
0010
0100
,  // measure 66
0001
0000
0100
0010
1000
0001
0010
0100
,  // measure 67
1000
0100
0010
0001
1000
1010
0001
0000
,  // measure 68
1000
0001
1000
0001
010M
0000
M100
0000
,  // measure 69
1000
0001
0100
0010
0000
1000
1010
0000
,  // measure 70
1000
0001
0010
0100
M010
0000
001M
0000
,  // measure 71
1000
0001
0010
0100
0000
1000
1000
0000
;

//---------------dance-single - ----------------
#NOTEDATA:;
#CHARTNAME:;
#STEPSTYPE:dance-single;
#DESCRIPTION:;
#CHARTSTYLE:;
#DIFFICULTY:Easy;
#METER:4;
#RADARVALUES:0.151075,0.181264,0.014487,0.072433,0.000000,146.000000,144.000000,2.000000,10.000000,0.000000,0.000000,0.000000,0.000000,0.000000,0.151075,0.181264,0.014487,0.072433,0.000000,146.000000,144.000000,2.000000,10.000000,0.000000,0.000000,0.000000,0.000000,0.000000;
#CREDIT:;
#DISPLAYBPM:125.000000;
#NOTES:
// measure 0
0000
0000
0000
0000
,  // measure 1
0000
0000
0000
0000
,  // measure 2
0000
0000
0000
0000
,  // measure 3
0000
0000
0000
0000
,  // measure 4
1000
0000
1000
0000
,  // measure 5
0001
0000
0001
0000
,  // measure 6
0100
0000
0100
0000
,  // measure 7
0010
0000
0010
0000
,  // measure 8
2000
0000
0000
3000
,  // measure 9
1000
0000
0000
0000
,  // measure 10
0002
0000
0000
0003
,  // measure 11
0001
0000
0000
0000
,  // measure 12
1001
0000
0100
0000
,  // measure 13
0010
0000
0100
0000
,  // measure 14
1001
0000
0010
0000
,  // measure 15
0100
0000
0010
0000
,  // measure 16
0100
0000
0100
0000
,  // measure 17
1000
0000
1000
0000
,  // measure 18
0010
0000
0010
0000
,  // measure 19
0001
0000
0001
0000
,  // measure 20
0100
0000
0100
0000
,  // measure 21
0001
0000
0001
0000
,  // measure 22
0010
0000
0010
0000
,  // measure 23
1000
0000
1000
0000
,  // measure 24
1000
1000
1000
1000
,  // measure 25
2000
0000
0000
3000
,  // measure 26
0001
0001
0001
0001
,  // measure 27
0002
0000
0000
0003
,  // measure 28
0100
0100
0100
0000
,  // measure 29
0100
0100
0100
0000
,  // measure 30
0010
0010
0010
0000
,  // measure 31
0010
0010
0010
0000
,  // measure 32
0010
0000
1000
0000
,  // measure 33
0010
0000
1000
0000
,  // measure 34
0001
0000
0100
0000
,  // measure 35
0001
0000
0100
0000
,  // measure 36
0002
0000
0000
0003
,  // measure 37
0002
0000
0000
0003
,  // measure 38
2000
0000
0000
3000
,  // measure 39
2000
0000
0000
3000
,  // measure 40
1000
0000
0100
0000
,  // measure 41
1000
0000
0100
0000
,  // measure 42
0001
0000
0100
0000
,  // measure 43
0001
0000
0100
0000
,  // measure 44
0001
0000
1000
0000
,  // measure 45
0010
0000
0100
0000
,  // measure 46
0001
0000
1000
0000
,  // measure 47
0100
0000
0010
0000
,  // measure 48
0001
0000
0010
0000
,  // measure 49
0001
0001
0001
0000
,  // measure 50
1000
0000
0100
0000
,  // measure 51
1000
1000
1000
0000
,  // measure 52
1000
0000
0001
0000
,  // measure 53
1000
1000
1000
0000
,  // measure 54
0001
0000
1000
0000
,  // measure 55
0001
0001
0001
0000
,  // measure 56
0001
0000
0100
0000
,  // measure 57
1000
0000
0010
0000
,  // measure 58
0001
0000
0100
0000
,  // measure 59
1000
0000
0010
0000
,  // measure 60
0001
0000
0010
0000
,  // measure 61
1000
0000
0100
0000
,  // measure 62
0001
0000
0010
0000
,  // measure 63
1000
0000
0100
0000
,  // measure 64
1000
1000
1000
1000
,  // measure 65
2000
0000
0000
3000
,  // measure 66
0001
0001
0001
0001
,  // measure 67
0002
0000
0000
0003
,  // measure 68
0100
0100
0100
0000
,  // measure 69
0100
0100
0100
0000
,  // measure 70
0010
0010
0010
0000
,  // measure 71
0010
0010
0010
0000
;

//---------------dance-single - ----------------
#NOTEDATA:;
#CHARTNAME:;
#STEPSTYPE:dance-single;
#DESCRIPTION:;
#CHARTSTYLE:;
#DIFFICULTY:Medium;
#METER:6;
#RADARVALUES:0.231787,0.233869,0.000000,0.028973,0.000000,224.000000,224.000000,0.000000,4.000000,8.000000,0.000000,0.000000,0.000000,0.000000,0.231787,0.233869,0.000000,0.028973,0.000000,224.000000,224.000000,0.000000,4.000000,8.000000,0.000000,0.000000,0.000000,0.000000;
#CREDIT:;
#DISPLAYBPM:125.000000;
#NOTES:
// measure 0
0000
0000
0000
0000
,  // measure 1
0000
0000
0000
0000
,  // measure 2
0000
0000
0000
0000
,  // measure 3
0000
0000
0000
0000
,  // measure 4
1000
0100
0001
0010
,  // measure 5
1000
0000
1000
0000
,  // measure 6
1000
0010
0001
0100
,  // measure 7
1000
0000
1000
0000
,  // measure 8
1000
0000
0100
0000
,  // measure 9
0001
0000
0100
0000
,  // measure 10
1000
0100
0001
0100
,  // measure 11
0000
0000
0000
0000
,  // measure 12
0001
0000
0010
0000
,  // measure 13
1000
0000
0001
0100
,  // measure 14
1000
0000
0100
0000
,  // measure 15
0001
0000
1000
0010
,  // measure 16
0001
0001
0010
0010
,  // measure 17
0100
1000
0010
1000
,  // measure 18
0100
0100
0010
0010
,  // measure 19
0001
1000
0001
0100
,  // measure 20
0010
0010
0100
0001
,  // measure 21
0010
0010
0100
1000
,  // measure 22
0001
1000
0100
0100
,  // measure 23
1000
0001
0100
0100
,  // measure 24
0010
0100
0001
1000
,  // measure 25
0100
0010
0001
1000
,  // measure 26
0001
0100
0001
1000
,  // measure 27
0010
1000
0001
0010
,  // measure 28
0100
1000
M010
001M
,  // measure 29
0001
0100
0010
0100
,  // measure 30
0001
1000
010M
M100
,  // measure 31
0001
1000
0100
0010
,  // measure 32
0100
0000
0100
0000
,  // measure 33
1000
0000
1000
0000
,  // measure 34
0001
0000
0001
0000
,  // measure 35
0100
0000
0100
0000
,  // measure 36
0200
0000
0000
0300
,  // measure 37
0020
0000
0000
0030
,  // measure 38
2000
0000
0000
3000
,  // measure 39
0002
0000
0000
0003
,  // measure 40
1000
0100
0001
0100
,  // measure 41
1000
0100
0001
0100
,  // measure 42
1000
0100
0001
0010
,  // measure 43
1000
0100
0001
0100
,  // measure 44
0001
0010
1000
0010
,  // measure 45
0001
0010
1000
0010
,  // measure 46
0001
0010
1000
0100
,  // measure 47
0001
0010
1000
0100
,  // measure 48
0001
0100
0001
0001
,  // measure 49
0001
0000
1000
1000
,  // measure 50
1000
0000
0100
0010
,  // measure 51
0100
1000
0100
0010
,  // measure 52
0100
1000
0001
0001
,  // measure 53
0001
0000
1000
1000
,  // measure 54
1000
0001
0100
0001
,  // measure 55
0010
0000
0000
0000
,  // measure 56
0001
0010
0100
1000
,  // measure 57
0001
0010
0100
1000
,  // measure 58
0001
0100
0010
1000
,  // measure 59
0001
0100
0010
1000
,  // measure 60
1000
0000
0100
0000
,  // measure 61
0010
0000
0001
0000
,  // measure 62
1000
0100
0010
0001
,  // measure 63
1000
0100
0010
0001
,  // measure 64
0100
0010
1000
0001
,  // measure 65
0010
0100
1000
0001
,  // measure 66
1000
0010
1000
0001
,  // measure 67
0100
0001
1000
0100
,  // measure 68
0010
0001
010M
M100
,  // measure 69
1000
0010
0100
0010
,  // measure 70
1000
0001
M010
001M
,  // measure 71
1000
0001
0010
0100
;
