#TITLE:Lonely in Gorgeous;
#SUBTITLE:;
#ARTIST:Tommy February6;
#TITLETRANSLIT:;
#SUBTITLETRANSLIT:;
#ARTISTTRANSLIT:;
#CREDIT:Chewi☆;
#BANNER:Lonely in Gorgeous.png;
#BACKGROUND:Lonely in Gorgeous-bg.png;
#LYRICSPATH:;
#CDTITLE:cdtitle.png;
#MUSIC:Lonely in Gorgeous.mp3;
#OFFSET:-0.813;
#SAMPLESTART:58.160;
#SAMPLELENGTH:15.000;
#SELECTABLE:YES;
#DISPLAYBPM:134.000;
#BPMS:0.000=134.000;
#STOPS:;
#BGCHANGES:;

//---------------dance-single - Chewi----------------
#NOTES:
     dance-single:
     Chewi:
     Beginner:
     2:
     0.083,0.155,0.057,0.143,0.000: // measure 1
0000
0000
0000
0000
,  // measure 2
0000
0000
0000
0000
,  // measure 3
0000
0000
0000
0000
,  // measure 4
0000
0000
0000
0000
,  // measure 5
1000
0000
0000
0000
,  // measure 6
0000
0001
0000
0000
,  // measure 7
0000
0100
0000
0000
,  // measure 8
0110
0000
0000
0000
,  // measure 9
0001
0000
0000
0000
,  // measure 10
0010
0000
0000
0000
,  // measure 11
1000
0000
0000
0000
,  // measure 12
0010
0000
0000
0000
,  // measure 13
1000
0000
0000
0000
,  // measure 14
0001
0000
0000
0000
,  // measure 15
1000
0000
0000
0000
,  // measure 16
0001
0000
0000
0000
,  // measure 17
1000
0000
0000
0000
,  // measure 18
0001
0000
0000
0000
,  // measure 19
0001
0000
0000
0000
,  // measure 20
1000
0000
0000
0000
,  // measure 21
0010
0000
0000
0000
,  // measure 22
1000
0000
0000
0000
,  // measure 23
1000
0000
0000
0000
,  // measure 24
0001
0000
0000
0000
,  // measure 25
0002
0000
0000
0000
,  // measure 26
0003
0000
0000
0000
,  // measure 27
0020
0000
0000
0000
,  // measure 28
0030
0000
0000
0000
,  // measure 29
0200
0000
0000
0000
,  // measure 30
0300
0000
0000
0000
,  // measure 31
2000
0000
0000
0000
,  // measure 32
3000
0000
0000
0000
,  // measure 33
2002
0000
0000
0000
,  // measure 34
3003
0000
0000
0000
,  // measure 35
0220
0000
0000
0000
,  // measure 36
0330
0000
0000
0000
,  // measure 37
0001
0000
0000
0000
,  // measure 38
1000
0000
0000
0000
,  // measure 39
1000
0000
0000
0000
,  // measure 40
0001
0000
0000
0000
,  // measure 41
2002
0000
0000
0000
,  // measure 42
3003
0000
0000
0000
,  // measure 43
0220
0000
0000
0000
,  // measure 44
0330
0000
0000
0000
,  // measure 45
0001
0000
0000
0000
,  // measure 46
1000
0000
0000
0000
,  // measure 47
0001
0000
0000
0000
,  // measure 48
1000
0000
0000
0000
,  // measure 49
0002
0000
0000
0000
,  // measure 50
0003
0000
0000
0000
,  // measure 51
0020
0000
0000
0000
,  // measure 52
0030
0000
0000
0000
,  // measure 53
2000
0000
0000
0000
,  // measure 54
3000
0000
0000
0000
,  // measure 55
1001
0000
0000
0000
;

//---------------dance-single - Chewi----------------
#NOTES:
     dance-single:
     Chewi:
     Easy:
     3:
     0.198,0.232,0.057,0.220,0.000: // measure 1
0000
0000
0000
0000
,  // measure 2
0000
0000
0000
0000
,  // measure 3
0000
0000
0000
0000
,  // measure 4
0000
0000
0000
0000
,  // measure 5
1000
1000
1000
1000
,  // measure 6
0000
0001
0001
0001
,  // measure 7
0000
0100
0100
0100
,  // measure 8
0110
0000
0000
0000
,  // measure 9
0002
0000
0013
0000
,  // measure 10
0010
0100
0010
0000
,  // measure 11
2000
0000
3010
0000
,  // measure 12
0010
0100
0010
0000
,  // measure 13
2000
0000
3001
0000
,  // measure 14
0001
1000
0001
0000
,  // measure 15
2000
0000
3001
0000
,  // measure 16
0001
1000
0001
0000
,  // measure 17
1000
0100
0010
0000
,  // measure 18
0001
0000
0001
0000
,  // measure 19
0001
0100
0010
0000
,  // measure 20
1000
0000
1000
0000
,  // measure 21
0010
0100
0010
0000
,  // measure 22
1000
0000
0001
0000
,  // measure 23
1000
0100
0010
0000
,  // measure 24
0001
0000
0010
0000
,  // measure 25
0002
0000
0003
0001
,  // measure 26
2000
0000
3000
1000
,  // measure 27
0020
0000
0030
0010
,  // measure 28
0100
0010
0100
0000
,  // measure 29
0200
0000
0300
0100
,  // measure 30
0002
0000
0003
0001
,  // measure 31
2000
0000
3000
1000
,  // measure 32
1000
0001
1000
0000
,  // measure 33
2002
0000
0000
3003
,  // measure 34
0001
1000
0001
0000
,  // measure 35
0220
0000
0000
0330
,  // measure 36
0010
0100
0010
0000
,  // measure 37
0001
0000
0100
0000
,  // measure 38
1000
0000
0010
0000
,  // measure 39
1000
0000
0100
0000
,  // measure 40
0001
0000
0010
0000
,  // measure 41
2002
0000
0000
3003
,  // measure 42
0001
1000
0001
0000
,  // measure 43
0220
0000
0000
0330
,  // measure 44
0100
0010
0100
0000
,  // measure 45
0001
0000
0100
0000
,  // measure 46
1000
0000
0010
0000
,  // measure 47
0001
0000
0010
0000
,  // measure 48
1000
0000
0100
0000
,  // measure 49
0002
0000
0003
0001
,  // measure 50
2000
0000
3000
1000
,  // measure 51
0020
0000
0030
0010
,  // measure 52
0200
0000
0300
0100
,  // measure 53
0002
0000
0003
0001
,  // measure 54
1000
0001
1000
0001
,  // measure 55
1001
0000
0000
0000
;

//---------------dance-single - Chewi----------------
#NOTES:
     dance-single:
     Chewi:
     Medium:
     6:
     0.329,0.387,0.067,0.459,0.000:
0000
0000
0000
0000
,
0000
0000
0000
0000
,
0000
0000
0000
0000
,
0000
0000
0000
0000
,
2000
0000
3002
0000
2003
0000
0020
3000
,
0000
0230
0320
0230
,
0000
0302
2003
3002
,
1003
0000
1001
0000
,
0001
1000
0001
0000
1000
0000
0000
0000
,
0010
0001
0100
1000
,
0010
0100
0010
0000
0100
0000
0000
0000
,
0010
1000
0100
0001
,
0010
0100
0010
0000
0010
0000
0000
0000
,
0001
0010
0100
1000
,
0001
1000
0001
0000
1000
0000
0000
0000
,
1000
0010
0100
0001
,
2000
3100
0002
0103
,
2000
3100
0002
0103
,
2000
3010
0002
0013
,
2000
3010
0002
0013
,
0020
0030
0020
0030
,
0100
1000
0010
0001
,
0200
0300
0200
0300
,
0100
1000
0001
1000
,
0001
0000
0000
1000
0001
0000
1000
0000
,
1000
0000
0000
0001
1000
0000
0010
0000
,
0100
0000
0000
0010
0100
0000
0010
0000
,
1000
1000
0001
0001
,
0010
0000
0000
0001
0010
0000
0100
0000
,
0100
0000
0000
0100
1000
0000
0010
0000
,
1000
0000
0000
1000
0010
0000
0100
0000
,
0001
0100
1000
0100
,
1002
1000
2000
3003
,
0010
0100
0010
0000
,
0210
0010
0020
0330
,
0010
0001
0100
1000
,
0010
0000
0000
0010
0000
0000
0000
0100
,
0000
0000
0000
0100
0000
0100
0000
0000
,
0001
0000
0000
1000
0000
0000
0000
0001
,
0000
0000
0000
1000
0000
1000
0000
0000
,
0001
1000
0100
1001
,
2000
3002
0023
0230
,
0310
0001
1000
1001
,
2000
3020
0230
0302
,
1003
0000
1000
0000
1000
0001
1000
0000
,
0001
1000
0001
1001
,
0001
0000
0001
0000
0001
1000
0001
0000
,
1000
1000
0001
1001
,
2000
3010
0002
0103
,
2000
3100
0002
0013
,
0020
0130
0200
0310
,
0002
1003
2000
3001
,
2000
3010
0002
0103
,
0200
0320
2030
3002
,
1003
0000
0000
0000
;

//---------------dance-single - Chewi----------------
#NOTES:
     dance-single:
     Chewi:
     Hard:
     9:
     0.375,0.361,0.115,0.172,0.000:
0000
0000
0000
0000
,
0000
0000
0000
0000
,
0000
0000
0000
0000
,
0000
0000
0000
0000
,
2000
3020
0230
0302
,
0000
0203
0320
2030
,
0000
3002
0023
0230
,
1300
0100
0000
0100
1000
0000
0000
0000
,
0001
1000
0010
0100
,
0001
0000
0100
0010
0000
0010
0100
0000
,
0010
1000
0100
0010
,
0001
0000
0010
0001
0000
0001
0010
0000
,
0100
0010
0001
0100
,
0010
0000
0100
0010
0000
0010
1000
0000
,
0010
1000
0001
1000
,
0100
0000
0010
0100
0000
0100
0010
0000
,
0001
0010
0001
0000
0100
0000
0010
0000
,
1000
0000
0001
1000
0000
1000
0001
0000
,
1000
0100
0010
0100
1000
0000
0010
0000
,
0100
0000
0001
0100
0000
0100
0001
0000
,
2100
0010
0100
3010
,
0102
0100
0010
0103
,
2001
0100
0001
3010
,
1002
0100
1000
0013
,
1000
0100
1000
0100
1000
0000
0001
0000
,
0001
0100
0001
0100
0001
0100
0100
0000
,
0010
1000
0001
0010
0100
0000
0010
0000
,
0001
0000
0010
0100
0000
0000
1000
0010
,
0100
0001
0100
0001
0100
0000
0010
0000
,
1000
0010
1000
0010
0100
0001
0001
0000
,
0001
1000
0100
0010
0001
0000
1000
0000
,
0100
0000
0010
0100
1000
0010
0100
0001
,
0200
0001
0002
0303
,
0001
0010
0100
0000
1000
0100
0010
0000
,
0200
1000
2000
3300
,
1000
0010
0100
0000
0001
0100
0010
0000
,
1010
0000
0101
0000
,
0001
1000
0100
0010
,
0011
0000
1100
0000
,
0001
1000
0010
0100
,
0001
0000
0100
0000
1000
0100
0001
0000
,
1000
1100
0001
0101
,
1000
0000
0010
0000
0001
0010
1000
0000
,
0010
1001
0100
1001
,
1000
0100
1000
0000
0001
0010
0001
0000
,
1000
0010
1000
0000
0001
0100
0001
0000
,
0100
0100
0100
0000
0010
0010
0010
0000
,
1000
0100
0010
0000
0001
0010
0100
1000
,
0001
0000
1000
0001
1000
0000
0010
0000
,
0100
0000
0010
0100
0001
0100
0010
0000
,
1000
0000
0100
0000
0010
0100
1000
0000
,
0010
0000
1000
0100
0010
0001
0100
0010
,
0100
0000
0001
0000
0010
0100
1000
0000
,
0010
0000
1000
0000
0001
1000
0010
0100
,
0001
0000
0000
0000
;
