#VERSION:0.82;
#TITLE:London Bridge;
#SUBTITLE:;
#ARTIST:Fergie;
#TITLETRANSLIT:;
#SUBTITLETRANSLIT:;
#ARTISTTRANSLIT:;
#GENRE:;
#ORIGIN:;
#CREDIT:chewi;
#BANNER:London Bridge.png;
#BACKGROUND:London Bridge-bg.png;
#PREVIEWVID:;
#JACKET:London Bridge-jacket.png;
#CDIMAGE:;
#DISCIMAGE:;
#LYRICSPATH:;
#CDTITLE:;
#MUSIC:London Bridge.ogg;
#OFFSET:-0.077000;
#SAMPLESTART:31.723001;
#SAMPLELENGTH:15.000000;
#SELECTABLE:YES;
#BPMS:0.000=91.000;
#STOPS:;
#DELAYS:;
#WARPS:;
#TIMESIGNATURES:0.000=4=4;
#TICKCOUNTS:0.000=4;
#COMBOS:0.000=1;
#SPEEDS:0.000=1.000=0.000=0;
#SCROLLS:0.000=1.000;
#FAKES:;
#LABELS:0.000=Song Start;
#BGCHANGES:;
#KEYSOUNDS:;
#ATTACKS:
;

//---------------dance-single - ----------------
#NOTEDATA:;
#CHARTNAME:;
#STEPSTYPE:dance-single;
#DESCRIPTION:;
#CHARTSTYLE:;
#DIFFICULTY:Hard;
#METER:6;
#RADARVALUES:0.230179,0.238015,0.094780,0.000000,0.052129,160.000000,10.000000,0.000000,0.000000,0.000000,0.000000,0.000000,0.000000,0.230179,0.238015,0.094780,0.000000,0.052129,160.000000,10.000000,0.000000,0.000000,0.000000,0.000000,0.000000,0.000000;
#CREDIT:;
#NOTES:
0000
0000
0000
0000
,
0000
0000
0000
0000
,
0000
0000
0000
0000
,
0000
0000
0000
0000
,
1000
0000
1000
0001
0100
0000
0001
0000
,
0001
0000
0001
1000
0100
0000
0100
0000
,
0010
0001
0100
1000
0010
0000
0001
0000
,
1001
0000
0000
0000
,
1000
0000
0100
0100
0100
0000
1000
0000
,
0010
0000
0100
0100
0100
0000
0001
0000
,
1000
0000
0001
0001
0001
0000
1000
0000
,
1000
0100
0010
0001
0010
0100
1000
0000
,
0001
0000
0100
0000
1000
0000
0010
0001
,
0100
0000
0000
0100
0000
0000
0100
0000
1000
0000
0000
0000
1000
0000
0100
0000
,
0010
0000
0000
0010
0000
0000
0010
0000
0000
0000
0001
0000
0010
0000
0100
0000
,
1000
0000
0000
0001
0000
0000
1000
0000
0000
0000
0000
0000
0000
0000
0000
0000
,
0001
0000
0000
0000
0000
0000
0100
0100
,
0100
0100
0000
0000
0000
0000
0010
0010
,
0010
1000
0100
0010
0001
0010
0100
0000
,
0100
1000
0010
0100
0001
1000
0100
0000
,
1001
0000
0000
1000
0001
0000
0001
0000
1001
0000
0000
0000
0000
0000
0000
0000
,
1001
0000
0000
1000
0001
0000
0010
0000
1001
0000
0000
0000
0000
0000
0000
0000
,
1001
0000
0000
0100
0010
0000
0100
0000
0010
0000
0000
0000
0000
0000
0000
0000
,
1001
0000
0000
1000
0100
0000
0010
0000
1000
0000
0000
0000
0000
0000
0000
0000
,
0001
0000
0001
0000
0001
0010
1000
0000
,
1000
0000
1000
0000
1000
0100
0001
0000
,
1000
0100
0010
0001
0010
0000
0000
0000
,
0001
0100
1000
0100
0001
0100
1000
0100
,
0001
0000
0010
0000
0001
0100
1000
0010
,
0001
1000
0001
1000
,
1000
0000
0000
0001
0000
0000
1001
0000
0000
0000
0000
0000
0000
0000
0000
0000
,
0001
0000
0000
1000
0000
0000
1001
0000
0000
0000
0000
0000
0000
0000
0000
0000
,
0001
0100
0010
0001
,
0100
0000
1000
0000
0100
0000
1001
0010
,
0100
0000
0000
0100
0000
0000
0100
0000
0000
0000
0001
0000
0010
0000
0100
0000
,
1000
0000
0000
1000
0000
0000
1000
0000
0000
0000
1000
0000
0001
0000
1000
0000
;

//---------------dance-single - ----------------
#NOTEDATA:;
#CHARTNAME:;
#STEPSTYPE:dance-single;
#DESCRIPTION:;
#CHARTSTYLE:;
#DIFFICULTY:Beginner;
#METER:1;
#RADARVALUES:0.055514,0.068241,0.037912,0.018956,0.000000,35.000000,4.000000,2.000000,0.000000,0.000000,0.000000,0.000000,0.000000,0.055514,0.068241,0.037912,0.018956,0.000000,35.000000,4.000000,2.000000,0.000000,0.000000,0.000000,0.000000,0.000000;
#CREDIT:;
#NOTES:
0000
0000
0000
0000
,
0000
0000
0000
0000
,
0000
0000
0000
0000
,
0000
0000
0000
0000
,
1000
0000
0000
0000
,
0001
0000
0000
0000
,
1000
0000
0000
0000
,
1001
0000
0000
0000
,
0010
0000
0000
0000
,
0100
0000
0000
0000
,
0010
0000
0000
0000
,
0110
0000
0000
0000
,
0001
0000
0000
0000
,
0100
0000
0100
0000
,
0200
0000
0000
0300
,
0100
0000
0000
0000
,
2000
0000
0000
0000
,
0000
0000
0000
3000
,
1000
0000
1000
0000
,
0001
0000
0001
0000
,
0010
0000
0000
0000
,
0010
0000
0000
0000
,
1000
0000
0000
0000
,
0100
0000
0000
0000
,
0001
0000
0000
0000
,
1000
0000
0000
0000
,
0001
0000
0000
0000
,
1001
0000
0000
0000
,
0010
0000
0000
0000
,
0100
0000
0000
0000
,
0010
0000
0000
0000
,
0100
0000
0000
0000
,
1000
0000
0000
0000
,
0001
0000
0000
0000
,
1000
0000
0000
0000
,
0001
0000
0000
0000
,
1001
0000
0000
0000
;

//---------------dance-single - ----------------
#NOTEDATA:;
#CHARTNAME:;
#STEPSTYPE:dance-single;
#DESCRIPTION:;
#CHARTSTYLE:;
#DIFFICULTY:Easy;
#METER:2;
#RADARVALUES:0.112381,0.136483,0.018956,0.104257,0.000000,70.000000,2.000000,11.000000,0.000000,0.000000,0.000000,0.000000,0.000000,0.112381,0.136483,0.018956,0.104257,0.000000,70.000000,2.000000,11.000000,0.000000,0.000000,0.000000,0.000000,0.000000;
#CREDIT:;
#NOTES:
0000
0000
0000
0000
,
0000
0000
0000
0000
,
0000
0000
0000
0000
,
0000
0000
0000
0000
,
1000
1000
1000
0000
,
0001
0001
0001
0000
,
1000
1000
1000
0000
,
0020
0000
0000
0030
,
0010
0000
0010
0000
,
0100
0100
0200
0300
,
0100
0000
1001
0000
,
2000
0000
0000
3000
,
1000
0000
0100
0000
,
0010
0000
0001
0000
,
0001
0000
0100
0000
,
0010
0000
1000
0000
,
2000
0000
0000
0000
,
3200
0000
0000
0000
,
2300
0010
0000
0010
,
3002
0010
0000
0010
,
1003
0000
0000
0001
1000
0000
0000
0000
,
1000
0000
0000
1000
0001
0000
0000
0000
,
0001
0000
0000
1000
0001
0000
0000
0000
,
0010
0000
0010
0000
,
0001
0000
0010
0000
,
0100
0000
1000
0000
,
0010
0000
0100
0000
,
0001
0000
0001
0000
,
1001
0000
1000
0000
,
0100
0100
0100
0000
,
0200
0000
0300
0000
,
0200
0000
1300
0000
,
0001
0001
0001
0000
,
1000
1000
1000
0000
,
0200
0000
0000
0000
,
0320
0000
0000
0000
,
1030
0000
0000
0000
;

//---------------dance-double - ----------------
#NOTEDATA:;
#CHARTNAME:;
#STEPSTYPE:dance-double;
#DESCRIPTION:;
#CHARTSTYLE:;
#DIFFICULTY:Easy;
#METER:2;
#RADARVALUES:0.098842,0.102362,0.009478,0.066346,0.000000,65.000000,1.000000,7.000000,0.000000,0.000000,0.000000,0.000000,0.000000,0.098842,0.102362,0.009478,0.066346,0.000000,65.000000,1.000000,7.000000,0.000000,0.000000,0.000000,0.000000,0.000000;
#CREDIT:;
#NOTES:
00000000
00000000
00000000
00000000
,
00000000
00000000
00000000
00000000
,
00000000
00000000
00000000
00000000
,
00000000
00000000
00000000
00000000
,
10000000
00000000
10000000
00000000
,
00010000
00000000
00010000
00000000
,
10000000
00000000
10000000
00000000
,
00020000
00000000
00030000
00000000
,
00001000
00000000
00010000
00000000
,
00000100
00000100
00000100
00000000
,
00000010
00000000
00001000
00000000
,
00010000
00001000
00010000
00000000
,
10000000
00000000
01000000
00000000
,
00100000
00000000
00010000
00000000
,
00001000
00000000
00010000
00000000
,
00000010
00000000
00000001
00000000
,
00000002
00000000
00000000
00000000
,
00002003
00000000
00000000
00000000
,
00003000
00010000
00000000
00010000
,
00000000
00100000
00000000
00100000
,
10000000
00000000
00000000
00010000
10000000
00000000
00000000
00000000
,
10000000
00000000
00000000
00010000
00001000
00000000
00000000
00000000
,
00000001
00000000
00000000
00010000
00001000
00000000
00000000
00000000
,
00000010
00000000
00000000
00001000
00000001
00000000
00000000
00000000
,
00000001
00000000
00000010
00000000
,
00000100
00000000
00001000
00000000
,
00001000
00000000
00000100
00000000
,
00001000
00000000
00010000
00000000
,
10010000
00000000
10000000
00000000
,
01000000
00000000
01000000
00000000
,
02000000
00000000
03000000
00000000
,
02000000
00000000
13000000
00000000
,
00010000
00000000
00010000
00000000
,
10000000
00000000
10000000
00000000
,
00002000
00000000
00000000
00000000
,
00023000
00000000
00000000
00000000
,
00031000
00000000
00000000
00000000
;

//---------------dance-single - ----------------
#NOTEDATA:;
#CHARTNAME:;
#STEPSTYPE:dance-single;
#DESCRIPTION:;
#CHARTSTYLE:;
#DIFFICULTY:Medium;
#METER:4;
#RADARVALUES:0.180081,0.201880,0.075824,0.208515,0.000000,103.000000,8.000000,22.000000,0.000000,0.000000,0.000000,0.000000,0.000000,0.180081,0.201880,0.075824,0.208515,0.000000,103.000000,8.000000,22.000000,0.000000,0.000000,0.000000,0.000000,0.000000;
#CREDIT:;
#NOTES:
0000
0000
0000
0000
,
0000
0000
0000
0000
,
0000
0000
0000
0000
,
0000
0000
0000
0000
,
1000
0010
1000
1001
,
0001
0010
0001
1001
,
1000
0100
1000
1001
,
0220
0000
0000
0330
,
1000
0000
0100
0100
0100
0000
0000
0000
,
0001
0000
0100
0100
0100
0000
0000
0000
,
0010
0000
1000
1000
2000
3000
0000
0000
,
0001
1000
0001
1001
,
1000
0100
0001
0010
,
2000
3200
2300
3200
,
1300
1000
1000
0000
,
0001
0001
0001
0000
,
2020
0000
0000
3030
,
0202
0000
0000
0303
,
1000
0001
1000
0001
,
0010
0100
0010
0100
,
1000
0000
0000
1000
0010
0000
0000
0000
,
0010
0000
0000
0001
0100
0000
0000
0000
,
0100
0000
0000
1000
0010
0000
0000
0000
,
0001
0000
0000
0001
1000
0000
0000
0000
,
1000
0100
0001
0000
,
0001
0010
1000
0000
,
1000
0000
0100
0000
2000
3000
0000
0000
,
2002
0000
3003
0000
,
1000
0100
0001
0010
,
2000
3200
2300
3200
,
1300
1000
1000
0000
,
0001
0001
0001
0000
,
0001
0100
1000
0010
,
0002
0203
0302
0203
,
0301
0001
0001
0000
,
1000
1000
1000
0000
;

//---------------dance-double - ----------------
#NOTEDATA:;
#CHARTNAME:;
#STEPSTYPE:dance-double;
#DESCRIPTION:;
#CHARTSTYLE:;
#DIFFICULTY:Medium;
#METER:4;
#RADARVALUES:0.151647,0.201910,0.047390,0.170603,0.000000,89.000000,5.000000,18.000000,0.000000,0.000000,0.000000,0.000000,0.000000,0.151647,0.201910,0.047390,0.170603,0.000000,89.000000,5.000000,18.000000,0.000000,0.000000,0.000000,0.000000,0.000000;
#CREDIT:;
#NOTES:
00000000
00000000
00000000
00000000
,
00000000
00000000
00000000
00000000
,
00000000
00000000
00000000
00000000
,
00000000
00000000
00000000
00000000
,
10000000
00000000
00010000
00000000
00000000
00010000
00000000
00000000
,
00010000
00000000
00001000
00000000
00000000
00010000
00000000
00000000
,
00001000
00000000
00000010
00000000
00000000
00000010
00000000
00000000
,
00000200
00000000
00000000
00000000
00000000
00000300
00000000
00000000
,
00001000
00010000
00001000
00000000
,
00011000
00010000
00100000
00000000
,
00100000
00000000
10000000
00000000
02000000
03000000
00000000
00000000
,
00010000
00100000
00010000
00001000
,
00011000
00001000
00000010
00000001
,
00000100
00001000
00000010
00001000
,
00020000
00000000
00000000
00000000
,
00032000
00000000
00000000
00000000
,
00013000
00000000
00000000
00010000
,
00100000
00100000
00000000
10000000
,
10000000
10000000
10000000
00000000
,
00010000
00010000
00010000
00010000
,
00001000
00000000
00000000
00010000
00001000
00000000
00000000
00000000
,
00001000
00000000
00000000
00001000
00000001
00000000
00000000
00000000
,
00000010
00000000
00000000
00000010
00001000
00000000
00000000
00000000
,
00001000
00000000
00000000
00000010
00010000
00000000
00000000
00000000
,
00001000
00010000
01000000
00000000
,
01000000
10000000
00100000
00000000
,
00100000
00000000
01000000
00000000
00020000
00030000
00000000
00000000
,
00001000
00000010
00000001
00001001
,
00000001
00000100
00000010
00001000
,
00000200
00000000
00002300
00000000
00023000
00000000
00032000
00003000
,
00020000
00000000
00000000
00000000
,
00032000
00000000
00000000
00000000
00000000
00000000
00000000
00003000
,
00010000
00100000
01000000
10000000
,
00020000
20030000
30020000
00030000
,
20020000
00000000
00000000
30030000
,
02200000
00000000
00000000
00000000
00000000
00000000
00000000
00000000
00000000
00000000
00000000
00000000
00000000
00000000
00000000
00000000
00000000
00000000
00000000
00000000
00000000
00000000
00000000
00000000
00000000
00000000
00000000
00000000
00000000
00000000
00000000
00000000
00000000
00000000
00000000
00000000
00000000
00000000
00000000
00000000
00000000
00000000
00000000
00000000
00000000
00000000
00000000
00000000
00000000
00000000
00000000
00000000
00000000
00000000
00000000
00000000
00000000
00000000
00000000
00000000
00000000
00000000
00000000
00000000
00000000
00000000
00000000
00000000
00000000
00000000
00000000
00000000
00000000
00000000
00000000
00000000
00000000
00000000
00000000
00000000
00000000
00000000
00000000
00000000
00000000
00000000
00000000
00000000
00000000
00000000
00000000
00000000
00000000
00000000
00000000
00000000
03000000
00300000
00000000
00000000
00000000
00000000
00000000
00000000
00000000
00000000
00000000
00000000
00000000
00000000
00000000
00000000
00000000
00000000
00000000
00000000
00000000
00000000
00000000
00000000
00000000
00000000
00000000
00000000
00000000
00000000
00000000
00000000
00000000
00000000
00000000
00000000
00000000
00000000
00000000
00000000
00000000
00000000
00000000
00000000
00000000
00000000
00000000
00000000
00000000
00000000
00000000
00000000
00000000
00000000
00000000
00000000
00000000
00000000
00000000
00000000
00000000
00000000
00000000
00000000
00000000
00000000
00000000
00000000
00000000
00000000
00000000
00000000
00000000
00000000
00000000
00000000
00000000
00000000
00000000
00000000
00000000
00000000
00000000
00000000
00000000
00000000
00000000
00000000
00000000
00000000
00000000
00000000
00000000
00000000
00000000
00000000
;

//---------------dance-double - ----------------
#NOTEDATA:;
#CHARTNAME:;
#STEPSTYPE:dance-double;
#DESCRIPTION:;
#CHARTSTYLE:;
#DIFFICULTY:Hard;
#METER:6;
#RADARVALUES:0.208515,0.220244,0.028434,0.056868,0.000000,145.000000,3.000000,6.000000,0.000000,0.000000,0.000000,0.000000,0.000000,0.208515,0.220244,0.028434,0.056868,0.000000,145.000000,3.000000,6.000000,0.000000,0.000000,0.000000,0.000000,0.000000;
#CREDIT:;
#NOTES:
// measure 0
00000000
00000000
00000000
00000000
,  // measure 1
00000000
00000000
00000000
00000000
,  // measure 2
00000000
00000000
00000000
00000000
,  // measure 3
00000000
00000000
00000000
00000000
,  // measure 4
00001000
00000000
00010000
00000000
00001000
00010000
00001000
00000000
,  // measure 5
00010000
00000000
00001000
00000000
00010000
00001000
00010000
00000000
,  // measure 6
00001000
00000000
00000100
00000000
00000001
00000010
00001000
00000001
,  // measure 7
00002002
00000000
00000000
00003003
,  // measure 8
00001000
00000010
00001000
00000010
00001000
00000000
00000000
00001000
,  // measure 9
00010000
00001000
00010000
00001000
00010000
00000000
00000000
00010000
,  // measure 10
01000000
00010000
01000000
00100000
10000000
00000000
00000000
10000000
,  // measure 11
01000000
00100000
00010000
00100000
01000000
00000000
00000000
00000000
,  // measure 12
10000000
00010000
10000000
00000000
01000000
00000000
00100000
00000000
,  // measure 13
00010000
00001000
00010000
00011000
,  // measure 14
00002000
00000000
00003000
00000000
,  // measure 15
00020000
00000000
00030000
00000000
,  // measure 16
00001000
00000000
00000000
00000000
00000000
00000000
00000010
00000010
,  // measure 17
00000010
00000010
00000000
00000000
00000000
00000000
00000100
00000100
,  // measure 18
00000100
00001000
00000100
00000000
00001000
00010000
00001000
00000000
,  // measure 19
00010000
00100000
01000000
10000000
01000000
00100000
00010000
00000000
,  // measure 20
10000000
00000000
00000000
00010000
10000000
00000000
00010000
00000000
,  // measure 21
00010000
00000000
00000000
00010000
00001000
00000000
00000010
00000000
,  // measure 22
00000100
00000000
00000000
00000001
00000100
00000000
00000010
00000000
,  // measure 23
00001000
00000000
00000000
00010000
00001000
00000000
00000000
00001000
,  // measure 24
00010000
00001000
00010000
00001000
00010000
00000000
00000000
00010000
,  // measure 25
10000000
00010000
10000000
00010000
10000000
00000000
00000000
10000000
,  // measure 26
01000000
00100000
00010000
00100000
00010000
00000000
00000000
00100000
,  // measure 27
00010000
00001000
00000010
00000100
00000001
00000000
00000000
00000000
,  // measure 28
00000001
00000100
00000010
00001000
00000100
00001000
00010000
00001000
,  // measure 29
00010000
00001000
00010000
00001000
,  // measure 30
00011000
00010000
00100000
01000000
,  // measure 31
10000000
00000000
00000000
00000000
10000000
00010000
10000000
01000000
,  // measure 32
00100000
00010000
00010000
00001000
,  // measure 33
00001000
00000001
00000100
00000010
00001000
00000000
00000001
00000000
,  // measure 34
00000200
00000000
00000000
00000300
00000000
00000000
00000100
00000000
,  // measure 35
00000020
00000000
00000030
00000010
;
