#TITLE:Little Princess;
#SUBTITLE:;
#ARTIST:Sota F.;
#TITLETRANSLIT:;
#SUBTITLETRANSLIT:;
#ARTISTTRANSLIT:;
#GENRE:;
#CREDIT:Chewi☆;
#MENUCOLOR:#FFFFFF;
#METERTYPE:DDR X;
#BANNER:Little Princess.png;
#BACKGROUND:Little Princess-bg.png;
#LYRICSPATH:;
#CDTITLE:./CDTITLES/DanceDanceRevolution skyMIX2 -FREEDOM-.png;
#MUSIC:Little Princess.mp3;
#OFFSET:-0.440;
#SAMPLESTART:60.439;
#SAMPLELENGTH:15.000;
#SELECTABLE:YES;
#LISTSORT:;
#BPMS:0.000=128.000;
#STOPS:;
#BGCHANGES:;
#ATTACKS:;

//---------------dance-single - Chewi----------------
#NOTES:
     dance-single:
     Chewi:
     Easy:
     3:
     0.184,0.303,0.097,0.058,0.000:
0000
0000
0000
0000
,
0000
0000
0000
0000
,
0000
0000
0000
0000
,
0000
0000
0000
0000
,
1000
0001
1000
0000
,
0000
0000
0000
0000
,
0100
0010
0100
0000
,
0000
0000
0000
0000
,
0001
1000
0001
0000
,
0000
0000
0000
0000
,
0100
0010
0100
0000
,
0000
0000
0000
0000
,
0010
1000
0100
0000
,
0000
0000
0000
0000
,
0010
0001
0100
0000
,
0000
0000
0000
0000
,
0100
0100
0100
0100
,
0010
0010
0010
0010
,
1000
1000
1000
1000
,
0001
0001
0001
0001
,
0010
0010
0010
0010
,
1000
1000
1000
1000
,
0100
0100
0100
0100
,
0001
0001
0001
0001
,
2000
0000
0000
3000
,
0001
1000
0001
0000
,
0002
0000
0000
0003
,
0001
1000
0001
0000
,
0200
0000
0000
0300
,
0100
0010
0100
0000
,
0020
0000
0000
0030
,
0010
0100
0010
0000
,
0010
1000
0100
0001
,
0010
0000
0000
0000
,
0010
0001
0100
1000
,
0010
0000
0000
0000
,
0100
1000
0010
0001
,
0100
0000
0000
0000
,
0100
0001
0010
1000
,
0100
0000
0000
0000
,
1001
0110
1001
0110
,
1001
0000
0000
0000
,
1001
0110
1001
0110
,
1001
0000
0000
0000
,
0100
0001
0010
1000
,
0100
0000
0000
0000
,
1000
0100
0001
0010
,
1000
0000
0000
0000
,
0200
0000
0000
0300
,
0100
0010
0100
0010
,
0020
0000
0000
0030
,
0010
0100
0010
0100
,
0010
0000
0000
0000
;

//---------------dance-single - Chewi----------------
#NOTES:
     dance-single:
     Chewi:
     Medium:
     5:
     0.244,0.429,0.116,0.233,0.000:
0000
0000
0000
0000
,
0000
0000
0000
0000
,
0000
0000
0000
0000
,
0000
0000
0000
0000
,
1000
0100
0001
0000
,
0000
0000
0000
0000
,
0001
0010
1000
0000
,
0000
0000
0000
0000
,
1000
0100
0010
0000
,
0000
0000
0000
0000
,
0010
1000
0100
0000
,
0000
0000
0000
0000
,
0001
0100
0010
0000
,
0000
0000
0000
0000
,
0010
0001
0100
0000
,
0000
0000
0000
0000
,
0010
0100
0010
0100
,
0010
0000
0100
0000
0010
0010
0010
0000
,
1000
0001
1000
0001
,
1000
0000
0001
0000
1000
1000
1000
0000
,
0001
0100
0001
0100
,
0001
0000
0100
0000
0001
0001
0001
0000
,
1000
0100
1000
0100
,
1000
0000
0100
0000
1000
1000
1000
0000
,
2000
0000
0010
0000
,
0001
0000
3100
0000
,
0002
0000
0100
0000
,
1000
0000
0013
0000
,
0020
0000
1000
0000
,
0100
0000
0031
0000
,
0200
0000
0001
0000
,
1000
0000
0310
0000
,
0010
0110
1000
1001
,
0002
0000
0000
0003
,
0001
1001
0010
0110
,
0200
0000
0000
0300
,
0010
0001
0100
1000
,
0010
1000
0100
0001
,
0220
0330
2002
3003
,
2000
3020
0230
0302
,
0103
0110
0001
1001
,
2000
0000
0000
3000
,
1000
1001
0100
0110
,
0020
0000
0000
0030
,
0100
1000
0010
0001
,
0100
0001
0010
1000
,
0220
0330
2002
3003
,
0002
0203
0320
2030
,
3001
0000
0001
0000
1000
0001
1000
0000
,
0001
0000
0001
0000
1000
0001
1000
0000
,
0010
0000
0010
0000
0100
0010
0100
0000
,
0100
0000
0100
0000
0010
0100
0010
0100
,
0010
0000
0000
0000
;

//---------------dance-single - Chewi----------------
#NOTES:
     dance-single:
     Chewi:
     Beginner:
     2:
     0.127,0.176,0.087,0.136,0.000: // measure 1
0000
0000
0000
0000
,  // measure 2
0000
0000
0000
0000
,  // measure 3
0000
0000
0000
0000
,  // measure 4
0000
0000
0000
0000
,  // measure 5
2000
0000
0000
0000
,  // measure 6
3000
0000
0000
0000
,  // measure 7
0002
0000
0000
0000
,  // measure 8
0003
0000
0000
0000
,  // measure 9
0200
0000
0000
0000
,  // measure 10
0300
0000
0000
0000
,  // measure 11
0020
0000
0000
0000
,  // measure 12
0030
0000
0000
0000
,  // measure 13
2000
0000
0000
0000
,  // measure 14
3000
0000
0000
0000
,  // measure 15
0002
0000
0000
0000
,  // measure 16
0003
0000
0000
0000
,  // measure 17
0100
0000
0100
0000
,  // measure 18
0100
0000
0100
0000
,  // measure 19
0010
0000
0010
0000
,  // measure 20
0010
0000
0010
0000
,  // measure 21
1000
0000
1000
0000
,  // measure 22
1000
0000
1000
0000
,  // measure 23
0001
0000
0001
0000
,  // measure 24
0001
0000
0001
0000
,  // measure 25
0002
0000
0000
0003
,  // measure 26
0001
0001
0001
0000
,  // measure 27
0200
0000
0000
0300
,  // measure 28
0100
0100
0100
0000
,  // measure 29
0020
0000
0000
0030
,  // measure 30
0010
0010
0010
0000
,  // measure 31
2000
0000
0000
3000
,  // measure 32
1000
1000
1000
0000
,  // measure 33
1001
0000
0100
0100
,  // measure 34
0200
0000
0000
0300
,  // measure 35
0010
0000
0010
0010
,  // measure 36
0020
0000
0000
0030
,  // measure 37
0110
0000
0000
0000
,  // measure 38
1001
0000
0000
0000
,  // measure 39
1000
0000
0100
0000
,  // measure 40
0001
0000
0010
0000
,  // measure 41
0110
0000
0100
0100
,  // measure 42
0200
0000
0000
0300
,  // measure 43
0100
0000
0010
0010
,  // measure 44
0020
0000
0000
0030
,  // measure 45
1001
0000
0000
0000
,  // measure 46
0110
0000
0000
0000
,  // measure 47
0001
0000
0010
0000
,  // measure 48
1000
0000
0100
0000
,  // measure 49
0110
0000
0000
0000
,  // measure 50
0000
0000
0000
0000
,  // measure 51
1001
0000
0000
0000
,  // measure 52
0000
0000
0000
0000
,  // measure 53
0110
0000
0000
0000
;

//---------------dance-single - Chewi----------------
#NOTES:
     dance-single:
     Chewi:
     Hard:
     8:
     0.378,0.378,0.078,0.417,0.000:
0000
0000
0000
0000
,
0000
0000
0000
0000
,
0000
0000
0000
0000
,
0000
0000
0000
0000
,
1000
0100
0010
0000
0000
0000
0000
0000
,
0000
0000
0000
0000
,
0001
0100
0010
0000
0000
0000
0000
0000
,
0000
0000
0000
0000
,
1000
0001
1000
0000
0001
0000
1000
0000
,
0100
0010
0100
0000
0010
0000
0100
0000
,
0010
0001
0100
0000
1000
0000
0010
0000
,
0010
1000
0100
0000
0001
0000
0010
0000
,
0100
0010
0100
0000
0010
0000
0110
0000
,
0001
1000
0001
0000
1000
0000
1001
0000
,
0001
0100
0010
0000
1000
0000
1100
0000
,
1000
0100
0010
0000
0001
0000
0101
0000
,
0001
0100
0010
1000
0001
0000
1000
0001
,
1000
0000
0100
0010
0100
0000
0110
0000
,
0001
0010
0100
1000
0010
0000
1000
0010
,
1000
0000
0010
1000
0010
0000
0100
0000
,
0010
0100
0001
1000
0100
0000
0010
0100
,
0010
0000
0100
0010
0100
0000
0110
0000
,
0010
0001
0100
0010
1000
0000
0100
0010
,
1000
0000
0100
0010
0001
1000
0100
0010
,
0001
0100
0010
1000
0010
0000
0000
0000
,
1000
0010
0100
0001
0010
1000
0100
0001
,
0001
0010
0100
1000
0010
0000
0000
0000
,
0100
0010
1000
0001
0010
0100
1000
0010
,
1000
0100
0010
0001
0010
0000
0000
0000
,
0001
0010
0100
1000
0010
0100
0001
0000
,
0100
0010
1000
0001
0010
0100
0000
0000
,
0100
0010
0001
1000
0010
0100
0001
0100
,
0020
2030
3200
0302
,
0023
0000
0100
1000
,
0230
0302
0023
2030
,
3200
0000
1000
0001
,
2300
3020
0230
0302
,
0023
0000
0001
1000
,
0230
0000
0320
0000
,
0032
0203
0320
2030
,
3002
0203
0320
2030
,
3200
0000
0001
1000
,
0302
0023
2030
3200
,
0320
0000
0001
1000
,
0032
0203
0320
2030
,
3002
0000
0200
0303
,
1020
0000
2000
0030
,
3200
0302
0023
2030
,
3010
0000
0100
0000
0010
1000
0100
0000
,
0010
0000
0100
0000
0100
0100
0100
0000
,
0010
0000
0100
0000
0010
0001
0100
0000
,
0010
0000
0100
0000
0010
0010
0010
0000
,
1001
0000
0000
0000
;
