#TITLE:Lil Hipster Girl;
#SUBTITLE:;
#ARTIST:LMFAO;
#TITLETRANSLIT:;
#SUBTITLETRANSLIT:;
#ARTISTTRANSLIT:;
#GENRE:;
#CREDIT:Chewphoria~;
#BANNER:Lil Hipster Girl.png;
#BACKGROUND:Lil Hipster Girl-bg.png;
#LYRICSPATH:;
#CDTITLE:;
#MUSIC:Lil Hipster Girl.mp3;
#OFFSET:-7.513816;
#SAMPLESTART:33.780998;
#SAMPLELENGTH:15.000000;
#SELECTABLE:YES;
#DISPLAYBPM:128.000000;
#BPMS:0.000000=127.989990
;
#STOPS:
;
#BGCHANGES:;
#KEYSOUNDS:;
#ATTACKS:;

//---------------dance-single - Chewphoria~----------------
#NOTES:
     dance-single:
     Chewphoria~:
     Beginner:
     2:
     0.120565,0.242915,0.044419,0.111047,0.000000,76.000000,72.000000,4.000000,10.000000,0.000000,0.000000,0.120565,0.242915,0.044419,0.111047,0.000000,76.000000,72.000000,4.000000,10.000000,0.000000,0.000000:
1000
1000
1000
0000
,
0001
0001
0001
0000
,
0100
0100
0100
0000
,
0010
0010
0010
0000
,
0020
0000
0000
0000
,
0000
0000
0000
0030
,
0010
0000
0100
0000
,
0100
0100
0100
0000
,
1000
0000
0001
0000
,
0001
0001
0001
0000
,
0010
0000
0100
0000
,
0100
0100
0100
0000
,
1000
0000
0001
0000
,
0001
0001
0001
0000
,
2002
0000
0000
0000
,
0000
0000
0000
3003
,
1000
0000
0000
0000
,
0000
0000
0000
0000
,
0220
0000
0000
0000
,
0000
0000
0000
0330
,
0010
0000
0000
0000
,
1000
1000
0001
0001
,
0002
0000
0000
0000
,
0000
0000
0000
0003
,
1000
0000
0010
0000
,
0001
0000
0100
0000
,
1000
0000
0100
0000
,
0001
0000
0010
0000
,
0020
0000
0000
0000
,
0000
0000
0000
0000
,
0000
0000
0000
0030
,
0010
0000
0000
0000
,
0200
0000
0000
0000
,
0000
0000
0000
0300
,
0100
0000
0000
0000
,
0000
0000
0000
0000
,
1000
1000
1000
0000
,
0001
0001
0001
1001
,
0100
0100
0100
0000
,
0010
0010
0010
0110
,
2000
0000
0000
0000
,
0000
0000
3000
1000
,
0002
0000
0000
0000
,
0000
0000
0003
0001
;

//---------------dance-single - Chewphoria~----------------
#NOTES:
     dance-single:
     Chewphoria~:
     Easy:
     5:
     0.241131,0.315790,0.155466,0.222094,0.000000,152.000000,138.000000,14.000000,20.000000,0.000000,0.000000,0.241131,0.315790,0.155466,0.222094,0.000000,152.000000,138.000000,14.000000,20.000000,0.000000,0.000000:
1000
1000
1000
1000
,
0010
0010
0010
0010
,
0100
0100
0100
0100
,
0001
0001
0001
0001
,
0002
0000
0000
0000
,
2003
0000
0000
0000
,
3010
0100
0100
0010
,
1000
0100
0001
0010
,
0100
0010
0010
0100
,
1000
0010
0001
0100
,
1000
0001
1000
1000
,
0001
1000
0001
0001
,
0000
0010
0110
0100
,
0110
1000
0001
1000
,
0200
0000
0000
1000
,
2300
0000
0000
0010
,
3020
0000
0000
0100
,
0230
0000
0000
0001
,
0302
0000
0000
0010
,
0023
0000
0000
0100
,
0230
0000
0000
1000
,
2300
0000
0001
0010
,
3002
0000
0000
0100
,
0203
0000
0000
0310
,
0010
0110
0100
0101
,
0001
1001
1000
0002
,
1003
1100
0100
0110
,
0010
0011
0001
2000
,
3001
0100
0010
1000
,
0001
1000
0001
1000
,
1000
0100
0010
0001
,
1000
0001
1000
0001
,
0001
0010
0100
1000
,
0010
0100
0010
0100
,
1000
0010
0100
0001
,
0010
0100
0010
0100
,
2002
0000
0000
0000
,
0000
0000
3003
0100
,
0220
0000
0000
0000
,
0000
0000
0330
0010
,
1000
1100
0001
0101
,
0010
0100
0020
0130
,
1000
1010
0001
0011
,
0100
0010
0200
0310
;

//---------------dance-single - Chewphoria~----------------
#NOTES:
     dance-single:
     Chewphoria~:
     Medium:
     7:
     0.309345,0.364373,0.222094,0.244303,0.000000,195.000000,175.000000,20.000000,22.000000,0.000000,0.000000,0.309345,0.364373,0.222094,0.244303,0.000000,195.000000,175.000000,20.000000,22.000000,0.000000,0.000000:
1000
0000
1000
0000
1000
0000
1000
0001
,
0001
0000
0001
0000
0001
0000
0001
0010
,
0010
0000
0010
0000
0010
0000
0010
0100
,
0100
0100
0100
0100
,
2200
0000
0000
0000
0000
0000
0000
0300
,
0002
0000
0000
3003
,
1000
1000
1000
0000
0010
0100
0010
0000
,
0101
1100
1010
0011
,
0010
0100
0010
0000
0001
1000
0001
0000
,
2000
0100
0010
3001
,
0001
1000
0001
0000
0100
0000
1000
0000
,
0010
0000
0001
0000
0010
0100
0010
0000
,
0001
0011
1000
1100
,
0001
1000
0001
0000
0100
0100
0100
0000
,
2010
0100
0001
0100
,
3002
0000
0100
0000
0010
0000
0100
0100
,
2003
0010
0001
0100
,
3020
0100
1000
1000
,
2030
0000
0001
0000
0010
0000
0001
0001
,
3002
0000
0010
0000
0100
0000
1000
1000
,
2003
0010
0100
3001
,
1000
0000
1001
0000
0001
1000
0001
0000
,
0202
0000
0000
0000
0000
0000
0000
0300
,
2000
0000
0000
3003
,
1000
0100
0010
0000
0001
0000
0011
0000
,
0001
0100
0010
0000
1000
0000
1010
0000
,
1000
0001
0100
0000
0010
0000
0110
0000
,
1000
0001
0010
0000
0100
0000
0110
0000
,
0012
0100
1000
0010
,
2003
0100
0001
0010
,
3020
0000
0000
0000
,
0030
0000
0000
0000
,
0102
0010
1000
0100
,
2003
0100
0001
0010
,
3020
0000
0000
0000
,
0030
0000
0000
0000
,
0100
0010
1000
0001
,
0100
0000
0010
0000
0001
0001
1001
0000
,
1000
0100
0010
0001
,
0100
0000
0010
0000
1000
1000
1001
0000
,
2100
0001
0010
0001
,
0010
0010
0010
0000
0100
0010
3001
0000
,
0102
1000
0010
0100
,
1000
1000
1000
0000
0010
0010
0013
0000
;

//---------------dance-single - Chewphoria~----------------
#NOTES:
     dance-single:
     Chewphoria~:
     Hard:
     13:
     0.494952,0.633384,0.421978,0.199885,0.277617,312.000000,274.000000,38.000000,18.000000,0.000000,0.000000,0.494952,0.633384,0.421978,0.199885,0.277617,312.000000,274.000000,38.000000,18.000000,0.000000,0.000000:
1000
0000
1000
0000
1000
0000
1000
0001
,
0100
0000
0100
0000
0100
0000
0100
1000
,
0010
0000
0010
0000
0010
0000
0010
0100
,
0001
0001
0001
0001
,
2002
0000
0000
3003
,
0220
0000
0000
0330
,
1000
0000
1100
0000
0001
0010
0001
0000
,
0001
0010
0100
0000
1000
0100
1100
0000
,
0001
0101
1000
1010
,
0001
0010
1000
0100
0001
0100
1000
0010
,
0001
0011
1000
1100
,
0001
1000
0001
0000
1000
0001
1000
0000
,
0010
0100
0010
0010
0010
1000
0001
0100
,
0100
1000
0001
1000
0010
0100
0001
0000
,
0102
0000
1000
0000
0010
0000
1000
1003
,
2100
0000
0001
0000
0010
0000
0100
3100
,
0120
0000
1000
0000
0100
0100
0100
1030
,
2100
0000
0001
0000
0010
0000
0001
3000
,
0102
0000
1000
0000
0010
0000
0100
0103
,
2010
0000
0010
0000
0001
0000
0100
3100
,
0012
0000
1000
0000
0100
0000
0010
0010
,
1003
1000
0100
0000
0010
0000
0001
0000
,
0101
0000
0000
0000
0000
0000
1100
0000
0000
0000
0000
0000
0101
0000
0000
0000
0000
0000
1000
0010
0000
0000
0000
0001
,
0100
0000
1100
0000
0001
0100
0001
0000
,
1000
0010
0000
1000
0001
1000
0001
0000
1000
0100
0000
0100
0010
0100
0010
0000
,
0001
0010
0000
0100
0010
0100
0010
0000
0100
1000
0000
0001
1000
0001
1000
0000
,
0010
1000
0000
0001
0100
0001
0100
0000
0010
1000
0000
0001
1000
0001
1000
0000
,
0100
1000
0000
0001
0010
0001
0010
0000
0100
1000
0000
0001
1000
0001
1000
0000
,
0102
0000
1000
0000
0010
0000
1000
1003
,
2100
0000
0001
0000
0010
0000
0100
3100
,
0120
0000
1000
0000
0100
0100
0100
1030
,
2100
0000
0001
0000
0010
0000
0001
3000
,
0102
0000
1000
0000
0010
0000
0100
0103
,
2010
0000
0010
0000
0001
0000
0100
3100
,
0012
0000
1000
0000
0100
0000
0010
0010
,
1003
1000
0100
0000
0010
0000
0001
0000
,
0101
1100
0101
1010
,
0101
0000
1100
0000
0001
0100
0001
0000
,
1010
0101
0011
1100
,
0110
0000
1001
0000
0001
1000
0001
0000
,
1000
0010
0000
1000
0001
1000
0001
0000
1000
0100
0000
0100
0010
0100
0010
0000
,
0001
0010
0000
0100
0010
0100
0010
0000
0100
1000
0000
0001
1000
0001
1000
0000
,
0010
1000
0000
0001
0100
0001
0100
0000
0010
1000
0000
0001
1000
0001
1000
0000
,
0100
1000
0000
0001
0010
0001
0010
0000
0100
1000
0000
0001
1000
0001
1000
0000
;
