#TITLE:Let's me say good bye;
#SUBTITLE:;
#ARTIST:彩月あみ;
#TITLETRANSLIT:;
#SUBTITLETRANSLIT:;
#ARTISTTRANSLIT:AYATSUKI AMI;
#GENRE:;
#CREDIT:Chewi☆;
#MENUCOLOR:#FFFFFF;
#METERTYPE:DDR X;
#BANNER:Let's me say good bye.png;
#BACKGROUND:Let's me say good bye-bg.png;
#LYRICSPATH:;
#CDTITLE:./CDTITLES/DanceDanceRevolution skyMIX3 -breeze-.png;
#MUSIC:Let's me say good bye.mp3;
#OFFSET:-0.525;
#SAMPLESTART:68.855;
#SAMPLELENGTH:15.000;
#SELECTABLE:YES;
#LISTSORT:;
#DISPLAYBPM:130.000;
#BPMS:0.000=130.000;
#STOPS:;
#BGCHANGES:;
#ATTACKS:;

//---------------dance-single - Chewi----------------
#NOTES:
     dance-single:
     Chewi:
     Beginner:
     1:
     0.073,0.102,0.017,0.017,0.004:
0000
0000
0000
0000
,
0000
0000
0000
0000
,
0000
0000
0000
0000
,
0000
0000
0000
0000
,
0000
0000
0000
0000
,
1000
0000
0000
0000
,
0001
0000
0000
0000
,
1000
0000
0000
0000
,
0001
0000
0000
0000
,
0001
0000
0000
0000
,
1000
0000
0000
0000
,
0001
0000
0000
0000
,
1000
0000
0000
0000
,
0020
0000
0000
0030
,
0010
0000
0000
0000
,
2000
0000
0000
3000
,
1000
0000
0000
0000
,
0001
0000
0000
0000
,
0001
0000
0000
0000
,
1000
0000
0000
0000
,
1000
0000
0000
0000
,
0001
0000
0000
0000
,
0100
0000
0000
0000
,
1000
0000
0000
0000
,
0010
0000
0000
0000
,
0001
0000
0000
0000
,
0010
0000
0000
0000
,
1000
0000
0000
0000
,
0100
0000
0000
0000
,
1000
0000
0000
0000
,
0001
0000
0000
0000
,
0010
0000
0000
0000
,
0100
0000
0000
0000
,
1000
0000
0000
0000
,
0100
0000
0000
0000
,
0010
0000
0000
0000
,
0100
0000
0000
0000
,
0001
0000
0000
0000
,
0100
0000
0000
0000
,
1000
0000
0000
0000
,
0100
0000
0000
0000
,
0100
0000
0000
0000
,
0010
0000
0000
0000
,
1001
0000
0000
0000
,
1000
0000
0000
0000
,
1000
0000
0000
0000
,
0100
0000
0000
0000
,
0001
0000
0000
0000
,
0100
0000
0000
0000
,
0010
0000
0000
0000
,
1000
0000
0000
0000
,
1001
0000
0000
0000
,
1000
0000
0000
0000
,
1000
0000
0000
0000
,
0001
0000
0000
0000
,
0100
0000
0000
0000
,
0010
0000
0000
0000
,
1000
0000
0000
0000
,
0100
0000
0000
0000
,
0010
0000
0000
0000
,
0001
0000
0000
0000
,
0000
0000
0000
0000
0000
0010
0000
0000
0000
0000
0000
0000
0000
0000
0000
0000
;

//---------------dance-single - Chewi----------------
#NOTES:
     dance-single:
     Chewi:
     Easy:
     4:
     0.190,0.242,0.033,0.167,0.004: // measure 1
0000
0000
0000
0000
,  // measure 2
0000
0000
0000
0000
,  // measure 3
0000
0000
0000
0000
,  // measure 4
0000
0000
0000
0000
,  // measure 5
0010
0010
0010
0000
,  // measure 6
1000
0000
0100
0000
,  // measure 7
0001
0000
0010
0000
,  // measure 8
1000
0000
0100
0000
,  // measure 9
0001
0000
0010
0000
,  // measure 10
0001
0000
0100
0000
,  // measure 11
1000
0000
0010
0000
,  // measure 12
0001
0000
0100
0000
,  // measure 13
1000
0000
0010
0000
,  // measure 14
0020
0000
0000
0030
,  // measure 15
0100
0000
0100
0000
,  // measure 16
2000
0000
0000
0000
,  // measure 17
0000
0000
3000
1000
,  // measure 18
0001
0000
0100
0000
,  // measure 19
0001
0000
0100
0000
,  // measure 20
1000
0000
0100
0000
,  // measure 21
1000
0000
0100
0000
,  // measure 22
0001
0010
0100
0000
,  // measure 23
0100
0100
0100
0000
,  // measure 24
1000
0100
0010
0000
,  // measure 25
0010
0010
0010
0000
,  // measure 26
0001
0100
0010
0000
,  // measure 27
0010
0010
0010
0000
,  // measure 28
1000
0010
0100
0000
,  // measure 29
0100
0100
0100
0000
,  // measure 30
2000
3000
1000
0100
,  // measure 31
0001
0010
1000
0000
,  // measure 32
0010
0010
0010
0010
,  // measure 33
0100
0100
0100
0100
,  // measure 34
2000
3000
0100
0001
,  // measure 35
0100
1000
0010
0001
,  // measure 36
0010
0000
0010
0000
,  // measure 37
0100
0010
0100
0000
,  // measure 38
0002
0003
0001
0000
,  // measure 39
0100
0001
0010
0000
,  // measure 40
2000
3000
1000
0000
,  // measure 41
0100
1000
0010
0000
,  // measure 42
0200
0300
0010
0100
,  // measure 43
0020
0030
0010
0100
,  // measure 44
1001
0000
0110
0000
,  // measure 45
1000
0100
0001
0100
,  // measure 46
2000
3000
1000
0000
,  // measure 47
0100
0010
0100
0000
,  // measure 48
0002
0003
0001
0000
,  // measure 49
0100
0010
0100
0000
,  // measure 50
0020
0030
0001
0100
,  // measure 51
1000
0100
0001
0100
,  // measure 52
1001
0000
0110
0000
,  // measure 53
1000
0010
0001
0010
,  // measure 54
2000
0000
0000
0000
,  // measure 55
3002
0000
0000
0000
,  // measure 56
0203
0000
0000
0000
,  // measure 57
0320
0000
0000
0000
,  // measure 58
2030
0000
0000
0000
,  // measure 59
3200
0000
0000
0000
,  // measure 60
0320
0000
0000
0000
,  // measure 61
0032
0000
0000
0000
,  // measure 62
0003
0000
0000
0000
0000
0020
0000
0000
0000
0000
0000
0000
0000
0000
0000
0000
,  // measure 63
0000
0000
0000
0000
,  // measure 64
0000
0000
0000
0000
,  // measure 65
0000
0000
0030
0000
;

//---------------dance-single - Chewi----------------
#NOTES:
     dance-single:
     Chewi:
     Medium:
     9:
     0.303,0.349,0.183,0.167,0.133: // measure 1
0000
0000
0000
0000
,  // measure 2
0000
0000
0000
0000
,  // measure 3
0000
0000
0000
0000
,  // measure 4
0000
0000
0000
0000
,  // measure 5
0010
0100
0010
0100
0010
0000
0000
0000
,  // measure 6
0000
0000
0010
0000
0000
0010
0000
0000
0010
0000
0000
0010
0000
0000
0010
0000
,  // measure 7
0000
0000
0010
0000
0000
0010
0000
0000
0010
0000
0000
0010
0000
0000
0010
0000
,  // measure 8
0000
0000
0100
0000
0000
0100
0000
0000
0100
0000
0000
0100
0000
0000
0100
0000
,  // measure 9
0000
0000
0100
0000
0000
0100
0000
0000
0100
0000
0000
0100
0000
0000
0100
0000
,  // measure 10
0000
0000
0001
0000
0000
0001
0000
0000
0001
0000
0000
0001
0000
0000
0001
0000
,  // measure 11
0000
0000
0001
0000
0000
1000
0000
0000
0001
0000
0000
1000
0000
0000
0001
0000
,  // measure 12
0000
0000
1000
0000
0000
1000
0000
0000
1000
0000
0000
1000
0000
0000
1000
0000
,  // measure 13
0000
0000
0001
0000
0000
1000
0000
0000
0001
0000
0000
0000
1000
0000
0000
0000
,  // measure 14
2002
0000
0000
3000
,  // measure 15
0200
0000
0000
0000
0003
0000
0000
0000
0020
0000
0000
0300
0000
0000
0000
0000
,  // measure 16
2000
0000
0000
0000
,  // measure 17
0000
0000
3030
1000
,  // measure 18
2100
0000
3002
0000
,  // measure 19
0023
0000
2030
0000
,  // measure 20
3020
0000
0000
0000
0000
0000
0000
0130
,  // measure 21
0000
0000
0000
0010
0000
0000
0000
0000
,  // measure 22
0100
0001
0010
1000
,  // measure 23
0100
1000
0010
0001
,  // measure 24
0100
0010
1000
0001
,  // measure 25
0010
0100
1000
0001
,  // measure 26
1000
0010
0100
0001
,  // measure 27
1000
0100
0010
0001
,  // measure 28
1000
0100
0001
0100
,  // measure 29
0010
0010
0010
0000
0100
0100
0100
0000
,  // measure 30
0020
0031
1000
0100
,  // measure 31
0001
0100
1001
0000
,  // measure 32
0010
0100
0001
1000
,  // measure 33
0100
0010
0110
0000
,  // measure 34
0200
1300
0100
1000
,  // measure 35
0010
0001
0011
0000
,  // measure 36
0110
0000
1001
0000
,  // measure 37
0101
1100
0101
0000
,  // measure 38
2000
0000
3010
0100
,  // measure 39
0001
0000
0010
0010
0010
0000
0000
0000
,  // measure 40
0200
0000
0000
0000
0000
0000
0000
0300
0010
0000
0000
0000
0001
0000
0000
0000
,  // measure 41
0100
1000
0010
0100
,  // measure 42
0002
0000
0103
0100
,  // measure 43
0010
0000
1000
1000
1000
0000
1000
0000
,  // measure 44
0011
0000
0110
0000
,  // measure 45
1100
0101
1100
0000
,  // measure 46
2000
0000
3010
0100
,  // measure 47
0001
0000
0010
0010
0010
0000
0100
0000
,  // measure 48
0020
0000
0031
0100
,  // measure 49
1000
0010
0100
0001
,  // measure 50
0200
0000
0310
0100
,  // measure 51
0001
0000
1000
1000
1000
0000
0001
0000
,  // measure 52
0011
0000
1100
0000
,  // measure 53
1010
0011
0101
1100
,  // measure 54
0000
0000
1000
0000
0000
1000
0000
0000
1000
0000
0000
1000
0000
0000
1000
0000
,  // measure 55
0000
0000
1000
0000
0000
1000
0000
0000
1000
0000
0000
1000
0000
0000
1000
0000
,  // measure 56
0000
0000
0001
0000
0000
0001
0000
0000
0001
0000
0000
0001
0000
0000
0001
0000
,  // measure 57
0000
0000
0001
0000
0000
0001
0000
0000
0001
0000
0000
0001
0000
0000
0001
0000
,  // measure 58
0000
0000
0010
0000
0000
0010
0000
0000
0010
0000
0000
0010
0000
0000
0010
0000
,  // measure 59
0000
0000
0010
0000
0000
0100
0000
0000
0010
0000
0000
0100
0000
0000
0010
0000
,  // measure 60
0000
0000
0100
0000
0000
0100
0000
0000
0100
0000
0000
0100
0000
0000
0100
0000
,  // measure 61
0000
0000
0100
0000
0000
0010
0000
0000
0100
0000
0000
0010
0000
0000
0100
0000
,  // measure 62
0000
0000
0000
0000
0000
2002
0000
0000
0000
0000
0000
0000
0000
0000
0000
0000
,  // measure 63
0000
0000
0000
0000
,  // measure 64
0000
0000
0000
0000
,  // measure 65
0000
0000
3003
0000
;

//---------------dance-single - Chewi----------------
#NOTES:
     dance-single:
     Chewi:
     Hard:
     11:
     0.381,0.484,0.108,0.100,0.175: // measure 1
0000
0000
0000
0000
,  // measure 2
0000
0000
0000
0000
,  // measure 3
0000
0000
0000
0000
,  // measure 4
0000
0000
0000
0000
,  // measure 5
1000
0100
0001
0100
1000
0000
0000
0000
,  // measure 6
0000
0000
1000
0000
0000
1000
0000
0000
1000
0000
0000
1000
0000
0000
1000
0000
,  // measure 7
0000
0000
0001
0000
0000
0001
0000
0000
0001
0000
0000
0001
0000
0000
0001
0000
,  // measure 8
0000
0000
0100
0000
0000
0100
0000
0000
0100
0000
0000
0100
0000
0000
0100
0000
,  // measure 9
0000
0000
0010
0000
0000
0010
0000
0000
0010
0000
0000
0010
0000
0000
0010
0000
,  // measure 10
0000
0000
0010
0000
0000
1000
0000
0000
0010
0000
0000
1000
0000
0000
0010
0000
,  // measure 11
0000
0000
0100
0000
0000
0001
0000
0000
0100
0000
0000
0001
0000
0000
0100
0000
,  // measure 12
0000
0000
0010
0000
0000
0100
0000
0000
0001
0000
0000
1000
0000
0000
0100
0000
,  // measure 13
0000
0000
0100
0000
0000
0010
0000
0000
0001
0000
0000
0000
0011
0000
0000
0000
,  // measure 14
0202
0000
0000
0003
,  // measure 15
0020
0300
2000
0030
,  // measure 16
0002
0000
0000
0000
,  // measure 17
0000
0000
0000
0000
3003
0000
0001
0010
,  // measure 18
0100
0000
0000
1000
0000
0010
0001
0100
,  // measure 19
0000
0000
0000
0010
0000
0000
0100
0000
,  // measure 20
2002
0000
0000
0000
0000
0000
3003
1000
,  // measure 21
0000
0000
0000
0001
0000
0000
1010
0000
,  // measure 22
1000
0100
0010
0000
0100
0010
0001
0000
,  // measure 23
1000
0100
0010
0000
0100
0010
0001
0000
,  // measure 24
1000
0001
0100
0000
0001
1000
0100
0000
,  // measure 25
1000
0001
0010
0000
0001
1000
0010
0000
,  // measure 26
0100
0010
1000
0000
0010
0001
0100
0000
,  // measure 27
0100
0010
0001
0000
0010
1000
0100
0000
,  // measure 28
0010
0100
0010
0000
0001
1000
0001
0000
,  // measure 29
0101
0000
1010
0000
1001
1000
1001
0000
,  // measure 30
0002
0000
0013
0100
1000
0010
0100
0001
,  // measure 31
0100
0010
1000
0001
0010
0000
0000
0000
,  // measure 32
0100
0100
0010
0010
0100
1000
0001
0100
,  // measure 33
0010
0100
0001
0010
0200
0000
0300
0000
,  // measure 34
0020
0000
0031
0010
0100
1000
0010
0100
,  // measure 35
0001
0100
0010
1000
0001
0000
0100
0000
,  // measure 36
1000
1000
0001
0001
0010
0100
1000
0001
,  // measure 37
1001
0110
1001
0000
,  // measure 38
0001
0000
0000
0000
0000
0000
0010
0000
0100
0000
0000
1000
0000
0000
0010
0000
,  // measure 39
0100
0000
0001
0000
0100
0000
0010
1000
0000
0000
0000
0000
0000
0000
0000
0000
,  // measure 40
1000
0000
0000
0000
0000
0000
0010
0000
0100
0000
0000
0001
0000
0000
0010
0000
,  // measure 41
0100
0010
0001
0000
0100
1000
0010
0000
,  // measure 42
0100
0000
0000
0000
0010
0000
1000
0000
0010
0000
0000
0001
0000
0000
0010
0000
,  // measure 43
0100
0010
0001
0000
0100
1000
0010
0000
,  // measure 44
0100
0000
0010
0000
0000
0000
0100
0000
0010
0000
0100
0001
0000
0000
0100
0000
,  // measure 45
0010
0010
0100
0100
0001
0010
0100
1000
,  // measure 46
0010
0000
0000
0000
0000
0000
1000
0000
0100
0000
0000
0010
0000
0000
0001
0000
,  // measure 47
0010
0000
0100
0000
1000
0000
0010
1000
0000
0000
0000
0000
0000
0000
0000
0000
,  // measure 48
1000
0000
0000
0000
0000
0000
0010
0000
0100
0000
0000
0001
0000
0000
0010
0000
,  // measure 49
0100
0010
0001
0000
0100
1000
0010
0000
,  // measure 50
0100
0000
0000
0000
0000
0000
0010
0000
1000
0000
0000
0001
0000
0000
0010
0000
,  // measure 51
0100
0010
0001
0000
0100
1000
0010
0100
,  // measure 52
0010
0000
1001
0000
0000
0000
0100
0000
0001
0000
1000
0010
0000
0000
0100
0000
,  // measure 53
0001
0100
1000
0010
1000
0100
0001
0010
,  // measure 54
1000
0000
0001
0000
0000
0001
0000
0000
0001
0000
0000
0001
0000
0000
0001
0000
,  // measure 55
0000
0000
1000
0000
0000
1000
0000
0000
1000
0000
0000
1000
0000
0000
1000
0000
,  // measure 56
0000
0000
0010
0000
0000
0010
0000
0000
0010
0000
0000
0010
0000
0000
0010
0000
,  // measure 57
0000
0000
0100
0000
0000
0100
0000
0000
0100
0000
0000
0100
0000
0000
0100
0000
,  // measure 58
0000
0000
0100
0000
0000
0001
0000
0000
0100
0000
0000
0001
0000
0000
0100
0000
,  // measure 59
0000
0000
0010
0000
0000
1000
0000
0000
0010
0000
0000
1000
0000
0000
0010
0000
,  // measure 60
0000
0000
0100
0000
0000
0010
0000
0000
1000
0000
0000
0001
0000
0000
0010
0000
,  // measure 61
0000
0000
0010
0000
0000
0100
0000
0000
1000
0000
0000
0100
0000
0000
0001
0000
,  // measure 62
0000
0000
0000
0000
0000
2002
0000
0000
0000
0000
0000
0000
0000
0000
0000
0000
,  // measure 63
0000
0000
0000
0000
,  // measure 64
0000
0000
0000
0000
,  // measure 65
0000
0000
3003
0000
;
