#VERSION:0.81;
#TITLE:Let Me Hit It (Audiostalkers Original Mix);
#SUBTITLE:;
#ARTIST:Sporty-O;
#TITLETRANSLIT:;
#SUBTITLETRANSLIT:;
#ARTISTTRANSLIT:;
#GENRE:;
#ORIGIN:;
#CREDIT:Chewi☆;
#BANNER:Let Me Hit It (Audiostalkers Original Mix).png;
#BACKGROUND:Let Me Hit It (Audiostalkers Original Mix)-bg.png;
#PREVIEWVID:;
#JACKET:Let Me Hit It (Audiostalkers Original Mix)-jacket.png;
#CDIMAGE:;
#DISCIMAGE:;
#LYRICSPATH:;
#CDTITLE:;
#MUSIC:Let Me Hit It (Audiostalkers Original Mix).mp3;
#OFFSET:-0.525;
#SAMPLESTART:67.559;
#SAMPLELENGTH:15.000;
#SELECTABLE:YES;
#BPMS:0.000=128.000,
143.000=256.000,
269.000=128.000;
#STOPS:142.000=0.469,
203.000=0.234,
204.000=0.234;
#DELAYS:;
#WARPS:;
#TIMESIGNATURES:0.000=4=4;
#TICKCOUNTS:0.000=4;
#COMBOS:0.000=1;
#SPEEDS:0.000=1.000=0.000=0;
#SCROLLS:0.000=1.000;
#FAKES:;
#LABELS:0.000=Song Start;
#BGCHANGES:;
#KEYSOUNDS:;
#ATTACKS:
;

//---------------dance-single - Chewi----------------
#NOTEDATA:;
#CHARTNAME:Chewi;
#STEPSTYPE:dance-single;
#DESCRIPTION:Chewi;
#CHARTSTYLE:Pad;
#DIFFICULTY:Beginner;
#METER:2;
#RADARVALUES:0.091,0.102,0.038,0.121,0.000,64.000,5.000,16.000,0.000,0.000,0.000,0.000,0.000,0.091,0.102,0.038,0.121,0.000,64.000,5.000,16.000,0.000,0.000,0.000,0.000,0.000;
#CREDIT:Chewi;
#OFFSET:-0.525;
#BPMS:0.000=128.000
;
#STOPS:142.000=0.469
,173.000=0.234
,173.500=0.234
;
#DELAYS:;
#WARPS:;
#TIMESIGNATURES:0.000=4=4
;
#TICKCOUNTS:0.000=4
;
#COMBOS:0.000=1
;
#SPEEDS:0.000=1.000=0.000=0
;
#SCROLLS:0.000=1.000
;
#FAKES:;
#LABELS:0.000=Song Start
;
#NOTES:
0000
0000
0000
0000
,
0000
0000
0000
0000
,
0000
0000
0000
0000
,
0000
0000
0000
0000
,
2000
0000
0000
3000
,
0002
0000
0000
0003
,
2000
0000
0000
3000
,
0002
0000
0000
0003
,
0200
0000
0000
0300
,
0020
0000
0000
0030
,
0200
0000
0000
0300
,
0020
0000
0000
0030
,
1000
0000
0000
0000
,
1000
0000
0000
0000
,
0001
0000
0000
0000
,
0001
0000
0000
0000
,
1001
0000
0000
0000
,
0110
0000
0000
0000
,
1001
0000
0000
0000
,
1001
0000
0000
0000
,
1000
0000
0000
0000
,
0100
0000
0000
0000
,
0010
0000
0000
0000
,
0001
0000
0000
0000
,
1000
0000
0000
0000
,
0001
0000
0000
0000
,
0100
0000
0000
0000
,
0010
0000
0000
0000
,
0100
0000
0000
0000
,
0100
0000
0000
0000
,
0010
0000
0000
0000
,
0010
0000
0000
0000
,
1000
0000
0000
0000
,
0001
0000
0000
0000
,
1001
0000
0000
0000
,
0000
0000
0000
0020
,
0000
0000
0030
0010
,
0000
0000
0000
2000
,
0000
0000
3000
1000
,
0000
0000
0000
0002
,
0000
0000
0003
0001
,
0000
0000
0000
2000
,
0000
0000
3000
1000
,
0000
0000
0002
0000
,
0000
0003
0001
0000
,
0000
0000
0020
0000
,
0000
0030
0010
0000
,
0000
0000
2000
0000
,
0000
3000
1000
0000
,
0000
0000
0200
0000
,
0000
0300
0100
0000
,
0000
0000
0100
0000
,
0000
0000
0100
0000
,
0000
0000
0010
0000
,
0000
0000
0010
0000
,
0000
0000
1000
0000
,
0000
0000
0100
0000
,
0000
0000
0001
0000
,
0000
0000
0100
0000
,
0000
0000
0010
0000
,
0000
0000
0010
0000
,
0000
0000
0100
0000
,
0000
0000
0010
0000
,
0000
0000
1000
0000
,
0000
0000
0001
0000
,
0000
0000
0001
0000
,
0000
0000
1000
0000
,
0000
0000
1000
0000
;

//---------------dance-single - Chewi----------------
#NOTEDATA:;
#CHARTNAME:Chewi;
#STEPSTYPE:dance-single;
#DESCRIPTION:Chewi;
#CHARTSTYLE:Pad;
#DIFFICULTY:Easy;
#METER:4;
#RADARVALUES:0.218,0.229,0.030,0.188,0.000,174.000,4.000,25.000,0.000,0.000,0.000,0.000,0.000,0.218,0.229,0.030,0.188,0.000,174.000,4.000,25.000,0.000,0.000,0.000,0.000,0.000;
#CREDIT:Chewi;
#OFFSET:-0.525;
#BPMS:0.000=128.000
;
#STOPS:142.000=0.469
,173.000=0.234
,173.500=0.234
;
#DELAYS:;
#WARPS:;
#TIMESIGNATURES:0.000=4=4
;
#TICKCOUNTS:0.000=4
;
#COMBOS:0.000=1
;
#SPEEDS:0.000=1.000=0.000=0
;
#SCROLLS:0.000=1.000
;
#FAKES:;
#LABELS:0.000=Song Start
;
#NOTES:
0000
0000
0000
0000
,
0000
0000
0000
0000
,
0000
0000
0000
0000
,
0000
0000
0000
0000
,
2000
0000
0000
3000
,
0200
0000
0000
0300
,
0002
0000
0000
0003
,
0020
0000
0000
0030
,
2000
0000
0000
3000
,
0020
0000
0000
0030
,
0002
0000
0000
0003
,
0200
0000
0000
0300
,
1000
0010
0001
0000
,
1000
0100
0001
0000
,
0001
0010
1000
0000
,
0001
0100
1000
0000
,
1001
0000
0100
0000
,
0110
0000
0010
0000
,
1001
0000
0100
0000
,
1001
0000
0010
0000
,
1000
0100
0001
0100
,
1000
0010
0001
0010
,
1000
0100
0001
0100
,
1000
0010
0001
0010
,
1000
0100
0010
0000
,
1000
0100
0010
0000
,
1000
0100
0001
0000
,
1000
0100
0001
0000
,
0010
0100
0001
0010
,
0100
0001
0010
1000
,
0100
0010
1000
0100
,
0010
1000
0100
0010
,
1000
1000
1000
1000
,
0001
0001
0001
0001
,
0200
0000
0000
0000
,
0000
0000
0000
0000
0000
0000
0000
0000
0000
0000
0000
0000
0000
0000
0000
0000
0000
0000
0000
0000
0000
0000
0000
0000
0000
0000
0000
0000
0000
0000
0000
0000
0000
0000
0000
0000
0000
0000
0000
0000
0000
0000
0000
0000
0000
0000
0000
0000
0000
0000
0000
0000
0000
0000
0000
0000
0000
0000
0000
0000
0000
0000
0000
0000
0000
0000
0000
0000
0000
0000
0000
0000
0000
0000
0000
0000
0000
0000
0000
0000
0000
0000
0000
0000
0000
0000
0000
0000
0000
0000
0000
0000
0000
0000
0000
0000
0000
0300
0000
0000
0000
0000
0000
0000
0000
0000
0000
0000
0000
0000
0000
0000
0000
0000
0000
0000
0000
0000
0000
0000
0000
0000
0000
0000
0000
0000
0000
0000
0000
0000
0000
0000
0000
0000
0000
0000
0000
0000
0000
0000
0000
0000
0000
0000
0010
0000
0000
0000
0000
0000
0000
0000
0000
0000
0000
0000
0000
0000
0000
0000
0000
0000
0000
0000
0000
0000
0000
0000
0000
0000
0000
0000
0000
0000
0000
0000
0000
0000
0000
0000
0000
0000
0000
0000
0000
0000
0000
0000
0000
0000
0000
0000
,
0010
0100
0100
0020
,
0000
0000
0030
1000
,
1000
0001
0001
2000
,
0000
0000
3000
0001
,
0001
0010
0010
0200
,
0000
0000
0300
0010
,
0010
0001
0001
0002
,
0000
0000
1003
0001
1000
0000
0001
0000
,
1000
0001
0200
0000
,
0000
0300
0010
0100
,
0010
0100
0002
0000
,
0000
0003
1000
0001
,
1000
0001
2000
0000
,
0000
3000
0100
0010
,
0100
1000
0200
0000
,
0000
0300
0010
0001
,
0100
1000
0000
1000
,
1000
0000
1000
0010
,
0001
0100
0000
0100
,
0100
0000
0100
0001
,
0010
1000
0000
1000
,
1000
0000
1000
0100
,
0010
0001
1000
0100
,
0001
0100
0020
0030
,
0020
0030
0010
0100
,
0001
1000
0200
0300
,
0200
0300
0010
0100
,
1000
0001
2000
3000
,
2000
3000
0001
0010
,
0100
1000
0002
0003
,
0002
0003
1000
0010
,
0100
0001
1000
0000
;

//---------------dance-single - Chewi----------------
#NOTEDATA:;
#CHARTNAME:Chewi;
#STEPSTYPE:dance-single;
#DESCRIPTION:Chewi;
#CHARTSTYLE:Pad;
#DIFFICULTY:Medium;
#METER:8;
#RADARVALUES:0.348,0.356,0.151,0.331,0.000,259.000,20.000,44.000,0.000,0.000,0.000,0.000,0.000,0.348,0.356,0.151,0.331,0.000,259.000,20.000,44.000,0.000,0.000,0.000,0.000,0.000;
#CREDIT:Chewi;
#OFFSET:-0.525;
#BPMS:0.000=128.000
;
#STOPS:142.000=0.469
,173.000=0.234
,173.500=0.234
;
#DELAYS:;
#WARPS:;
#TIMESIGNATURES:0.000=4=4
;
#TICKCOUNTS:0.000=4
;
#COMBOS:0.000=1
;
#SPEEDS:0.000=1.000=0.000=0
;
#SCROLLS:0.000=1.000
;
#FAKES:;
#LABELS:0.000=Song Start
;
#NOTES:
0000
0000
0000
0000
,
0000
0000
0000
0000
,
0000
0000
0000
0000
,
0000
0000
0000
0000
,
2000
0000
3002
0000
1003
0001
1000
0000
,
0002
0000
2003
0000
3001
1000
0001
0000
,
1000
0000
0001
0000
1000
0001
1000
0000
,
0001
1000
0001
0000
1001
0000
1001
0000
,
0020
0000
0230
0000
0310
0100
0010
0000
,
0200
0000
0320
0000
0130
0010
0100
0000
,
0010
0100
0010
0100
,
0010
0100
0010
0000
0110
0000
0110
0000
,
0010
1000
0100
0001
,
0010
1000
0100
0001
,
0010
1000
0100
0001
,
0010
1000
0100
0001
,
0010
0001
0100
1000
,
0010
0001
0100
1000
,
0010
0001
0100
1000
,
0010
0001
0100
1000
,
0010
1000
0001
0101
,
0010
0001
1000
1100
,
0001
1000
0010
0110
,
1000
0001
0010
0110
,
0001
0100
1000
0001
,
0001
0010
1000
1000
,
1000
0100
0001
0001
,
1000
0010
0001
0001
,
0010
0100
0100
0100
,
0010
0001
0001
0001
,
1000
0010
0010
0010
,
0100
0010
0010
0010
,
0010
1000
0010
0000
1000
0000
1000
0000
,
1000
0010
1000
0000
0010
0000
0010
0000
,
1000
0100
0001
0010
,
1000
0000
0000
0000
0000
0000
0000
0000
0000
0000
0000
0000
0000
0000
0000
0000
0000
0000
0000
0000
0000
0000
0000
0000
0000
0000
0000
0000
0000
0000
0000
0000
0000
0000
0000
0000
0000
0000
0000
0000
0000
0000
0000
0000
0000
0000
0000
0000
0100
0000
0000
0000
0000
0000
0000
0000
0000
0000
0000
0000
0000
0000
0000
0000
0000
0000
0000
0000
0000
0000
0000
0000
0000
0000
0000
0000
0000
0000
0000
0000
0000
0000
0000
0000
0000
0000
0000
0000
0000
0000
0000
0000
0000
0000
0000
0000
0020
0030
0000
0000
0000
0000
0000
0000
0000
0000
0000
0000
0000
0000
0000
0000
0000
0000
0000
0000
0000
0000
0000
0000
0000
0000
0000
0000
0000
0000
0000
0000
0000
0000
0000
0000
0000
0000
0000
0000
0000
0000
0000
0000
0000
0000
0000
0000
0200
0000
0000
0000
0000
0000
0000
0000
0000
0000
0000
0000
0000
0000
0000
0000
0000
0000
0000
0000
0000
0000
0000
0000
0000
0000
0000
0000
0000
0000
0000
0000
0000
0000
0000
0000
0000
0000
0000
0000
0000
0000
0000
0000
0000
0000
0000
0000
,
0320
0230
0320
0031
,
0010
0100
1000
0200
,
2300
3200
2300
3100
,
0100
0100
0100
0020
,
0032
0023
0032
1003
,
0100
1000
0001
0200
,
0320
0230
0320
0130
,
0100
0000
0010
0010
0002
0000
0023
0000
,
0032
0023
0031
0010
,
0100
1000
0200
2300
,
3200
2300
3010
0010
,
0010
0010
0200
0320
,
0230
0320
0130
0001
,
0010
0001
2000
3002
,
2003
3001
2002
0000
,
0000
0000
0000
0000
0000
3003
0010
0000
0000
0010
0000
0000
,
0100
0110
0000
0010
,
0100
0001
0100
0000
,
0001
1000
0001
0010
,
0100
1000
0010
0000
,
0100
0010
0000
0001
,
0100
0010
0220
0000
,
0330
0000
0010
0100
,
0001
1000
1100
0101
,
1000
0001
1000
0000
0001
0000
0010
0000
,
0100
1000
1010
1001
,
0010
0001
0100
0000
0010
0000
0010
0000
,
0010
0010
0101
0011
,
0001
1000
0100
0000
1000
0000
0010
0000
,
0100
0001
0011
0101
,
0001
0010
0100
0000
1000
0000
0001
0000
,
1000
0001
1001
0000
;

//---------------dance-single - Chewi----------------
#NOTEDATA:;
#CHARTNAME:Chewi;
#STEPSTYPE:dance-single;
#DESCRIPTION:Chewi;
#CHARTSTYLE:Pad;
#DIFFICULTY:Hard;
#METER:11;
#RADARVALUES:0.518,0.564,0.136,0.497,0.098,397.000,18.000,66.000,0.000,0.000,0.000,0.000,0.000,0.518,0.564,0.136,0.497,0.098,397.000,18.000,66.000,0.000,0.000,0.000,0.000,0.000;
#CREDIT:Chewi;
#NOTES:
// measure 0
0000
0000
0000
0000
,  // measure 1
0000
0000
0000
0000
,  // measure 2
0000
0000
0000
0000
,  // measure 3
0000
0000
0000
0000
,  // measure 4
2000
0000
3200
0000
0301
0010
1000
0000
,  // measure 5
0200
0000
0302
0000
0013
1000
0100
0000
,  // measure 6
0002
0000
0023
0000
1030
0100
0001
0000
,  // measure 7
0010
1000
0100
0000
0001
0010
1000
0000
,  // measure 8
0200
0000
0320
0000
0031
0100
1000
0000
,  // measure 9
0020
0000
0032
0000
0103
1000
0010
0000
,  // measure 10
0002
0000
0203
0000
1300
0010
0001
0000
,  // measure 11
0100
1000
0010
0000
0001
0100
1000
0000
,  // measure 12
0100
0010
1000
0001
1000
0100
0010
0000
,  // measure 13
0001
0010
0100
1000
0001
0010
0100
0000
,  // measure 14
1000
0001
0100
0010
1000
0001
0100
0000
,  // measure 15
0010
1000
0100
0010
0001
1000
0100
0000
,  // measure 16
2200
3300
0000
0000
0202
0303
0000
0000
0100
0000
0100
0000
0100
0000
0000
0000
,  // measure 17
0010
0100
0001
1000
0100
0010
0001
0000
,  // measure 18
1000
0100
0001
1000
0010
0001
1001
0000
,  // measure 19
0001
0100
1000
0001
0010
1000
1001
0000
,  // measure 20
1000
0100
0010
0001
1000
0100
0001
0000
,  // measure 21
0001
0100
0010
1000
0001
0100
1000
0000
,  // measure 22
0001
0010
1000
0100
0001
0010
1000
0000
,  // measure 23
1000
0010
0001
0100
1000
0010
0001
0000
,  // measure 24
0010
0100
2000
0000
3010
0100
0002
0000
,  // measure 25
1003
0100
0002
0000
0013
1000
0200
0000
,  // measure 26
0301
0010
2000
0000
3001
0100
2000
0000
,  // measure 27
3001
0010
0200
0000
1300
0010
0200
0000
,  // measure 28
0301
1000
0001
1000
0100
0010
0100
0010
,  // measure 29
0001
0010
0001
0010
0100
1000
0100
1000
,  // measure 30
0001
0100
1000
0010
0001
0100
1000
0010
,  // measure 31
0001
0010
1000
0100
0001
0010
1000
0100
,  // measure 32
0010
0010
0010
0010
0010
0010
0010
0010
,  // measure 33
1000
1000
1000
1000
1000
1000
1000
1000
,  // measure 34
2002
0000
0000
0000
,  // measure 35
0000
0000
0000
0000
0000
0000
0000
0000
0000
0000
0000
0000
0000
0000
0000
0000
0000
0000
0000
0000
0000
0000
0000
0000
0000
0000
0000
0000
0000
0000
0000
0000
0000
0000
0000
0000
0000
0000
0000
0000
0000
0000
0000
0000
0000
0000
0000
0000
0000
0000
0000
0000
0000
0000
0000
0000
0000
0000
0000
0000
0000
0000
0000
0000
0000
0000
0000
0000
0000
0000
0000
0000
0000
0000
0000
0000
0000
0000
0000
0000
0000
0000
0000
0000
0000
0000
0000
0000
0000
0000
0000
0000
0000
0000
0000
0000
0000
3003
0000
0000
0000
0000
0000
0000
0000
0000
0000
0000
0000
0000
0000
0000
0000
0000
0000
0000
0000
0000
0000
0000
0000
0000
0000
0000
0000
0000
0000
0000
0000
0000
0000
0000
0000
0000
0000
0000
0000
0000
0000
0000
0000
0000
0000
0000
2000
0000
0000
0000
0000
0000
0000
0000
0000
0000
0000
0000
0000
0000
0000
0000
0000
0000
0000
0000
0000
0000
0000
0000
0000
0000
0000
0000
0000
0000
0000
0000
0000
0000
0000
0000
0000
0000
0000
0000
0000
0000
0000
0000
0000
0000
0000
0000
,  // measure 36
0000
3200
0000
0320
,  // measure 37
0000
0032
0000
1003
,  // measure 38
0100
0001
1000
0010
,  // measure 39
0001
1000
0001
0002
,  // measure 40
0000
2003
0000
3002
,  // measure 41
0000
2003
0000
3001
,  // measure 42
0100
1000
0001
0010
,  // measure 43
1000
0001
1000
0002
,  // measure 44
0000
2003
0000
3200
,  // measure 45
0000
0320
0000
0031
,  // measure 46
0010
1000
0100
0001
,  // measure 47
0010
1000
0100
0002
,  // measure 48
0000
0023
0000
0032
,  // measure 49
0000
0203
0000
0301
,  // measure 50
0010
1000
0100
0001
,  // measure 51
0010
2000
0000
3200
,  // measure 52
0000
0320
0000
0032
,  // measure 53
0000
1003
0100
0001
,  // measure 54
1000
0010
0001
1000
,  // measure 55
0001
0002
0000
2003
,  // measure 56
0000
3020
0000
0230
,  // measure 57
0000
0301
0100
1000
,  // measure 58
0001
0010
1000
0100
,  // measure 59
0010
0002
0000
2003
,  // measure 60
0000
3200
0000
0320
,  // measure 61
0000
0031
0010
1000
,  // measure 62
0001
0100
1000
0010
,  // measure 63
0100
0002
0000
0203
,  // measure 64
0000
0320
0000
2030
,  // measure 65
0000
0000
0000
3001
0000
0010
0000
0100
0000
1000
0000
0001
,  // measure 66
0000
0010
0000
0100
0000
1000
0000
0001
0000
1000
0000
0001
,  // measure 67
0000
0000
1000
0000
0000
0000
0001
0000
0000
0100
0000
0000
1000
0000
0000
0010
0000
0000
0002
0000
0000
0000
0000
0000
,  // measure 68
0103
0000
0000
0000
0001
0010
1000
0100
,  // measure 69
0002
0000
0013
0000
0000
0100
0010
0001
,  // measure 70
2000
0000
3001
0000
0010
1000
0100
0010
,  // measure 71
0002
0000
1003
0000
0000
0001
0100
1000
,  // measure 72
0200
0000
0310
0000
0001
0010
0100
1000
,  // measure 73
0020
0000
0000
1030
0001
1000
0001
1000
0001
2000
0000
0000
,  // measure 74
3001
0101
0101
1100
,  // measure 75
1100
0000
0000
0000
0010
0000
0000
0010
0100
0000
0001
0000
1000
0000
0010
0000
,  // measure 76
1000
0001
0011
0000
1100
0000
1010
0000
,  // measure 77
0101
0000
0000
0000
1000
0000
0000
1000
0010
0000
0100
0000
0001
0000
0010
0000
,  // measure 78
0100
0000
0000
1000
0100
0010
0001
1000
0100
0010
0001
0100
,  // measure 79
0001
0000
0000
0000
0100
0000
0000
0100
0010
0000
1000
0000
0001
0000
0100
0000
,  // measure 80
0001
1000
1100
0000
0011
0000
0101
0000
,  // measure 81
1010
0000
0000
0000
0001
0000
0000
0001
0100
0000
0010
0000
1000
0000
0100
0000
,  // measure 82
0010
0000
0000
0001
0010
0100
1000
0001
0010
0200
0000
0000
,  // measure 83
0310
0110
0000
0000
;
