#VERSION:0.82;
#TITLE:讓愛飛起來;
#SUBTITLE:;
#ARTIST:蕭亞軒;
#TITLETRANSLIT:Let Love Fly;
#SUBTITLETRANSLIT:;
#ARTISTTRANSLIT:Elva Hsiao;
#GENRE:C-Pop;
#ORIGIN:;
#CREDIT:chewi;
#BANNER:Let Love Fly.png;
#BACKGROUND:Let Love Fly-bg.png;
#PREVIEWVID:;
#JACKET:Let Love Fly-jacket.png;
#CDIMAGE:;
#DISCIMAGE:;
#LYRICSPATH:;
#CDTITLE:cdtitle.png;
#MUSIC:Let Love Fly.ogg;
#OFFSET:-0.814000;
#SAMPLESTART:56.201000;
#SAMPLELENGTH:15.000000;
#SELECTABLE:YES;
#BPMS:0.000=130.000;
#STOPS:;
#DELAYS:;
#WARPS:;
#TIMESIGNATURES:0.000=4=4;
#TICKCOUNTS:0.000=4;
#COMBOS:0.000=1;
#SPEEDS:0.000=1.000=0.000=0;
#SCROLLS:0.000=1.000;
#FAKES:;
#LABELS:0.000=Song Start;
#BGCHANGES:16.000=Let Love Fly.avi=1.000=1=0=0=StretchNoLoop==CrossFade==,
99999=-nosongbg-=1.000=0=0=0 // don't automatically add -songbackground-
;
#KEYSOUNDS:;
#ATTACKS:
;

//---------------dance-single - ----------------
#NOTEDATA:;
#CHARTNAME:;
#STEPSTYPE:dance-single;
#DESCRIPTION:;
#CHARTSTYLE:;
#DIFFICULTY:Beginner;
#METER:2;
#RADARVALUES:0.100608,0.130790,0.030182,0.120729,0.000000,55.000000,3.000000,12.000000,0.000000,0.000000,0.000000,0.000000,0.000000,0.100608,0.130790,0.030182,0.120729,0.000000,55.000000,3.000000,12.000000,0.000000,0.000000,0.000000,0.000000,0.000000;
#CREDIT:;
#NOTES:
// measure 0
0000
0000
0000
0000
,  // measure 1
0000
0000
0000
0000
,  // measure 2
0000
0000
0000
0000
,  // measure 3
0000
0000
0000
0000
,  // measure 4
0020
0000
0000
0030
,  // measure 5
0010
0000
0000
0000
,  // measure 6
0200
0000
0000
0300
,  // measure 7
0100
0000
0000
0000
,  // measure 8
2000
0000
0000
3000
,  // measure 9
1000
0000
0000
0000
,  // measure 10
0002
0000
0000
0003
,  // measure 11
0001
0000
0000
0000
,  // measure 12
1001
0000
0000
0000
,  // measure 13
0010
0000
0000
0000
,  // measure 14
1001
0000
0000
0000
,  // measure 15
0010
0000
0000
0000
,  // measure 16
2000
0000
0000
3000
,  // measure 17
1000
0000
0000
0000
,  // measure 18
0002
0000
0000
0003
,  // measure 19
0001
0000
0000
0000
,  // measure 20
1000
0000
1000
0000
,  // measure 21
1000
0000
0000
0000
,  // measure 22
0001
0000
0001
0000
,  // measure 23
0001
0000
0000
0000
,  // measure 24
0200
0000
0000
0300
,  // measure 25
0100
0000
0000
0000
,  // measure 26
0200
0000
0000
0300
,  // measure 27
0100
0000
0000
0000
,  // measure 28
0010
0000
0000
0000
,  // measure 29
0110
0000
0000
0000
,  // measure 30
0010
0000
0010
0000
,  // measure 31
0010
0010
0010
0000
,  // measure 32
0100
0000
0100
0000
,  // measure 33
0100
0100
0100
0000
,  // measure 34
2000
0000
0000
0000
,  // measure 35
0000
0000
0000
3000
,  // measure 36
0002
0000
0000
0000
,  // measure 37
0000
0000
0000
0003
,  // measure 38
0001
0000
0001
0000
,  // measure 39
0001
0000
0001
0000
,  // measure 40
1000
0000
1000
0000
,  // measure 41
1000
0000
1000
0000
,  // measure 42
0020
0000
0000
0000
,  // measure 43
0000
0000
0000
0030
,  // measure 44
0200
0000
0000
0000
,  // measure 45
0000
0000
0000
0300
,  // measure 46
0100
0000
0000
0000
,  // measure 47
0000
0000
0000
0000
,  // measure 48
0100
0000
0000
0000
,  // measure 49
0000
0000
0000
0000
,  // measure 50
0100
0000
0000
0000
,  // measure 51
0100
0000
0000
0000
,  // measure 52
0010
0000
0000
0000
;

//---------------dance-single - ----------------
#NOTEDATA:;
#CHARTNAME:;
#STEPSTYPE:dance-single;
#DESCRIPTION:;
#CHARTSTYLE:;
#DIFFICULTY:Easy;
#METER:4;
#RADARVALUES:0.185406,0.209264,0.040243,0.160972,0.000000,109.000000,4.000000,16.000000,0.000000,0.000000,0.000000,0.000000,0.000000,0.185406,0.209264,0.040243,0.160972,0.000000,109.000000,4.000000,16.000000,0.000000,0.000000,0.000000,0.000000,0.000000;
#CREDIT:;
#NOTES:
0000
0000
0000
0000
,
0000
0000
0000
0000
,
0000
0000
0000
0000
,
0000
0000
0000
0000
,
1000
1000
1000
0000
,
0001
0001
0001
0000
,
1000
0001
1000
0000
,
0001
1000
0001
0000
,
0010
0010
0010
0000
,
0100
0100
0100
0000
,
0010
0100
0010
0000
,
0100
0010
0100
0000
,
0220
0000
0000
0000
,
0000
0000
0000
0330
,
2002
0000
0000
0000
,
0000
0000
0000
3003
,
1000
0000
0001
0000
,
1000
0001
0100
0000
,
0001
0000
0100
0000
,
0001
0100
0010
0000
,
0100
0000
0010
0000
,
0100
0010
1000
0000
,
0010
0000
1000
0000
,
0010
1000
0001
0000
,
1000
1000
0100
0000
,
0010
0010
0001
0000
,
0001
0001
0100
0000
,
0010
0010
1000
0000
,
2002
0000
0000
3003
,
0220
0000
0000
0330
,
0010
0010
0010
1000
,
0010
0010
0010
0001
,
0010
1000
0010
0001
,
0010
1000
0100
0001
,
0020
0000
0000
0000
,
0230
0000
0000
0000
,
0302
0000
0000
0000
,
2003
0000
0000
0000
,
3100
0100
0100
0001
,
0100
0100
0100
1000
,
0100
0001
0100
1000
,
0100
0001
0010
1000
,
0200
0000
0000
0000
,
0320
0000
0000
0000
,
0032
0000
0000
0000
,
2003
0000
0000
0000
,
3001
0000
0000
0000
,
1000
0000
0000
0010
,
0010
0010
0000
0000
,
0000
0000
0100
0000
,
0100
0000
0000
0000
,
0100
0000
0000
0000
,
0100
0000
0000
0000
;

//---------------dance-single - ----------------
#NOTEDATA:;
#CHARTNAME:;
#STEPSTYPE:dance-single;
#DESCRIPTION:;
#CHARTSTYLE:;
#DIFFICULTY:Medium;
#METER:7;
#RADARVALUES:0.261580,0.261580,0.140851,0.372248,0.000000,131.000000,14.000000,37.000000,0.000000,0.000000,0.000000,0.000000,0.000000,0.261580,0.261580,0.140851,0.372248,0.000000,131.000000,14.000000,37.000000,0.000000,0.000000,0.000000,0.000000,0.000000;
#CREDIT:;
#NOTES:
0000
0000
0000
0000
,
0000
0000
0000
0000
,
0000
0000
0000
0000
,
0000
0000
0000
0000
,
2000
0100
0010
3100
,
0002
0100
0020
0033
,
0002
0010
0100
0013
,
2000
0100
0020
3030
,
0020
0100
1000
0130
,
0200
0001
0002
0303
,
0002
0010
1000
0013
,
0020
0100
0200
0330
,
0220
0000
0000
0330
,
2002
0000
0000
3003
,
0202
0000
0000
0303
,
2020
0000
0000
3030
,
1000
1000
1000
1000
,
0100
0100
0100
0100
,
0001
0001
0001
0001
,
0010
0010
0010
0010
,
1000
0100
0001
0010
,
1000
0010
0001
0100
,
1000
0100
0001
0100
,
1000
0010
0001
0000
,
0001
0001
0001
0001
,
1000
1000
1000
1000
,
0100
0100
0100
0100
,
0010
0010
0010
0010
,
0220
0000
0000
0330
,
2002
0000
0000
3003
,
0002
0000
0103
0000
0100
0100
0100
0000
,
0010
0100
0101
0000
,
2000
0000
3100
0000
0010
0010
0010
0000
,
0100
1000
1100
0000
,
2002
0000
0000
0003
,
0020
0000
0000
3000
,
0100
0200
0000
0000
,
0000
0000
0330
0001
,
2000
0000
3100
0000
1000
1000
1000
0000
,
0001
0010
0011
0000
,
0002
0000
0103
0000
0010
0010
0010
0000
,
1000
0001
1001
0000
,
0220
0000
0000
0300
,
2000
0000
0000
0030
,
0001
0002
0000
0000
,
0000
0000
0000
3003
,
0100
0000
0000
0000
,
0100
0000
0000
0010
,
0001
1000
0000
0000
,
0000
0000
2000
0000
,
3001
0000
0000
0000
,
1001
0000
0000
0000
,
0110
0000
0000
0000
;

//---------------dance-single - ----------------
#NOTEDATA:;
#CHARTNAME:;
#STEPSTYPE:dance-single;
#DESCRIPTION:;
#CHARTSTYLE:;
#DIFFICULTY:Hard;
#METER:9;
#RADARVALUES:0.373686,0.436134,0.271641,0.422552,0.000000,191.000000,27.000000,42.000000,0.000000,0.000000,0.000000,0.000000,0.000000,0.373686,0.436134,0.271641,0.422552,0.000000,191.000000,27.000000,42.000000,0.000000,0.000000,0.000000,0.000000,0.000000;
#CREDIT:;
#NOTES:
0000
0000
0000
0000
,
0000
0000
0000
0000
,
0000
0000
0000
0000
,
0000
0000
0000
0000
,
1000
0010
0100
0001
,
1000
0100
0010
0000
0001
0000
1001
0000
,
0010
0100
1000
0001
,
0010
0001
0100
0000
0001
0000
1001
0000
,
0001
0100
0010
1000
,
0001
0100
0010
0000
0100
0000
0110
0000
,
0100
0010
1000
0001
,
1000
0100
0010
0000
0100
0000
0110
0000
,
0020
0000
0000
0000
,
0032
0000
0000
0000
,
2003
0000
0000
0000
,
3200
0000
0000
0000
,
0310
0001
0010
0000
0001
0100
0001
0000
,
0100
0010
1000
0000
0010
0000
0101
0000
,
1000
0100
1000
0000
0100
0010
0100
0000
,
0010
0001
1000
0000
0001
0000
1001
0000
,
0100
0010
0100
0001
0200
0000
0301
0000
,
0001
0010
0100
1000
0200
0000
1300
0000
,
1000
1010
0001
0011
,
1000
1100
0001
0101
,
0100
0010
0100
0000
0010
0100
0001
0000
,
1000
0100
0010
0001
0010
0000
0011
0000
,
0001
0010
0100
0000
1000
0100
0010
0000
,
0100
1000
0010
1000
0100
0000
1100
0000
,
2002
0000
0000
3000
,
0200
0000
0000
0303
,
0210
0000
0301
0000
1000
0010
0100
0001
,
1002
0023
0230
2300
,
3002
0000
1003
0100
0010
0001
1000
0000
,
1002
0203
0320
1030
,
2010
0010
0001
3100
,
1002
0010
0100
0013
,
0010
0100
2100
0000
0010
0000
3001
0000
,
0001
0100
0102
0000
1000
0000
0013
0000
,
0120
0000
1030
0000
0001
0100
0010
1000
,
2001
3200
0320
0032
,
2003
0000
3001
0010
0100
1000
0001
0000
,
2001
3020
0230
0301
,
0102
0100
1000
0013
,
2001
0100
0010
3100
,
0100
0010
0012
0000
0100
0000
1003
0000
,
1000
0010
2010
0000
0001
0000
3100
0000
,
0020
0000
0000
0000
,
0032
0000
0000
0023
,
0230
2300
0000
0000
,
0000
0000
3002
0000
,
0200
0000
0000
0000
,
0303
0000
0000
0000
;
