#TITLE:Lesson4 by DJ;
#SUBTITLE:;
#ARTIST:Big Idea;
#TITLETRANSLIT:;
#SUBTITLETRANSLIT:;
#ARTISTTRANSLIT:;
#CREDIT:;
#BANNER:Lesson4 by DJ.png;
#BACKGROUND:Lesson4 by DJ-bg.png;
#LYRICSPATH:;
#CDTITLE:;
#MUSIC:Lesson4 by DJ.mp3;
#OFFSET:-2.083;
#SAMPLESTART:26.083;
#SAMPLELENGTH:15.000;
#SELECTABLE:YES;
#BPMS:0.000=120.000;
#STOPS:;
#BGCHANGES:;

//---------------dance-single - Chewi----------------
#NOTES:
     dance-single:
     Chewi:
     Beginner:
     4:
     0.081,0.168,0.061,0.027,0.000:
0000
0000
0000
0000
,
0000
0000
0000
0000
,
0000
0000
0000
0000
,
0000
0000
0000
0000
,
0000
0000
0000
0000
,
0000
0000
0000
0000
,
0000
0000
0000
0000
,
0000
0000
0000
0000
,
0000
0000
0000
0000
,
0000
0000
0000
0000
,
0000
0000
0000
0000
,
0000
0000
0000
0000
,
0000
0000
0001
1001
,
0000
0000
1000
1001
,
0000
0000
0000
0000
,
0001
1001
1000
1001
,
0000
0000
0000
0000
,
1000
1001
0001
1001
,
0000
0000
0000
0000
,
0000
0000
0000
0000
,
0000
0000
0000
0000
,
0000
0000
0000
0000
,
0000
0000
0000
0000
,
0000
0000
0000
0000
,
0000
0000
0000
0000
,
0000
0000
0000
0000
1000
1000
0001
0000
,
0000
0000
0000
0000
0001
0001
1000
0000
,
0000
0000
0000
0000
1000
1000
0001
0000
,
0000
0000
0000
0000
0001
0001
1000
0000
,
0000
0000
0000
0000
,
0000
0000
0000
0000
,
0000
0000
0000
0000
,
0000
0000
0000
0000
,
0000
0000
0000
0000
0001
0001
1000
0000
,
0000
0000
0000
0000
1000
1000
0001
0000
,
0000
0000
0000
0000
0001
0001
1000
0000
,
0000
0000
0000
0000
1000
1000
0001
0000
,
0000
0000
0000
0000
,
0000
0000
0000
0000
,
0000
0000
0000
0000
,
0000
0000
0000
0000
,
0000
0000
0000
0000
,
0000
0000
0000
0000
,
0000
0000
0000
0000
,
0000
0000
0000
0000
0001
1000
1000
0000
,
0000
0000
0000
0000
1000
0001
0001
0000
,
0000
0000
0000
0000
,
0001
0001
1000
1000
0001
0001
1000
0000
,
0000
0000
0000
0000
,
1000
1000
0001
0001
1000
1000
0001
0000
,
0000
0000
0000
0000
,
0000
0000
0000
0000
,
0000
0000
0000
0000
,
0000
0000
0000
0000
,
0000
0000
0000
0000
,
0000
0000
0000
0000
,
0000
0000
0000
0000
,
0220
0000
0000
0330
,
0000
0000
0000
0000
,
0220
0000
0000
0330
,
0000
0000
0000
0000
,
0000
0000
0000
0000
,
0000
0000
0000
0000
,
0000
0000
0000
0000
,
0000
0000
0000
0000
,
0000
0000
0000
0000
,
0000
0000
0000
0000
0100
0100
0001
0000
,
0000
0000
0000
0000
0100
0100
0001
0000
,
0000
0000
0000
0000
0100
0100
0001
0000
,
0000
0000
0000
0000
0100
0100
0001
0000
,
0000
0000
0000
0000
,
1001
0000
0000
0000
;
