#VERSION:0.83;
#TITLE:Lean On (feat. MØ & DJ Snake);
#SUBTITLE:;
#ARTIST:Major Lazer;
#TITLETRANSLIT:Lean On (feat. MO & DJ Snake);
#SUBTITLETRANSLIT:;
#ARTISTTRANSLIT:;
#GENRE:Pop;
#ORIGIN:;
#CREDIT:chewi;
#BANNER:Lean On (feat. MO & DJ Snake).png;
#BACKGROUND:Lean On (feat. MO & DJ Snake)-bg.png;
#PREVIEWVID:;
#JACKET:Lean On (feat. MO & DJ Snake)-jacket.png;
#CDIMAGE:;
#DISCIMAGE:;
#LYRICSPATH:;
#CDTITLE:cdtitle.png;
#MUSIC:Lean On (feat. MO & DJ Snake).ogg;
#OFFSET:-0.259616;
#SAMPLESTART:98.219002;
#SAMPLELENGTH:15.000000;
#SELECTABLE:YES;
#DISPLAYBPM:98.000000;
#BPMS:0.000=98.000;
#STOPS:60.000=1.837,
153.000=1.837;
#DELAYS:;
#WARPS:;
#TIMESIGNATURES:0.000=4=4;
#TICKCOUNTS:0.000=4;
#COMBOS:0.000=1;
#SPEEDS:0.000=1.000=0.000=0;
#SCROLLS:0.000=1.000;
#FAKES:;
#LABELS:0.000=Song Start;
#BGCHANGES:;
#KEYSOUNDS:;
#ATTACKS:
;

//---------------dance-single - ----------------
#NOTEDATA:;
#CHARTNAME:;
#STEPSTYPE:dance-single;
#DESCRIPTION:;
#CHARTSTYLE:;
#DIFFICULTY:Beginner;
#METER:2;
#RADARVALUES:0.067044,0.074938,0.015139,0.000000,0.000000,62.000000,60.000000,2.000000,0.000000,0.000000,0.000000,0.000000,0.000000,0.000000,0.067044,0.074938,0.015139,0.000000,0.000000,62.000000,60.000000,2.000000,0.000000,0.000000,0.000000,0.000000,0.000000,0.000000;
#CREDIT:;
#DISPLAYBPM:98.000000;
#NOTES:
// measure 0
0000
0000
0000
0000
,  // measure 1
0000
0000
0000
0000
,  // measure 2
0000
0000
0000
0000
,  // measure 3
0000
0000
0000
0000
,  // measure 4
1000
0000
0000
0000
,  // measure 5
0001
0000
0000
0000
,  // measure 6
1000
0000
0000
0000
,  // measure 7
0001
0000
0000
0000
,  // measure 8
0100
0000
0100
0000
,  // measure 9
0100
0000
0000
0000
,  // measure 10
0010
0000
0010
0000
,  // measure 11
0010
0000
0000
0000
,  // measure 12
1000
0000
1000
0000
,  // measure 13
1000
0000
0000
0000
,  // measure 14
0001
0000
0001
0000
,  // measure 15
0001
0001
0000
0000
,  // measure 16
0000
1000
0000
0000
,  // measure 17
0000
0001
0000
0000
,  // measure 18
0000
1000
0000
0000
,  // measure 19
0000
0010
0000
0000
,  // measure 20
0000
0100
0000
0000
,  // measure 21
0000
0010
0000
0000
,  // measure 22
0000
0100
0000
0000
,  // measure 23
0000
0110
0000
0000
,  // measure 24
0000
1000
0000
0000
,  // measure 25
0000
0001
0000
0000
,  // measure 26
0000
1000
0000
0000
,  // measure 27
0000
1001
0000
0000
,  // measure 28
0000
0010
0000
0000
,  // measure 29
0000
0100
0000
0000
,  // measure 30
0000
0010
0000
0000
,  // measure 31
0000
1000
0000
1000
,  // measure 32
0000
1000
0000
0000
,  // measure 33
0000
0100
0000
0100
,  // measure 34
0000
0100
0000
0000
,  // measure 35
0000
0010
0000
0010
,  // measure 36
0000
0010
0000
0000
,  // measure 37
0000
0001
0000
0001
,  // measure 38
0000
0001
0001
0000
,  // measure 39
0000
0000
1000
0000
,  // measure 40
0000
0000
0001
0000
,  // measure 41
0000
0000
1000
0000
,  // measure 42
0000
0000
0100
0000
,  // measure 43
0100
0000
0100
0000
,  // measure 44
0000
0000
0010
0000
,  // measure 45
0010
0000
0010
0000
,  // measure 46
0000
0000
0001
0000
,  // measure 47
0001
0000
0001
0000
,  // measure 48
0000
0000
0000
1000
,  // measure 49
0000
1000
1000
0000
;

//---------------dance-single - ----------------
#NOTEDATA:;
#CHARTNAME:;
#STEPSTYPE:dance-single;
#DESCRIPTION:;
#CHARTSTYLE:;
#DIFFICULTY:Easy;
#METER:3;
#RADARVALUES:0.110298,0.133128,0.045417,0.090833,0.000000,102.000000,96.000000,6.000000,12.000000,0.000000,0.000000,0.000000,0.000000,0.000000,0.110298,0.133128,0.045417,0.090833,0.000000,102.000000,96.000000,6.000000,12.000000,0.000000,0.000000,0.000000,0.000000,0.000000;
#CREDIT:;
#DISPLAYBPM:98.000000;
#NOTES:
// measure 0
0000
0000
0000
0000
,  // measure 1
0000
0000
0000
0000
,  // measure 2
0000
0000
0000
0000
,  // measure 3
0000
0000
0000
0000
,  // measure 4
2000
0000
3000
1000
,  // measure 5
0002
0000
0003
0001
,  // measure 6
0200
0000
0300
0100
,  // measure 7
0020
0000
0030
0010
,  // measure 8
0010
0000
1000
0000
,  // measure 9
0010
1000
0010
0000
,  // measure 10
0001
0000
0010
0000
,  // measure 11
0001
0010
0001
0000
,  // measure 12
0002
0000
0000
0003
,  // measure 13
2000
0000
0000
3000
,  // measure 14
0002
0000
0000
0003
,  // measure 15
0000
1001
0000
1000
,  // measure 16
0000
0001
0000
1000
,  // measure 17
0000
0110
0000
0010
,  // measure 18
0000
0100
0000
0010
,  // measure 19
0000
1001
0000
0001
,  // measure 20
0000
1000
0000
0001
,  // measure 21
0000
0110
0000
0100
,  // measure 22
0000
0010
0000
0100
,  // measure 23
0000
0000
1000
0000
,  // measure 24
1000
0000
1000
1000
,  // measure 25
1000
0000
0001
0000
,  // measure 26
0001
0000
0001
0001
,  // measure 27
0001
0000
0100
0000
,  // measure 28
0100
0000
0100
0100
,  // measure 29
0100
0000
0010
0000
,  // measure 30
0010
0000
0010
0010
,  // measure 31
0000
0020
0000
0000
,  // measure 32
0030
0010
0100
0010
,  // measure 33
0000
0200
0000
0000
,  // measure 34
0300
0100
0010
0100
,  // measure 35
0000
0002
0000
0000
,  // measure 36
0003
2000
0000
0000
,  // measure 37
3000
0002
0000
0000
,  // measure 38
0003
0000
1001
0000
,  // measure 39
1000
0000
0001
0000
,  // measure 40
1000
0000
0110
0000
,  // measure 41
0010
0000
0100
0000
,  // measure 42
0010
0000
1000
0000
,  // measure 43
0100
0000
0001
0000
,  // measure 44
0100
0000
1000
0100
,  // measure 45
0001
0000
0001
0100
,  // measure 46
1000
0000
1000
0000
,  // measure 47
0010
0000
0001
0000
,  // measure 48
0010
0000
1000
0010
,  // measure 49
0001
0000
0001
0010
,  // measure 50
1000
0100
0000
0000
;

//---------------dance-single - ----------------
#NOTEDATA:;
#CHARTNAME:;
#STEPSTYPE:dance-single;
#DESCRIPTION:;
#CHARTSTYLE:;
#DIFFICULTY:Medium;
#METER:6;
#RADARVALUES:0.187074,0.191129,0.007569,0.166528,0.000000,173.000000,172.000000,1.000000,22.000000,0.000000,0.000000,0.000000,0.000000,0.000000,0.187074,0.191129,0.007569,0.166528,0.000000,173.000000,172.000000,1.000000,22.000000,0.000000,0.000000,0.000000,0.000000,0.000000;
#CREDIT:;
#DISPLAYBPM:98.000000;
#NOTES:
// measure 0
0000
0000
0000
0000
,  // measure 1
0000
0000
0000
0000
,  // measure 2
0000
0000
0000
0000
,  // measure 3
0000
0000
0000
0000
,  // measure 4
1000
0000
0000
1000
0000
0000
1000
0000
,  // measure 5
0001
0000
0000
0001
0000
0000
0001
0000
,  // measure 6
0010
0000
0000
0010
0000
0000
0010
0000
,  // measure 7
0100
0000
0000
0100
0000
0000
0100
0000
,  // measure 8
0100
0010
0001
1000
,  // measure 9
0020
0100
0100
0130
,  // measure 10
0100
0010
1000
0001
,  // measure 11
2000
0001
0100
3001
,  // measure 12
1000
0001
0100
0010
,  // measure 13
0200
0010
0010
0310
,  // measure 14
0010
0100
0001
1000
,  // measure 15
0000
1000
0100
0010
,  // measure 16
1000
0100
0001
0010
,  // measure 17
0010
0010
1000
0100
,  // measure 18
0001
0010
1000
0100
,  // measure 19
0001
0010
0010
0100
,  // measure 20
0100
0001
0001
1000
,  // measure 21
1000
0100
0001
0010
,  // measure 22
1000
0100
0001
0010
,  // measure 23
1000
0000
0100
0000
0000
0100
0000
0000
,  // measure 24
0100
0000
0010
0000
0000
0010
0000
0000
,  // measure 25
0010
0000
0001
0000
0000
0001
0000
0000
,  // measure 26
0001
0000
1000
0000
0000
1000
0000
0000
,  // measure 27
1000
0001
0001
0100
,  // measure 28
0100
0020
0230
0302
,  // measure 29
2003
3001
0001
1000
,  // measure 30
1000
0002
0023
0130
,  // measure 31
0000
1000
0010
0100
,  // measure 32
0001
0200
0010
0010
,  // measure 33
0310
0010
0100
1000
,  // measure 34
0001
0002
1000
0010
,  // measure 35
1003
0001
1000
0010
,  // measure 36
0100
0020
0100
0100
,  // measure 37
0130
0100
0010
1000
,  // measure 38
0001
0000
0001
0010
,  // measure 39
0100
0001
0010
1000
,  // measure 40
0100
0100
0100
0001
,  // measure 41
0010
1000
0100
0001
,  // measure 42
0010
1000
0200
0310
,  // measure 43
0002
1003
0001
0100
,  // measure 44
0010
1000
0020
0130
,  // measure 45
0002
1003
0100
0010
,  // measure 46
0001
1000
0002
0103
,  // measure 47
2000
3100
1000
0001
,  // measure 48
0100
0010
2000
3010
,  // measure 49
0002
0013
2002
0000
,  // measure 50
0000
0000
3003
0000
;

//---------------dance-single - ----------------
#NOTEDATA:;
#CHARTNAME:;
#STEPSTYPE:dance-single;
#DESCRIPTION:;
#CHARTSTYLE:;
#DIFFICULTY:Hard;
#METER:8;
#RADARVALUES:0.242222,0.247237,0.007569,0.128681,0.151389,224.000000,223.000000,1.000000,17.000000,0.000000,0.000000,0.000000,0.000000,0.000000,0.242222,0.247237,0.007569,0.128681,0.151389,224.000000,223.000000,1.000000,17.000000,0.000000,0.000000,0.000000,0.000000,0.000000;
#CREDIT:;
#DISPLAYBPM:98.000000;
#NOTES:
// measure 0
0000
0000
0000
0000
,  // measure 1
0000
0000
0000
0000
,  // measure 2
0000
0000
0000
0000
,  // measure 3
0000
0000
0000
0000
,  // measure 4
1000
0000
0000
1000
0000
0000
1000
0000
0000
1000
0000
0000
1000
0000
0000
0000
,  // measure 5
0001
0000
0000
0001
0000
0000
0001
0000
0000
0001
0000
0000
0001
0000
0000
0000
,  // measure 6
0100
0000
0000
0100
0000
0000
0100
0000
0000
0100
0000
0000
0100
0000
0000
0000
,  // measure 7
0010
0000
0000
0010
0000
0000
0010
0000
0000
0010
0000
0000
0010
0000
0000
0000
,  // measure 8
0010
0000
1000
0000
0010
0010
1000
0000
,  // measure 9
0010
0100
0001
1000
,  // measure 10
0001
0000
1000
0000
0001
0001
1000
0000
,  // measure 11
0100
1000
0001
0010
,  // measure 12
0001
0000
0000
0001
0000
0000
0001
0000
1000
0000
0000
1000
0000
0000
1000
0000
,  // measure 13
0001
0000
0000
0100
0000
0000
0010
0000
1000
0000
0000
0100
0000
0000
0010
0000
,  // measure 14
0100
0000
0000
0100
0000
0000
0100
0000
0010
0000
0000
0010
0000
0000
0010
0000
,  // measure 15
0000
0000
0000
0000
0010
0000
0000
0010
0001
0000
0000
0000
0002
0000
0000
0000
,  // measure 16
0013
0000
0000
0000
1000
0000
0000
1000
0010
0000
0000
0000
0020
0000
0000
0000
,  // measure 17
1030
0000
0000
0000
0010
0000
0000
0010
0100
0000
0000
0000
0002
0000
0000
0000
,  // measure 18
1003
0000
0000
0000
0100
0000
0000
0100
0010
0000
0000
0000
0002
0000
0000
0000
,  // measure 19
2003
0000
0000
0000
3100
0000
0000
0100
1000
0000
0000
0000
2000
0000
0000
0000
,  // measure 20
3100
0000
0000
0000
0001
0000
0000
0001
0100
0000
0000
0000
0200
0000
0000
0000
,  // measure 21
0301
0000
0000
0000
0100
0000
0000
0100
0010
0000
0000
0000
2000
0000
0000
0000
,  // measure 22
3001
0000
0000
0000
0010
0000
0000
0010
0100
0000
0000
0000
2000
0000
0000
0000
,  // measure 23
3002
0000
0000
0000
1003
0000
0000
1000
0000
0000
0010
0000
0000
0010
0000
0000
,  // measure 24
1000
0000
0000
0000
0001
0000
0000
0001
0000
0000
0100
0000
0000
0100
0000
0000
,  // measure 25
0001
0000
0000
0000
1000
0000
0000
1000
0000
0000
0001
0000
0000
0001
0000
0000
,  // measure 26
0010
0000
0000
0000
0001
0000
0000
0001
0000
0000
1000
0000
0000
1000
0000
0000
,  // measure 27
0010
0000
0100
0000
0001
0000
0100
0100
,  // measure 28
0001
0000
0100
0000
0010
0000
0100
0100
,  // measure 29
0010
0000
1000
0000
0100
0000
0001
0010
,  // measure 30
1000
0100
0010
0000
,  // measure 31
0000
0000
1000
0000
0100
0000
1000
0100
,  // measure 32
1000
0100
0010
0001
,  // measure 33
1000
0000
0001
0000
0100
0000
0001
0100
,  // measure 34
0001
0100
0010
1000
,  // measure 35
0001
0000
0000
0000
1000
0000
0000
1000
0000
0000
1000
0000
0001
0000
0000
0001
,  // measure 36
0000
0000
0001
0000
1000
0000
0000
0010
0000
0000
0100
0000
0001
0000
0000
0010
,  // measure 37
0000
0000
0100
0000
0010
0000
0000
0010
0000
0000
0010
0000
0100
0000
0000
0100
,  // measure 38
0000
0000
0100
0000
0000
0000
0000
0000
0100
0000
0000
0100
1000
0000
0000
0000
,  // measure 39
2000
0000
0000
0000
3100
0000
0000
0000
0001
0000
0000
0001
0100
0000
0000
0000
,  // measure 40
0200
0000
0000
0000
0301
0000
0000
0000
0100
0000
0000
0100
0010
0000
0000
0000
,  // measure 41
2000
0000
0000
0000
3001
0000
0000
0000
0010
0000
0000
0010
0100
0000
0000
0000
,  // measure 42
2000
3002
0013
0001
,  // measure 43
0010
0010
0001
0000
0001
0000
0010
0000
,  // measure 44
0100
1000
0100
1000
,  // measure 45
0100
0100
1000
0000
1000
0000
0010
0000
,  // measure 46
0100
0001
1000
0001
,  // measure 47
0010
0010
0100
0000
1000
0000
0001
0000
,  // measure 48
0100
0100
0010
0000
1000
0000
0001
0000
,  // measure 49
0010
0010
0100
0000
0220
0000
0000
0000
,  // measure 50
0000
0330
0000
0000
;
