#VERSION:0.82;
#TITLE:Last Christmas;
#SUBTITLE:;
#ARTIST:Wham!;
#TITLETRANSLIT:;
#SUBTITLETRANSLIT:;
#ARTISTTRANSLIT:;
#GENRE:Synthpop;
#ORIGIN:;
#CREDIT:steps by chewi;
#BANNER:Last Christmas.png;
#BACKGROUND:Last Christmas-bg.png;
#PREVIEWVID:;
#JACKET:Last Christmas-jacket.png;
#CDIMAGE:;
#DISCIMAGE:;
#LYRICSPATH:;
#CDTITLE:cdtitle.png;
#MUSIC:Last Christmas.ogg;
#OFFSET:-0.080000;
#SAMPLESTART:107.220001;
#SAMPLELENGTH:17.639999;
#SELECTABLE:YES;
#BPMS:0.000=106.000,
16.000=106.300,
20.000=106.560,
24.000=107.200,
48.000=107.100,
72.000=107.000,
88.000=106.900,
112.000=107.500,
116.000=108.700,
128.000=109.000,
132.000=108.100,
140.000=108.300,
144.000=108.800,
149.000=108.700,
156.000=108.500,
160.000=107.700,
176.000=108.460,
204.000=107.840;
#STOPS:;
#DELAYS:;
#WARPS:;
#TIMESIGNATURES:0.000=4=4;
#TICKCOUNTS:0.000=4;
#COMBOS:0.000=1;
#SPEEDS:0.000=1.000=0.000=0;
#SCROLLS:0.000=1.000;
#FAKES:;
#LABELS:0.000=Song Start;
#BGCHANGES:;
#KEYSOUNDS:;
#ATTACKS:
;

//---------------dance-single - ----------------
#NOTEDATA:;
#CHARTNAME:;
#STEPSTYPE:dance-single;
#DESCRIPTION:;
#CHARTSTYLE:;
#DIFFICULTY:Beginner;
#METER:2;
#RADARVALUES:0.079582,0.110743,0.026847,0.000000,0.000000,79.000000,4.000000,0.000000,0.000000,0.000000,0.000000,0.000000,0.000000,0.079582,0.110743,0.026847,0.000000,0.000000,79.000000,4.000000,0.000000,0.000000,0.000000,0.000000,0.000000,0.000000;
#CREDIT:;
#NOTES:
// measure 0
0000
0000
0000
0000
,  // measure 1
0000
0000
0000
0000
,  // measure 2
0000
0000
0000
0000
,  // measure 3
0000
0000
0000
0000
,  // measure 4
1000
0000
0000
0000
,  // measure 5
1000
0000
0000
0000
,  // measure 6
0001
0000
0000
0000
,  // measure 7
0001
0000
0000
0000
,  // measure 8
1001
0000
0000
0000
,  // measure 9
0010
0000
0000
0000
,  // measure 10
0010
0000
0000
0000
,  // measure 11
0010
0000
0000
0000
,  // measure 12
1001
0000
0000
0000
,  // measure 13
0100
0000
0000
0000
,  // measure 14
0100
0000
0000
0000
,  // measure 15
0100
0000
0000
0000
,  // measure 16
1000
0000
0000
0000
,  // measure 17
1000
1000
1000
0000
,  // measure 18
0001
0000
0000
0000
,  // measure 19
0001
0001
0001
0000
,  // measure 20
0100
0000
0000
0000
,  // measure 21
0100
0100
0100
0000
,  // measure 22
0010
0000
0000
0000
,  // measure 23
0010
0010
0010
0000
,  // measure 24
0010
0000
0000
0000
,  // measure 25
1000
0000
0000
0000
,  // measure 26
0100
0000
0000
0000
,  // measure 27
0001
0000
0000
0000
,  // measure 28
0010
0000
0000
0000
,  // measure 29
1000
0000
0000
0000
,  // measure 30
0100
0000
0000
0000
,  // measure 31
0001
0000
0000
0000
,  // measure 32
0010
0000
0000
0000
,  // measure 33
0010
0000
0000
0000
,  // measure 34
0100
0000
0000
0000
,  // measure 35
0100
0000
0000
0000
,  // measure 36
0010
0000
0000
0000
,  // measure 37
0001
0000
0000
0000
,  // measure 38
1000
0000
0000
0000
,  // measure 39
0100
0000
0000
0000
,  // measure 40
1000
0000
0000
0000
,  // measure 41
0010
0000
0000
0000
,  // measure 42
0100
0000
0000
0000
,  // measure 43
0001
0000
0000
0000
,  // measure 44
1000
0000
0000
0000
,  // measure 45
0001
0000
0000
0000
,  // measure 46
0010
0000
0000
0000
,  // measure 47
0100
0000
0000
0000
,  // measure 48
0110
0000
0000
0000
,  // measure 49
0100
0000
0000
0000
,  // measure 50
0100
0000
0000
0000
,  // measure 51
0100
0000
0000
0000
,  // measure 52
0110
0000
0000
0000
,  // measure 53
0010
0000
0000
0000
,  // measure 54
0010
0000
0000
0000
,  // measure 55
0010
0000
0000
0000
,  // measure 56
0001
0000
0000
0000
,  // measure 57
1000
1000
1000
0000
,  // measure 58
1000
0000
0000
0000
,  // measure 59
0001
0001
0001
0000
,  // measure 60
0100
0000
0000
0000
,  // measure 61
0100
0100
0100
0000
,  // measure 62
0010
0000
0000
0000
,  // measure 63
0010
0010
0010
0000
,  // measure 64
0010
0000
0000
0000
,  // measure 65
0010
0000
0000
0000
,  // measure 66
0100
0000
0000
0000
;

//---------------dance-single - ----------------
#NOTEDATA:;
#CHARTNAME:;
#STEPSTYPE:dance-single;
#DESCRIPTION:;
#CHARTSTYLE:;
#DIFFICULTY:Easy;
#METER:4;
#RADARVALUES:0.148617,0.221487,0.053694,0.067117,0.000000,137.000000,8.000000,10.000000,0.000000,0.000000,0.000000,0.000000,0.000000,0.148617,0.221487,0.053694,0.067117,0.000000,137.000000,8.000000,10.000000,0.000000,0.000000,0.000000,0.000000,0.000000;
#CREDIT:;
#NOTES:
// measure 0
0000
0000
0000
0000
,  // measure 1
0000
0000
0000
0000
,  // measure 2
0000
0000
0000
0000
,  // measure 3
0000
0000
0000
0000
,  // measure 4
1000
0000
1000
0000
,  // measure 5
1000
1000
1000
0000
,  // measure 6
0001
0000
0001
0000
,  // measure 7
0001
0001
0001
0000
,  // measure 8
1001
0000
0000
0000
,  // measure 9
1000
0001
1000
0000
,  // measure 10
0010
0100
0010
0000
,  // measure 11
0100
0100
0100
0000
,  // measure 12
0100
0000
0001
0000
,  // measure 13
0100
0001
0010
0000
,  // measure 14
0100
0000
1000
0000
,  // measure 15
0100
1000
0010
0000
,  // measure 16
1000
0010
1000
0010
,  // measure 17
1000
0000
0000
0000
,  // measure 18
0001
0010
0001
0010
,  // measure 19
0001
0000
0000
0000
,  // measure 20
1000
0100
1000
0100
,  // measure 21
1000
0000
0000
0000
,  // measure 22
0001
0100
0001
0100
,  // measure 23
0001
0000
0000
0000
,  // measure 24
1001
0000
1000
0000
,  // measure 25
1000
1000
0001
0001
,  // measure 26
0100
0000
0000
0000
,  // measure 27
0010
0000
0000
0000
,  // measure 28
0110
0000
0010
0000
,  // measure 29
0010
0010
0010
0000
,  // measure 30
0100
0000
0000
0000
,  // measure 31
0100
0000
0000
0000
,  // measure 32
2000
0000
0000
3000
,  // measure 33
1000
0100
0100
0000
,  // measure 34
0002
0000
0000
0003
,  // measure 35
0001
0100
0100
0000
,  // measure 36
2000
0000
0000
3000
,  // measure 37
1000
1000
0010
0000
,  // measure 38
0002
0000
0000
0003
,  // measure 39
0001
0001
0010
0000
,  // measure 40
0110
0000
0000
0000
,  // measure 41
0010
0100
1000
0000
,  // measure 42
1001
0000
0000
0000
,  // measure 43
1000
0001
0100
0000
,  // measure 44
0110
0000
0000
0000
,  // measure 45
0010
1000
0001
0000
,  // measure 46
1001
0000
0000
0000
,  // measure 47
1000
0100
0001
0010
,  // measure 48
2000
0000
0000
3000
,  // measure 49
1000
0001
1000
0000
,  // measure 50
0002
0000
0000
0003
,  // measure 51
0001
1000
0001
0000
,  // measure 52
0200
0000
0000
0300
,  // measure 53
0100
0010
0100
0000
,  // measure 54
0020
0000
0000
0030
,  // measure 55
0100
0010
0100
0000
,  // measure 56
2000
0000
0000
3000
,  // measure 57
1000
0001
1000
0000
,  // measure 58
0002
0000
0000
0003
,  // measure 59
0001
1000
0001
0000
,  // measure 60
0010
0000
0010
0000
,  // measure 61
0100
0000
0100
0000
,  // measure 62
0010
0100
0010
0100
,  // measure 63
1000
0001
1000
0001
,  // measure 64
1001
0000
0000
0000
,  // measure 65
1000
0000
0000
0000
,  // measure 66
1000
0000
0000
0000
;

//---------------dance-single - ----------------
#NOTEDATA:;
#CHARTNAME:;
#STEPSTYPE:dance-single;
#DESCRIPTION:;
#CHARTSTYLE:;
#DIFFICULTY:Medium;
#METER:7;
#RADARVALUES:0.255046,0.243636,0.006712,0.000000,0.000000,265.000000,1.000000,0.000000,0.000000,0.000000,0.000000,0.000000,0.000000,0.255046,0.243636,0.006712,0.000000,0.000000,265.000000,1.000000,0.000000,0.000000,0.000000,0.000000,0.000000,0.000000;
#CREDIT:;
#NOTES:
// measure 0
0000
0000
0000
0000
,  // measure 1
0000
0000
0000
0000
,  // measure 2
0000
0000
0000
0000
,  // measure 3
0000
0000
0000
0000
,  // measure 4
0010
1000
0100
0001
,  // measure 5
0100
1000
0010
0001
,  // measure 6
0010
1000
0100
0001
,  // measure 7
0100
1000
0001
0001
,  // measure 8
1000
0000
1000
0000
0001
1000
0100
0000
,  // measure 9
1000
0000
0001
0000
1000
0001
0100
0000
,  // measure 10
0010
0010
1000
0001
,  // measure 11
1000
0000
0100
0100
1000
0000
0001
0000
,  // measure 12
0100
0001
1000
0100
,  // measure 13
1000
0001
0100
0001
,  // measure 14
1000
0001
0100
0010
,  // measure 15
1000
0001
1000
0010
,  // measure 16
0001
0000
0001
0000
1000
0001
0010
0000
,  // measure 17
0001
0000
1000
0000
0001
1000
0010
0000
,  // measure 18
0100
0100
0001
1000
,  // measure 19
0001
0000
0010
0010
0001
0000
1000
0000
,  // measure 20
0010
1000
0001
0010
,  // measure 21
0001
1000
0010
1000
,  // measure 22
0001
1000
0010
0100
,  // measure 23
0001
1000
0001
0100
,  // measure 24
0001
0100
0001
1000
,  // measure 25
0100
1000
0001
0100
,  // measure 26
0001
1000
0001
0100
,  // measure 27
0010
1000
0001
1000
,  // measure 28
0010
0001
0010
1000
,  // measure 29
0100
0001
0100
1000
,  // measure 30
0010
0001
0010
1000
,  // measure 31
0001
0100
0010
1001
,  // measure 32
1000
0000
1000
0000
1000
1000
0000
0000
,  // measure 33
0100
0000
0100
0000
0100
0100
0000
0000
,  // measure 34
0010
0000
0010
0000
0010
0010
0000
0000
,  // measure 35
0001
0001
0001
0001
,  // measure 36
1000
0000
0100
0000
1000
0100
1000
0000
,  // measure 37
0001
0000
0100
0000
0001
0100
0001
0000
,  // measure 38
0100
0000
0010
0000
1000
0010
1000
0000
,  // measure 39
0010
0000
0100
0000
0001
0100
0001
0000
,  // measure 40
1000
0000
1000
0000
0001
1000
0001
0000
,  // measure 41
0100
0000
0100
0000
0010
0001
0010
0000
,  // measure 42
0001
0001
1000
1000
,  // measure 43
0010
1000
0100
0001
,  // measure 44
0100
0100
1000
1000
,  // measure 45
0010
0010
0001
0001
,  // measure 46
0010
0010
1000
0100
,  // measure 47
0001
0010
1000
0001
,  // measure 48
1000
0000
1000
0000
0001
1000
0100
0000
,  // measure 49
1000
0000
0001
0000
1000
0001
0100
0000
,  // measure 50
0010
0010
1000
0001
,  // measure 51
1000
0000
0100
0100
1000
0000
0001
0000
,  // measure 52
0100
0001
1000
0100
,  // measure 53
1000
0001
0100
0001
,  // measure 54
1000
0001
0100
0010
,  // measure 55
1000
0001
1000
0010
,  // measure 56
0001
0000
0001
0000
1000
0001
0010
0000
,  // measure 57
0001
0000
1000
0000
0001
1000
0010
0000
,  // measure 58
0100
0100
0001
1000
,  // measure 59
0001
0000
0010
0010
0001
0000
1000
0000
,  // measure 60
0010
1000
0001
0010
,  // measure 61
0001
1000
0010
1000
,  // measure 62
0001
1000
0010
0100
,  // measure 63
0001
0010
0100
1000
,  // measure 64
1000
0000
0010
0000
,  // measure 65
0000
0000
0000
0000
0100
0001
0100
0001
,  // measure 66
0100
0000
0000
0000
;

//---------------dance-single - ----------------
#NOTEDATA:;
#CHARTNAME:;
#STEPSTYPE:dance-single;
#DESCRIPTION:;
#CHARTSTYLE:;
#DIFFICULTY:Hard;
#METER:10;
#RADARVALUES:0.360516,0.354379,0.161081,0.000000,0.000000,352.000000,24.000000,0.000000,0.000000,0.000000,0.000000,0.000000,0.000000,0.360516,0.354379,0.161081,0.000000,0.000000,352.000000,24.000000,0.000000,0.000000,0.000000,0.000000,0.000000,0.000000;
#CREDIT:;
#NOTES:
// measure 0
0000
0000
0000
0000
,  // measure 1
0000
0000
0000
0000
,  // measure 2
0000
0000
0000
0000
,  // measure 3
0000
0000
0000
0000
,  // measure 4
1000
0100
0010
0001
,  // measure 5
0100
0001
1000
0010
1000
0000
0100
0000
,  // measure 6
0010
0001
0100
0001
,  // measure 7
1000
0100
1000
0100
0010
0001
0100
0000
,  // measure 8
1001
1000
0100
0000
0001
1000
0001
0000
,  // measure 9
1001
0001
0010
0000
1000
0001
1000
0000
,  // measure 10
0100
0001
1001
0000
0010
1000
1001
0000
,  // measure 11
0010
1000
0100
0001
,  // measure 12
1001
0100
0100
0000
1000
0100
0100
0000
,  // measure 13
1001
0010
0010
0000
0001
0010
0010
0000
,  // measure 14
0001
0010
0100
1000
0000
0001
1000
0000
,  // measure 15
0001
0100
0010
1000
0000
0010
1000
0000
,  // measure 16
1001
0001
0010
0000
1000
0001
1000
0000
,  // measure 17
1001
1000
0100
0000
0001
1000
0001
0000
,  // measure 18
0010
1000
1001
0000
0100
0001
1001
0000
,  // measure 19
0100
0001
0010
1000
,  // measure 20
1001
0010
0010
0000
0001
0010
0010
0000
,  // measure 21
1001
0100
0100
0000
1000
0100
0100
0000
,  // measure 22
1000
0100
0010
0001
0000
1000
0001
0000
,  // measure 23
1000
0010
0100
0001
0000
0100
0001
0100
,  // measure 24
0100
0010
1000
0000
0100
0010
0001
0000
,  // measure 25
1000
0100
1000
0000
0001
0100
0001
0100
,  // measure 26
0010
0100
0001
0000
0010
0100
1000
0000
,  // measure 27
0001
1000
0001
0000
1000
0001
1000
0001
,  // measure 28
0010
0100
1000
0000
0010
0100
0001
0000
,  // measure 29
0100
0010
1000
0000
0001
0100
0001
0100
,  // measure 30
0010
0100
0001
0000
0010
0100
1000
0000
,  // measure 31
0001
0010
0100
0000
1000
0100
1000
0100
,  // measure 32
1000
0100
0010
0000
0001
0010
0100
0000
,  // measure 33
1000
0001
0100
0010
,  // measure 34
0100
0010
1000
0000
0010
0100
0001
0000
,  // measure 35
1000
0100
0010
0001
,  // measure 36
0010
0100
1000
0000
0001
0010
0100
0000
,  // measure 37
1000
0001
0100
0010
,  // measure 38
1000
0001
0100
0000
0001
1000
0100
0000
,  // measure 39
0010
0010
0010
0010
0010
0010
0010
0000
,  // measure 40
0010
0100
1000
0000
0001
0010
0100
0000
,  // measure 41
1000
0001
0100
0010
,  // measure 42
1000
0001
0010
0000
0100
1000
0001
0000
,  // measure 43
1000
0100
0001
0100
,  // measure 44
1000
0010
0100
0000
0001
0000
0010
0000
,  // measure 45
0100
1000
0001
0000
0010
0000
0100
0000
,  // measure 46
1000
0001
1000
0000
0001
1000
0001
0000
,  // measure 47
0100
0100
0100
0100
0100
0100
0100
0000
,  // measure 48
1001
1000
0100
0000
0001
1000
0001
0000
,  // measure 49
1001
0001
0010
0000
1000
0001
1000
0000
,  // measure 50
0100
0001
1001
0000
0010
1000
1001
0000
,  // measure 51
0010
1000
0100
0001
,  // measure 52
1001
0100
0100
0000
1000
0100
0100
0000
,  // measure 53
1001
0010
0010
0000
0001
0010
0010
0000
,  // measure 54
0001
0010
0100
1000
0000
0001
1000
0000
,  // measure 55
0001
0100
0010
1000
0000
0010
1000
0000
,  // measure 56
1001
0001
0010
0000
1000
0001
1000
0000
,  // measure 57
1001
1000
0100
0000
0001
1000
0001
0000
,  // measure 58
0010
1000
1001
0000
0100
0001
1001
0000
,  // measure 59
0100
0001
0010
1000
,  // measure 60
1001
0010
0010
0000
0001
0010
0010
0000
,  // measure 61
1001
0100
0100
0000
1000
0100
0100
0000
,  // measure 62
1000
0100
0010
0001
0000
0010
0001
0000
,  // measure 63
0001
0010
0100
1000
0000
0100
1000
0100
,  // measure 64
1000
0000
0001
0000
,  // measure 65
0000
0000
0000
0000
0100
0100
0100
0100
,  // measure 66
0100
0000
0000
0000
;
