#TITLE:Last Burning;
#SUBTITLE:;
#ARTIST:Dirty Androids;
#TITLETRANSLIT:;
#SUBTITLETRANSLIT:;
#ARTISTTRANSLIT:;
#GENRE:;
#CREDIT:Chewi☆;
#MENUCOLOR:;
#METERTYPE:DDR X;
#BANNER:Last Burning.png;
#BACKGROUND:Last Burning-bg.png;
#LYRICSPATH:;
#CDTITLE:;
#MUSIC:Last Burning.mp3;
#OFFSET:-0.419;
#SAMPLESTART:44.743;
#SAMPLELENGTH:15.000;
#SELECTABLE:YES;
#LISTSORT:;
#DISPLAYBPM:130.000;
#BPMS:0.000=130.000;
#STOPS:;
#BGCHANGES:;
#ATTACKS:;

//---------------dance-single - Chewi----------------
#NOTES:
     dance-single:
     Chewi:
     Beginner:
     2:
     0.142,0.159,0.011,0.089,0.000: // measure 1
0000
0000
0000
0000
,  // measure 2
0000
0000
0000
0000
,  // measure 3
0000
0000
0000
0000
,  // measure 4
0000
0000
0000
0000
,  // measure 5
1000
0000
1000
0000
,  // measure 6
0001
0000
0001
0000
,  // measure 7
0100
0000
0010
0000
,  // measure 8
0100
0000
0010
0000
,  // measure 9
0010
0000
0100
0000
,  // measure 10
0010
0000
0100
0000
,  // measure 11
0010
0000
0100
0000
,  // measure 12
0010
0000
0100
0000
,  // measure 13
0100
0000
0010
0000
,  // measure 14
0100
0000
0010
0000
,  // measure 15
0100
0000
0010
0000
,  // measure 16
0100
0000
0010
0000
,  // measure 17
0020
0000
0000
0030
,  // measure 18
0200
0000
0000
0300
,  // measure 19
0020
0000
0000
0030
,  // measure 20
0200
0000
0000
0300
,  // measure 21
1000
0000
1000
0000
,  // measure 22
0001
0000
0001
0000
,  // measure 23
0100
0000
0010
0000
,  // measure 24
0100
0000
0010
0000
,  // measure 25
0010
0000
1000
0000
,  // measure 26
0010
0000
0001
0000
,  // measure 27
0010
0000
1000
0000
,  // measure 28
0010
0000
0001
0000
,  // measure 29
1000
0000
0100
0000
,  // measure 30
0001
0000
0010
0000
,  // measure 31
1000
0000
0100
0000
,  // measure 32
0001
0000
0010
0000
,  // measure 33
2000
0000
0000
3000
,  // measure 34
1000
0000
1000
0000
,  // measure 35
0002
0000
0000
0003
,  // measure 36
0001
0000
0001
0000
,  // measure 37
0200
0000
0000
0300
,  // measure 38
0100
0000
0100
0000
,  // measure 39
0020
0000
0000
0030
,  // measure 40
0010
0000
0010
0000
,  // measure 41
1000
0000
0001
0000
,  // measure 42
0010
0000
0100
0000
,  // measure 43
0001
0000
1000
0000
,  // measure 44
0100
0000
0010
0000
,  // measure 45
1000
0000
0010
0000
,  // measure 46
0001
0000
0010
0000
,  // measure 47
0110
0000
0001
0000
,  // measure 48
0100
0000
0001
0001
;

//---------------dance-single - Chewi----------------
#NOTES:
     dance-single:
     Chewi:
     Easy:
     4:
     0.222,0.265,0.011,0.233,0.000: // measure 1
0000
0000
0000
0000
,  // measure 2
0000
0000
0000
0000
,  // measure 3
0000
0000
0000
0000
,  // measure 4
0000
0000
0000
0000
,  // measure 5
1000
1000
2000
3000
,  // measure 6
0001
0001
0002
0003
,  // measure 7
0200
0000
0320
0000
,  // measure 8
0230
0000
0020
0330
,  // measure 9
0010
1000
0100
0000
,  // measure 10
0010
1000
0100
0000
,  // measure 11
0010
0001
0100
0000
,  // measure 12
0010
0001
0100
0000
,  // measure 13
0100
1000
0010
0000
,  // measure 14
0100
1000
0010
0000
,  // measure 15
0100
0001
0010
0000
,  // measure 16
0100
0001
0010
0000
,  // measure 17
0020
0000
0000
0030
,  // measure 18
2000
0000
0000
3000
,  // measure 19
0002
0000
0000
0003
,  // measure 20
2000
0000
0000
3000
,  // measure 21
1000
0100
2000
3000
,  // measure 22
0001
0100
0002
0003
,  // measure 23
0200
0000
0320
0000
,  // measure 24
0230
0000
0020
0330
,  // measure 25
0010
0010
1000
0000
,  // measure 26
0010
0010
0001
0000
,  // measure 27
0010
0100
1000
0000
,  // measure 28
0010
0100
0001
0000
,  // measure 29
1000
1000
0100
0000
,  // measure 30
0001
0001
0010
0000
,  // measure 31
1000
0010
0100
0000
,  // measure 32
0001
0100
0010
0000
,  // measure 33
2000
0000
0001
0000
,  // measure 34
0001
0000
0100
3100
,  // measure 35
0002
0000
1000
0000
,  // measure 36
1000
0000
0100
0103
,  // measure 37
0200
0000
0010
0000
,  // measure 38
0010
0000
0010
0310
,  // measure 39
0020
0000
1000
0000
,  // measure 40
1000
0000
1000
1030
,  // measure 41
1000
0100
0001
0000
,  // measure 42
0010
1000
0100
0000
,  // measure 43
0001
0010
1000
0000
,  // measure 44
0100
0001
0010
0000
,  // measure 45
1000
0100
0010
0000
,  // measure 46
0001
0100
0010
0000
,  // measure 47
0110
1000
0001
1000
,  // measure 48
0100
0010
0002
1003
;

//---------------dance-single - Chewi----------------
#NOTES:
     dance-single:
     Chewi:
     Medium:
     8:
     0.356,0.450,0.166,0.100,0.100: // measure 1
0000
0000
0000
0000
,  // measure 2
0000
0000
0000
0000
,  // measure 3
0000
0000
0000
0000
,  // measure 4
0000
0000
0000
0000
,  // measure 5
1000
0001
1000
0000
0002
0000
1003
0000
,  // measure 6
1000
0010
1000
0000
2000
0000
3010
0000
,  // measure 7
0001
0100
0001
0000
0200
0000
0301
0000
,  // measure 8
2002
0000
3000
0003
,  // measure 9
1000
0100
1000
0000
0010
0000
0000
0000
,  // measure 10
0001
0100
0001
0000
0010
0000
0000
0000
,  // measure 11
0001
1000
0001
0000
1000
0000
0000
0000
,  // measure 12
1000
0001
1000
0000
0010
0000
0000
0000
,  // measure 13
0100
0001
0100
0000
0010
0000
0000
0000
,  // measure 14
1000
0010
1000
0000
0100
0000
0000
0000
,  // measure 15
1000
0100
0010
0000
0001
0010
0100
0000
,  // measure 16
1000
0001
1000
0001
1000
0100
1000
0100
1000
0010
0000
0000
,  // measure 17
2000
0000
0000
0000
,  // measure 18
3020
0000
0000
0000
,  // measure 19
0032
0000
0000
0000
,  // measure 20
0203
0000
0000
0000
,  // measure 21
1300
1010
1000
1001
,  // measure 22
0001
0011
0001
1001
,  // measure 23
0100
0100
0100
0000
0010
0010
0010
0000
,  // measure 24
1000
1000
1000
0000
0001
0001
0001
0000
,  // measure 25
1000
0100
1000
0000
0010
0000
1000
0000
,  // measure 26
0100
0010
0001
0101
,  // measure 27
0001
0100
0001
0000
0010
0000
0001
0000
,  // measure 28
1000
0100
0010
0110
,  // measure 29
0010
0100
1000
0000
0010
0000
0100
0000
,  // measure 30
0001
0100
0010
1010
,  // measure 31
1000
0001
0010
0000
0100
0000
0010
0000
,  // measure 32
0001
1000
0100
1100
,  // measure 33
0000
0000
1000
0000
1000
0000
0000
1000
0000
0000
1000
0000
0001
0000
0000
0001
,  // measure 34
0000
0000
0001
0000
1000
0000
0000
1000
0000
0000
1000
0000
0001
0000
1000
0000
,  // measure 35
0010
0000
0010
0000
0010
0000
0000
0010
0000
0000
0010
0000
0100
0000
0000
0100
,  // measure 36
0000
0000
0100
0000
0010
0000
0000
0010
0000
0000
0010
0000
1000
0000
0100
0000
,  // measure 37
1000
0000
1000
0000
1000
0000
0000
1000
0000
0000
1000
0000
0001
0000
0000
0001
,  // measure 38
0000
0000
0001
0000
1000
0000
0000
1000
0000
0000
1000
0000
0100
0000
0010
0000
,  // measure 39
0100
0000
1000
0000
1000
0000
0000
1000
0000
0000
1000
0000
0001
0000
0000
0001
,  // measure 40
0000
0000
0001
0000
1000
0000
0000
1000
0000
0000
1000
0000
1000
0000
0000
0000
,  // measure 41
1000
0100
1000
0000
0010
0000
0000
0000
,  // measure 42
1000
0001
0010
0000
0100
0000
0000
0000
,  // measure 43
1000
0001
0100
0000
0010
0000
0000
0000
,  // measure 44
1000
0010
0100
0000
0001
0000
0000
0000
,  // measure 45
1000
0100
1000
0000
0001
0000
0011
0000
,  // measure 46
0001
0010
0001
0000
1000
0000
1100
0000
,  // measure 47
1001
0110
0100
0010
,  // measure 48
0100
0010
1000
0000
0101
0000
1100
0000
;

//---------------dance-single - Chewi----------------
#NOTES:
     dance-single:
     Chewi:
     Hard:
     13:
     0.541,0.582,0.565,0.089,0.266: // measure 1
0000
0000
0000
0000
,  // measure 2
0000
0000
0000
0000
,  // measure 3
0000
0000
0000
0000
,  // measure 4
0000
0000
0000
0000
,  // measure 5
1000
0010
0100
0010
2000
0000
3001
0000
,  // measure 6
0001
0010
0100
0010
0002
0000
1003
0000
,  // measure 7
0100
0100
0100
0000
0010
0010
0010
0000
,  // measure 8
0220
0000
0030
0300
,  // measure 9
0010
0000
1000
0000
0100
0000
1000
0010
1000
0000
0000
0000
1100
0000
0000
0000
,  // measure 10
0010
0000
0001
0000
0100
0000
0001
0100
0001
0000
0000
0000
0101
0000
0000
0000
,  // measure 11
1000
0000
0001
0000
0100
0000
0010
1000
0010
0000
0000
0000
1010
0000
0000
0000
,  // measure 12
1000
0000
0001
0000
0010
0000
0001
0010
0001
0000
0000
0000
0011
0000
0000
0000
,  // measure 13
0001
0000
1001
0000
1000
0100
1000
0000
0010
0000
0100
0000
0101
0000
0000
0000
,  // measure 14
1000
0000
1010
0000
0010
0100
0001
0000
0010
0000
0001
0000
0011
0000
0000
0000
,  // measure 15
1001
0100
0010
0000
1001
0010
0100
1000
,  // measure 16
0001
0000
0010
0000
0001
0000
0010
0000
0100
0000
1000
0000
0100
0000
1000
0000
0010
0000
1000
0000
0000
0001
0000
0000
,  // measure 17
2001
0000
0000
0000
,  // measure 18
3200
0000
0000
0000
,  // measure 19
0302
0000
0000
0000
,  // measure 20
0023
0000
0000
0000
,  // measure 21
1030
0100
1100
0000
0001
0010
0011
0000
,  // measure 22
1000
0001
1001
0000
0001
1000
1001
0000
,  // measure 23
0100
0000
0100
0000
0000
0100
0000
0000
0010
0000
0010
0000
0000
0010
0000
0000
,  // measure 24
1000
0100
0010
0001
0010
0100
1000
0001
1000
0000
0000
0000
1010
0000
0000
0000
,  // measure 25
0100
0000
0000
0100
0001
0000
0010
0000
0100
1000
0010
0000
1100
0000
0000
0000
,  // measure 26
1000
0000
0000
1000
0100
0000
0010
0000
0100
1000
0100
0000
1100
0000
0000
0000
,  // measure 27
0001
0000
0000
0001
1000
0000
0010
0000
0100
0001
0100
0000
0101
0000
0000
0000
,  // measure 28
0100
0000
0000
0100
0010
0000
1000
0000
0001
1000
0001
0000
1100
0000
0000
0000
,  // measure 29
0001
0000
0010
0000
0100
0000
1000
0000
0010
1000
0100
0000
1010
0000
0000
0000
,  // measure 30
1000
0000
0100
0000
0010
0000
0001
0000
0100
0001
0010
0000
0011
0000
0000
0000
,  // measure 31
0001
0000
1000
0000
0010
0000
0100
0000
0001
0100
0001
0000
1001
0000
0000
0000
,  // measure 32
1000
0000
0100
0000
0010
0000
0100
0000
1000
0010
0100
0000
0101
0000
0000
0000
,  // measure 33
1000
0000
0001
0000
1000
0000
0000
1100
0000
0000
0001
0000
1000
0000
0000
1010
,  // measure 34
0000
0000
0001
0000
0100
0000
0000
0101
0000
0000
0100
0000
0100
0000
0100
0000
,  // measure 35
0100
0000
0010
0000
1000
0000
0000
1001
0000
0000
0010
0000
0100
0000
0000
1100
,  // measure 36
0000
0000
1000
0000
0001
0000
0000
0101
0000
0000
0100
0000
0010
0000
0100
0000
,  // measure 37
0001
0000
0010
0000
0100
0000
0000
1100
0000
0000
1000
0000
0001
0000
0000
0101
,  // measure 38
0000
0000
1000
0000
0010
0000
0000
1010
0000
0000
0010
0000
0010
0000
0010
0000
,  // measure 39
0010
0000
0100
0000
0001
0000
0000
0101
0000
0000
0001
0000
1000
0000
0000
1100
,  // measure 40
0000
0000
0010
0000
0001
0000
0000
1001
0000
0000
1000
0000
1001
0000
0000
0000
,  // measure 41
0100
0000
0001
0000
0010
0000
0001
0100
0001
0000
0000
0000
0011
0000
0000
0000
,  // measure 42
0100
0000
1000
0000
0010
0000
1000
0010
1000
0000
0000
0000
1010
0000
0000
0000
,  // measure 43
0001
0000
1000
0000
0010
0000
0100
0001
0100
0000
0000
0000
0101
0000
0000
0000
,  // measure 44
0001
0000
1000
0000
0100
0000
1000
0100
1000
0000
0000
0000
1100
0000
0000
0000
,  // measure 45
1000
0000
1001
0000
0001
0010
0001
0000
0100
0000
0010
0000
1010
0000
0000
0000
,  // measure 46
0001
0000
0101
0000
0100
0010
1000
0000
0100
0000
1000
0000
1100
0000
0000
0000
,  // measure 47
1010
0000
0101
0000
1001
0100
0010
0000
,  // measure 48
0001
0010
0100
1000
1100
0000
0101
0000
;
