#TITLE:La Bossanova de Fabienne;
#SUBTITLE:;
#ARTIST:staccato two-F;
#TITLETRANSLIT:;
#SUBTITLETRANSLIT:;
#ARTISTTRANSLIT:;
#GENRE:;
#CREDIT:Chewphoria~;
#MENUCOLOR:;
#METERTYPE:DDR;
#BANNER:La Bossanova de Fabienne.png;
#BACKGROUND:La Bossanova de Fabienne-bg.png;
#LYRICSPATH:;
#CDTITLE:;
#MUSIC:La Bossanova de Fabienne.mp3;
#OFFSET:-4.057;
#SAMPLESTART:64.420;
#SAMPLELENGTH:15.000;
#SELECTABLE:YES;
#LISTSORT:;
#BPMS:0.000=143.020;
#STOPS:;
#BGCHANGES:;
#ATTACKS:;

//---------------dance-single - Chewphoria~----------------
#NOTES:
     dance-single:
     Chewphoria~:
     Hard:
     10:
     0.426,0.426,0.402,0.010,0.000: // measure 1
0000
0000
0000
0000
,  // measure 2
0000
0000
0000
0000
,  // measure 3
1001
0000
0000
0000
0000
0010
1000
0100
,  // measure 4
0000
0000
0000
0000
0000
0001
0100
1000
,  // measure 5
0010
0000
1010
0000
0000
1000
0010
0001
,  // measure 6
0100
0000
0000
0000
,  // measure 7
0000
0000
0011
0000
0000
0110
0000
0000
,  // measure 8
1100
0000
0000
1001
0000
1000
0001
0000
,  // measure 9
1000
0010
0100
0001
1000
0010
0100
0001
,  // measure 10
0100
0000
0000
0000
,  // measure 11
0010
0000
1000
0000
0001
0000
0010
0100
,  // measure 12
0000
0100
0010
0001
0010
1000
0010
0000
,  // measure 13
0001
0000
0100
0000
1000
0100
0001
0010
,  // measure 14
0100
0000
0000
0100
0000
1000
0001
0000
,  // measure 15
1001
0000
1010
0000
1000
0010
0100
0001
,  // measure 16
0100
0000
0110
0000
1000
0010
1000
0001
,  // measure 17
0010
0000
0110
0000
0010
0001
0000
0010
,  // measure 18
0000
1000
0000
0100
0000
0000
0000
0000
,  // measure 19
0110
0000
0101
0000
0100
0010
1000
0100
,  // measure 20
0010
0001
0010
0000
0100
0010
0100
0000
,  // measure 21
0010
0001
1000
0000
0010
0100
0010
0100
,  // measure 22
0010
1010
1001
1100
,  // measure 23
1000
0100
0010
0001
1000
0100
0010
0001
,  // measure 24
1000
1001
0001
0101
,  // measure 25
0100
0100
0100
0000
0010
0100
0010
0000
,  // measure 26
0010
1000
0001
1000
0010
1000
0001
0000
,  // measure 27
0010
0010
0010
0000
0100
0010
0100
0000
,  // measure 28
0100
1000
0001
0010
0001
1000
0010
0000
,  // measure 29
1001
0000
0100
0010
0100
0000
1001
0000
,  // measure 30
0010
0000
0100
0010
0100
0000
0110
0000
,  // measure 31
0010
0000
0001
0010
0001
0000
0010
0000
,  // measure 32
0100
1000
0100
0001
0100
1000
0100
0000
,  // measure 33
1000
0010
1000
0000
0001
0000
0100
0000
,  // measure 34
0101
0000
1010
0000
1000
0010
0001
0010
,  // measure 35
1000
1100
0110
0011
,  // measure 36
0000
0011
0110
1100
,  // measure 37
0000
0000
1100
0000
0000
1001
0000
0000
,  // measure 38
0011
0000
0000
0110
0000
0011
0010
0000
,  // measure 39
0100
1000
0010
0000
0100
0001
0010
0100
,  // measure 40
1000
0000
0000
0001
0000
1000
0001
0000
,  // measure 41
1000
0000
0010
1000
0100
0000
0010
0001
,  // measure 42
0100
0000
0010
1000
0100
0001
0010
1000
,  // measure 43
0100
0000
0010
0100
0010
0001
0010
0001
,  // measure 44
0110
0000
0000
0000
,  // measure 45
0001
0000
0011
0000
0000
1010
0000
0011
,  // measure 46
0000
1010
1001
1010
,  // measure 47
0000
1000
0010
0100
0001
1000
0010
0100
,  // measure 48
0001
1000
0100
0010
0001
1000
0100
0010
,  // measure 49
0001
0010
0100
0000
0010
0100
0000
1000
,  // measure 50
0000
1000
0100
0001
0100
1000
0100
0000
,  // measure 51
0000
1000
0010
0001
0000
0001
0010
1000
,  // measure 52
0100
0001
0100
1000
0010
0100
0001
0100
,  // measure 53
0020
0000
0000
0000
,  // measure 54
0030
0000
0000
0000
;

//---------------dance-single - Chewphoria~----------------
#NOTES:
     dance-single:
     Chewphoria~:
     Medium:
     6:
     0.267,0.319,0.110,0.070,0.000: // measure 1
0000
0000
0000
0000
,  // measure 2
0000
0000
0000
0000
,  // measure 3
1100
0000
0000
0000
0000
0100
0010
0001
,  // measure 4
0000
0000
0000
0001
,  // measure 5
0101
0000
1010
0000
0000
1000
0010
0200
,  // measure 6
0000
0000
0000
0300
,  // measure 7
0010
0000
1000
0000
0000
0001
0000
0000
,  // measure 8
1000
0000
0000
0001
0000
0010
0010
0000
,  // measure 9
0000
0000
0100
0000
0000
0010
0000
0000
,  // measure 10
0200
0000
0000
0000
,  // measure 11
1300
0010
0001
0100
,  // measure 12
1000
0100
0001
0010
,  // measure 13
1000
0000
1000
0000
0001
1000
0001
1000
,  // measure 14
0001
0000
0000
0000
,  // measure 15
1000
0100
0001
0010
,  // measure 16
1000
0100
0001
0010
,  // measure 17
0100
0010
0100
0000
0010
0000
0000
0000
,  // measure 18
0010
0100
0010
0000
,  // measure 19
0010
0000
1000
0000
0010
1000
0010
1000
,  // measure 20
0010
0000
1000
0000
,  // measure 21
0100
0000
0001
0000
0100
0001
0100
0001
,  // measure 22
0100
0000
0000
0000
,  // measure 23
0010
1000
0010
0001
,  // measure 24
0100
1000
0100
0001
,  // measure 25
0011
0000
0010
0000
1000
0010
0000
0000
,  // measure 26
1000
0010
0100
0001
,  // measure 27
0101
0000
0100
0000
0001
0100
0000
0000
,  // measure 28
0010
1000
0001
1000
,  // measure 29
1001
0000
1000
0000
,  // measure 30
1000
0000
1000
1000
,  // measure 31
1010
0000
0010
0000
,  // measure 32
0010
0000
0010
0010
,  // measure 33
0110
0000
0100
0000
,  // measure 34
0100
0100
0100
0100
,  // measure 35
0100
0001
0010
1000
,  // measure 36
0020
2030
3020
2030
,  // measure 37
3000
0001
1000
0000
0000
0001
0000
0000
,  // measure 38
0010
0000
0000
0100
0000
1000
0100
0000
,  // measure 39
0010
0001
0010
0000
0000
0001
0000
0000
,  // measure 40
1000
0000
0000
0010
0000
0000
0000
0000
,  // measure 41
0100
0001
1100
0000
,  // measure 42
0010
1000
0011
0000
,  // measure 43
0010
0000
0100
0000
1000
0001
1000
0000
,  // measure 44
0001
0000
0000
0000
,  // measure 45
0101
0000
0100
0000
0000
0010
0000
0000
,  // measure 46
0100
0000
0010
0010
,  // measure 47
0000
1000
0010
0000
0000
1000
0001
0000
,  // measure 48
0000
1000
0100
0000
0000
1000
0001
0000
,  // measure 49
0000
0000
0010
0000
0000
0001
0000
0000
,  // measure 50
0010
0001
0010
0001
,  // measure 51
0000
0010
0001
0000
0000
0010
1000
0000
,  // measure 52
0000
0010
0100
0000
0100
0010
0100
0000
,  // measure 53
0200
0000
0000
0000
,  // measure 54
0300
0000
0000
0000
;

//---------------dance-single - Chewphoria~----------------
#NOTES:
     dance-single:
     Chewphoria~:
     Easy:
     4:
     0.185,0.235,0.090,0.000,0.000: // measure 1
0000
0000
0000
0000
,  // measure 2
0000
0000
0000
0000
,  // measure 3
1000
0000
0000
0010
,  // measure 4
0100
0000
0000
0000
,  // measure 5
0001
0000
0000
0010
,  // measure 6
0100
0000
0000
0000
,  // measure 7
0010
0000
0100
0000
,  // measure 8
0010
0000
0100
0000
,  // measure 9
0001
0000
1000
1000
,  // measure 10
1001
0000
0000
0000
,  // measure 11
0001
0000
1000
0000
,  // measure 12
0001
1000
1000
0000
,  // measure 13
1000
0000
0001
0000
,  // measure 14
1000
0001
0001
0000
,  // measure 15
1000
0000
0100
0000
,  // measure 16
0001
0000
0010
0000
,  // measure 17
0010
0100
0010
0000
,  // measure 18
0100
0010
0100
0000
,  // measure 19
0001
0000
0100
0000
,  // measure 20
1000
0000
0010
0000
,  // measure 21
1000
0000
0010
0000
,  // measure 22
0001
0000
0000
0000
,  // measure 23
0010
0010
0100
0000
,  // measure 24
0100
0100
0001
0000
,  // measure 25
0010
0010
0010
1001
,  // measure 26
0100
0100
0100
0000
,  // measure 27
0100
0100
0100
1001
,  // measure 28
0010
0010
0010
0000
,  // measure 29
1000
0000
0010
0000
,  // measure 30
0100
0000
0001
0000
,  // measure 31
1000
0000
0010
0000
,  // measure 32
0100
0000
0001
0000
,  // measure 33
1000
0000
0001
0000
,  // measure 34
0010
0010
0000
0000
,  // measure 35
0100
0000
0010
0000
,  // measure 36
0110
0000
0000
0000
,  // measure 37
0001
0001
0000
1000
,  // measure 38
0000
1000
0000
1000
,  // measure 39
1000
1000
0000
0001
,  // measure 40
0000
0001
0000
0001
,  // measure 41
1000
0100
1000
0100
,  // measure 42
0001
0100
0001
0100
,  // measure 43
0001
0010
1000
0010
,  // measure 44
0110
0000
0000
0000
,  // measure 45
0100
0010
0000
0010
,  // measure 46
0000
0010
0010
0010
,  // measure 47
0000
1000
0000
1001
,  // measure 48
0000
0001
0000
1001
,  // measure 49
1000
0100
0000
0100
,  // measure 50
0000
0100
0100
0100
,  // measure 51
0010
0000
0110
0000
,  // measure 52
0100
0000
1001
0000
,  // measure 53
0100
0000
0000
0000
;

//---------------dance-single - Chewphoria~----------------
#NOTES:
     dance-single:
     Chewphoria~:
     Beginner:
     1:
     0.103,0.131,0.050,0.000,0.000:
0000
0000
0000
0000
,
0000
0000
0000
0000
,
1000
0000
0000
0000
,
0100
0000
0000
0000
,
0001
0000
0000
0000
,
0100
0000
0000
0000
,
0010
0000
0100
0000
,
0010
0000
0100
0000
,
0001
0000
1000
1000
,
1000
0000
0000
0000
,
0001
0000
1000
0000
,
0001
0000
0000
0000
,
1000
0000
0001
0000
,
1000
0000
0000
0000
,
1000
0000
0100
0000
,
0001
0000
0010
0000
,
0010
0000
0000
0000
,
0100
0000
0000
0000
,
0001
0000
0100
0000
,
1000
0000
0010
0000
,
1000
0000
0000
0000
,
0001
0000
0000
0000
,
0010
0000
0100
0000
,
0100
0000
0001
0000
,
0010
0000
0000
0000
,
0100
0000
0000
0000
,
0100
0000
0000
0000
,
0010
0000
0000
0000
,
1000
0000
0000
0000
,
0100
0000
0000
0000
,
1000
0000
0000
0000
,
0100
0000
0000
0000
,
1000
0000
0000
0000
,
0010
0010
0010
0000
,
0100
0000
0000
0000
,
0110
0000
0000
0000
,
0001
0000
0000
1000
,
0000
1000
0000
1000
,
1000
0000
0000
0000
,
0001
0000
0000
0000
,
1000
0000
0000
0000
,
0001
0000
0000
0000
,
0001
0000
0000
0000
,
0110
0000
0000
0000
,
0100
0000
0000
0000
,
0010
0000
0000
0000
,
1000
0000
0000
0000
,
1001
0000
0000
0000
,
1000
0000
0000
0000
,
0100
0000
0000
0000
,
0110
0000
0000
0000
,
0100
0000
0000
0000
,
1001
0000
0000
0000
;
