#VERSION:0.82;
#TITLE:LOVE IS TIMING;
#SUBTITLE:;
#ARTIST:3tempo Produced by Sota Fujimori;
#TITLETRANSLIT:;
#SUBTITLETRANSLIT:;
#ARTISTTRANSLIT:;
#GENRE:Dub House;
#ORIGIN:;
#CREDIT:chewi;
#BANNER:LOVE IS TIMING.png;
#BACKGROUND:LOVE IS TIMING-bg.png;
#PREVIEWVID:;
#JACKET:LOVE IS TIMING-jacket.png;
#CDIMAGE:;
#DISCIMAGE:;
#LYRICSPATH:;
#CDTITLE:cdtitle.png;
#MUSIC:LOVE IS TIMING.ogg;
#OFFSET:-1.195000;
#SAMPLESTART:82.426003;
#SAMPLELENGTH:15.000000;
#SELECTABLE:YES;
#BPMS:0.000=130.000;
#STOPS:;
#DELAYS:;
#WARPS:;
#TIMESIGNATURES:0.000=4=4;
#TICKCOUNTS:0.000=4;
#COMBOS:0.000=1;
#SPEEDS:0.000=1.000=0.000=0;
#SCROLLS:0.000=1.000;
#FAKES:;
#LABELS:0.000=Song Start;
#BGCHANGES:;
#KEYSOUNDS:;
#ATTACKS:
;

//---------------dance-single - ----------------
#NOTEDATA:;
#CHARTNAME:;
#STEPSTYPE:dance-single;
#DESCRIPTION:;
#CHARTSTYLE:;
#DIFFICULTY:Beginner;
#METER:3;
#RADARVALUES:0.167901,0.151111,0.083950,0.016790,0.000000,128.000000,10.000000,2.000000,0.000000,0.000000,0.000000,0.000000,0.000000,0.167901,0.151111,0.083950,0.016790,0.000000,128.000000,10.000000,2.000000,0.000000,0.000000,0.000000,0.000000,0.000000;
#CREDIT:;
#NOTES:
// measure 0
0000
0000
0000
0000
,  // measure 1
0000
0000
0000
0000
,  // measure 2
0000
0000
0000
0000
,  // measure 3
0000
0000
0000
0000
,  // measure 4
1000
0000
1000
0000
,  // measure 5
0001
0001
0001
0000
,  // measure 6
0001
0000
0001
0000
,  // measure 7
1000
1000
1000
0000
,  // measure 8
0010
0000
0010
0000
,  // measure 9
0100
0000
0100
0000
,  // measure 10
0010
0000
0010
0000
,  // measure 11
0100
0000
0100
0000
,  // measure 12
1000
0000
1000
0000
,  // measure 13
0001
0000
0001
0000
,  // measure 14
1000
0000
1000
0000
,  // measure 15
0001
0000
0001
0000
,  // measure 16
1001
0000
0000
0000
,  // measure 17
0100
0100
0100
0000
,  // measure 18
1001
0000
0000
0000
,  // measure 19
0010
0010
0010
0000
,  // measure 20
0110
0000
0000
0000
,  // measure 21
1000
1000
1000
0000
,  // measure 22
0110
0000
0000
0000
,  // measure 23
0001
0001
0001
0000
,  // measure 24
1000
0000
0001
0000
,  // measure 25
1000
1000
1000
0000
,  // measure 26
0001
0000
1000
0000
,  // measure 27
0001
0001
0001
0000
,  // measure 28
0100
0100
0100
0000
,  // measure 29
0100
0100
0100
0000
,  // measure 30
0010
0010
0010
0000
,  // measure 31
0010
0010
0010
0000
,  // measure 32
0110
0000
0100
0000
,  // measure 33
0100
0100
0100
0000
,  // measure 34
1001
0000
1000
0000
,  // measure 35
1000
1000
1000
0000
,  // measure 36
1001
0000
0010
0000
,  // measure 37
0010
0010
0010
0000
,  // measure 38
0110
0000
0001
0000
,  // measure 39
0001
0001
0001
0000
,  // measure 40
0002
0000
0000
0000
,  // measure 41
0000
0000
0000
0003
,  // measure 42
2000
0000
0000
0000
,  // measure 43
0000
0000
0000
3000
,  // measure 44
1000
0000
1000
0000
,  // measure 45
1000
1000
1000
0000
,  // measure 46
0001
0000
0001
0000
,  // measure 47
0001
0001
0001
0000
,  // measure 48
0100
0000
0100
0000
,  // measure 49
0100
0100
0100
0000
,  // measure 50
0010
0000
0010
0000
,  // measure 51
0010
0010
0010
0000
,  // measure 52
0110
0000
0100
0000
,  // measure 53
0100
0100
0100
0000
,  // measure 54
0010
0000
0010
0000
,  // measure 55
0010
0010
0010
0000
,  // measure 56
1001
0000
1000
0000
,  // measure 57
1000
1000
1000
0000
,  // measure 58
0001
0000
0001
0000
,  // measure 59
0001
0001
0001
0001
,  // measure 60
0001
0000
0000
0000
;

//---------------dance-single - ----------------
#NOTEDATA:;
#CHARTNAME:;
#STEPSTYPE:dance-single;
#DESCRIPTION:;
#CHARTSTYLE:;
#DIFFICULTY:Easy;
#METER:5;
#RADARVALUES:0.199082,0.201481,0.025185,0.142716,0.000000,146.000000,3.000000,17.000000,0.000000,0.000000,0.000000,0.000000,0.000000,0.199082,0.201481,0.025185,0.142716,0.000000,146.000000,3.000000,17.000000,0.000000,0.000000,0.000000,0.000000,0.000000;
#CREDIT:;
#NOTES:
// measure 0
0000
0000
0000
0000
,  // measure 1
0000
0000
0000
0000
,  // measure 2
0000
0000
0000
0000
,  // measure 3
0000
0000
0000
0000
,  // measure 4
2000
0000
0000
3000
,  // measure 5
0002
0000
0000
0003
,  // measure 6
0200
0000
0000
0300
,  // measure 7
0020
0000
0000
0030
,  // measure 8
0010
1000
0100
0000
,  // measure 9
1000
0100
1000
0000
,  // measure 10
0100
0010
0100
0000
,  // measure 11
0010
0001
0010
0000
,  // measure 12
0010
0001
0100
0000
,  // measure 13
0100
0001
0100
0000
,  // measure 14
0010
0100
0010
0000
,  // measure 15
1000
0010
1000
0000
,  // measure 16
1001
0000
1000
0000
,  // measure 17
0001
1000
0100
0000
,  // measure 18
1000
0000
0001
0000
,  // measure 19
0100
0100
0100
0000
,  // measure 20
0110
0000
0010
0000
,  // measure 21
0100
0010
1000
0000
,  // measure 22
0001
0000
1000
0000
,  // measure 23
0100
0100
0100
0000
,  // measure 24
0100
0000
0100
0000
,  // measure 25
0100
0010
0002
0000
,  // measure 26
0013
0000
0001
0000
,  // measure 27
0010
0100
2000
0000
,  // measure 28
3001
0000
1000
0000
,  // measure 29
0001
1000
0020
0000
,  // measure 30
0130
0000
0010
0000
,  // measure 31
0100
0001
0200
0000
,  // measure 32
0301
0001
0001
0001
,  // measure 33
0010
0010
0010
0010
,  // measure 34
1000
1000
1000
1000
,  // measure 35
0100
0100
0100
0100
,  // measure 36
0001
0001
0001
0001
,  // measure 37
0010
0010
0010
0010
,  // measure 38
1000
1000
1000
1000
,  // measure 39
0100
0100
0100
0100
,  // measure 40
0002
0000
0000
0000
,  // measure 41
0000
0000
0000
0003
,  // measure 42
0002
0000
0000
0000
,  // measure 43
0000
0000
0000
0003
,  // measure 44
0001
0001
0010
0010
,  // measure 45
0020
0000
0000
0030
,  // measure 46
0100
0100
1000
1000
,  // measure 47
2000
0000
0000
3000
,  // measure 48
1000
1000
0001
0001
,  // measure 49
0200
0000
0000
0300
,  // measure 50
0100
0100
0010
0010
,  // measure 51
2000
0000
0000
3000
,  // measure 52
0010
0010
0100
0100
,  // measure 53
0002
0000
0000
0003
,  // measure 54
1000
1000
0001
0001
,  // measure 55
0020
0000
0000
0030
,  // measure 56
0100
0100
0010
0010
,  // measure 57
0002
0000
0000
0003
,  // measure 58
1000
1000
0100
0100
,  // measure 59
1000
1000
0001
0001
,  // measure 60
1001
0000
0000
0000
;

//---------------dance-single - ----------------
#NOTEDATA:;
#CHARTNAME:;
#STEPSTYPE:dance-single;
#DESCRIPTION:;
#CHARTSTYLE:;
#DIFFICULTY:Medium;
#METER:7;
#RADARVALUES:0.329805,0.352592,0.092345,0.486912,0.000000,206.000000,11.000000,58.000000,0.000000,0.000000,0.000000,0.000000,0.000000,0.329805,0.352592,0.092345,0.486912,0.000000,206.000000,11.000000,58.000000,0.000000,0.000000,0.000000,0.000000,0.000000;
#CREDIT:;
#NOTES:
// measure 0
0000
0000
0000
0000
,  // measure 1
0000
0000
0000
0000
,  // measure 2
0000
0000
0000
0000
,  // measure 3
0000
0000
0000
0000
,  // measure 4
2000
3100
0002
0103
,  // measure 5
2000
3100
0002
0103
,  // measure 6
2000
3010
0002
0013
,  // measure 7
2000
3010
0002
0013
,  // measure 8
0010
0000
0010
0000
0010
0010
0010
0000
,  // measure 9
0100
0100
0100
0100
,  // measure 10
1000
0000
1000
0000
1000
1000
1000
0000
,  // measure 11
0001
0001
0001
0001
,  // measure 12
0100
0000
0010
0000
0100
0010
0100
0000
,  // measure 13
0010
1000
0001
1000
,  // measure 14
0100
0000
0010
0000
0100
0010
0100
0000
,  // measure 15
0010
0100
1000
0001
,  // measure 16
0000
1000
0001
0011
,  // measure 17
0000
0001
1000
1100
,  // measure 18
0000
1000
0001
0100
,  // measure 19
0001
1000
0100
1000
,  // measure 20
0000
0010
0100
0110
,  // measure 21
0000
0100
0010
1001
,  // measure 22
0000
0001
0010
1000
,  // measure 23
0001
0100
1000
0001
,  // measure 24
1002
0100
0010
1003
,  // measure 25
1000
0000
0100
0000
1000
1000
1000
0000
,  // measure 26
2001
0010
0100
3010
,  // measure 27
0010
0000
0100
0000
0001
0001
0001
0000
,  // measure 28
0102
1000
0100
1003
,  // measure 29
0100
0000
0010
0000
0001
0001
0001
0000
,  // measure 30
0012
1000
0100
1003
,  // measure 31
1000
0000
0001
0000
0100
0100
0100
0000
,  // measure 32
0010
0100
0010
0100
0020
0000
0130
0000
,  // measure 33
0010
0100
0010
0100
0010
0000
0100
0000
,  // measure 34
0001
0010
1000
0100
,  // measure 35
0001
0010
1000
0010
,  // measure 36
1000
0010
1000
0010
2000
0000
3010
0000
,  // measure 37
1000
0010
1000
0010
2000
0000
3010
0000
,  // measure 38
0001
0010
0100
1000
,  // measure 39
1000
0100
0010
0001
,  // measure 40
2002
0000
0000
0000
,  // measure 41
0000
0000
0000
0003
,  // measure 42
0020
0000
0000
0000
,  // measure 43
0000
0000
0000
3030
,  // measure 44
2000
3020
0230
0302
,  // measure 45
0203
0000
0000
0301
0000
0000
0000
0000
,  // measure 46
0002
2003
3200
0320
,  // measure 47
0230
0000
0000
0310
0000
0000
0000
0000
,  // measure 48
0200
0320
0032
2003
,  // measure 49
3002
0000
0000
0103
0000
0000
0000
0000
,  // measure 50
0200
0320
2030
3002
,  // measure 51
2003
0000
0000
3001
0000
0000
0000
0000
,  // measure 52
0002
0023
0230
2300
,  // measure 53
3200
0000
0000
1300
0000
0000
0000
0000
,  // measure 54
2000
3200
0320
0032
,  // measure 55
2003
0000
0000
3001
0000
0000
0000
0000
,  // measure 56
2000
3020
0230
0302
,  // measure 57
0203
0000
0000
0301
0000
0000
0000
0000
,  // measure 58
0200
0320
2030
3020
,  // measure 59
0230
0000
0301
1001
,  // measure 60
0110
0000
0000
0000
;

//---------------dance-single - ----------------
#NOTEDATA:;
#CHARTNAME:;
#STEPSTYPE:dance-single;
#DESCRIPTION:;
#CHARTSTYLE:;
#DIFFICULTY:Hard;
#METER:9;
#RADARVALUES:0.389770,0.453332,0.201481,0.167901,0.000000,281.000000,24.000000,20.000000,0.000000,0.000000,0.000000,0.000000,0.000000,0.389770,0.453332,0.201481,0.167901,0.000000,281.000000,24.000000,20.000000,0.000000,0.000000,0.000000,0.000000,0.000000;
#CREDIT:;
#NOTES:
// measure 0
0000
0000
0000
0000
,  // measure 1
0000
0000
0000
0000
,  // measure 2
0000
0000
0000
0000
,  // measure 3
0000
0000
0000
0000
,  // measure 4
2000
0000
3100
0000
1000
0001
0100
0000
,  // measure 5
0002
0000
0103
0000
0001
1000
0100
0000
,  // measure 6
0020
0000
0130
0000
1000
0001
0010
0000
,  // measure 7
0200
0000
0310
0000
0001
1000
0010
0000
,  // measure 8
1000
0010
0001
0000
1000
0000
1001
0000
,  // measure 9
0001
0010
1000
0000
0001
0000
1001
0000
,  // measure 10
1000
0100
0001
0000
1000
0000
1001
0000
,  // measure 11
0001
0100
1000
0000
0001
0000
1001
0000
,  // measure 12
1000
0010
0100
0000
0010
0000
0101
0000
,  // measure 13
0001
0010
0100
0000
0010
0000
1100
0000
,  // measure 14
1000
0001
0100
0000
0010
0000
0101
0000
,  // measure 15
0001
1000
0010
0000
1000
0000
1100
0000
,  // measure 16
0000
1000
0100
0010
0001
1000
1001
0000
,  // measure 17
0000
0001
0010
0100
1000
0001
1001
0000
,  // measure 18
0000
0100
0010
1000
0001
0000
1001
0000
,  // measure 19
0100
0010
0001
1000
0001
0000
1001
0000
,  // measure 20
0000
1000
0100
1000
0010
1000
0100
0000
,  // measure 21
0000
0010
0001
0100
0001
0010
0001
0000
,  // measure 22
0000
0100
0010
1000
0001
0000
1001
0000
,  // measure 23
0000
0010
0100
1000
0001
0000
1001
0000
,  // measure 24
0012
2003
3200
2300
,  // measure 25
3001
0010
0100
1000
1002
0000
0203
0000
,  // measure 26
0310
0000
0100
0000
0001
0010
0100
1000
,  // measure 27
0010
1000
0100
0001
,  // measure 28
0020
0230
0302
0023
,  // measure 29
0031
0010
0100
1000
1002
0000
2003
0000
,  // measure 30
3001
0010
0001
0000
1000
0100
1000
0000
,  // measure 31
0001
1000
0010
0100
,  // measure 32
0001
0001
0001
0000
1000
0000
0101
0000
,  // measure 33
1000
1000
1000
0000
0001
0000
1100
0000
,  // measure 34
0010
0100
1000
0001
0010
0000
0010
0000
,  // measure 35
0100
1000
0001
0100
0010
0000
0010
0000
,  // measure 36
1000
1000
1000
0000
0001
0000
1010
0000
,  // measure 37
0001
0001
0001
0000
1000
0000
0011
0000
,  // measure 38
0100
0010
0001
1000
0100
0000
0100
0000
,  // measure 39
0010
0001
1000
0010
0100
0000
0100
0000
,  // measure 40
2002
0000
0000
0000
,  // measure 41
0000
0000
0000
3003
,  // measure 42
0220
0000
0000
0000
,  // measure 43
0000
0000
0000
0330
,  // measure 44
0001
0000
0010
0100
1000
0000
0100
0000
,  // measure 45
0010
0001
1000
0010
0000
1000
0010
0000
,  // measure 46
1000
0000
0100
0010
0001
0000
1000
0000
,  // measure 47
0010
1000
0001
0010
0000
0001
0010
0000
,  // measure 48
0001
0000
1000
0001
0100
0000
0100
0000
,  // measure 49
0010
0100
0001
1000
0000
0001
1000
0000
,  // measure 50
1000
0000
0100
0000
0010
0001
0100
0000
,  // measure 51
0010
1000
0001
0010
0000
0001
0010
0000
,  // measure 52
1000
0000
0100
0010
0001
0000
0010
0000
,  // measure 53
0100
1000
0001
0100
0000
0001
0100
0000
,  // measure 54
0001
0000
0010
0100
1000
0000
0001
0000
,  // measure 55
0100
0001
1000
0100
0000
1000
0100
0000
,  // measure 56
1000
0000
0001
1000
0010
0000
0010
0000
,  // measure 57
0100
0010
1000
0001
0000
1000
0001
0000
,  // measure 58
0001
0000
0010
0000
0100
1000
0010
0000
,  // measure 59
0100
0001
1000
0100
0010
0001
1000
0000
,  // measure 60
1001
0000
0000
0000
;
