#TITLE:LOVE & ROLL;
#SUBTITLE:;
#ARTIST:supercell;
#TITLETRANSLIT:;
#SUBTITLETRANSLIT:;
#ARTISTTRANSLIT:;
#CREDIT:Chewi☆;
#BANNER:LOVE & ROLL.png;
#BACKGROUND:LOVE & ROLL-bg.png;
#LYRICSPATH:;
#CDTITLE:;
#MUSIC:LOVE & ROLL.mp3;
#OFFSET:-0.525;
#SAMPLESTART:57.835;
#SAMPLELENGTH:15.000;
#SELECTABLE:YES;
#BPMS:0.000=134.000;
#STOPS:;
#BGCHANGES:;

//---------------dance-single - Chewi----------------
#NOTES:
     dance-single:
     Chewi:
     Easy:
     5:
     0.248,0.246,0.010,0.185,0.000: // measure 1
0000
0000
0000
0000
,  // measure 2
0000
0000
0000
0000
,  // measure 3
0000
0000
0000
0000
,  // measure 4
0000
0000
0000
0000
,  // measure 5
1000
0000
0000
0000
,  // measure 6
0010
0000
0000
0000
,  // measure 7
0001
0000
0000
0000
,  // measure 8
0100
0000
0000
0000
,  // measure 9
1000
1000
1000
1000
,  // measure 10
1000
1000
1000
1000
,  // measure 11
0010
0010
0010
0010
,  // measure 12
0010
0010
0010
0010
,  // measure 13
0100
0100
0100
0100
,  // measure 14
0100
0100
0100
0100
,  // measure 15
0001
0001
0001
0001
,  // measure 16
0001
0001
0001
0001
,  // measure 17
2000
0000
0010
0000
,  // measure 18
0010
0100
0010
0000
,  // measure 19
3002
0000
0010
0000
,  // measure 20
0100
0010
0100
0000
,  // measure 21
0203
0000
0320
0000
,  // measure 22
0230
0000
0320
0000
,  // measure 23
2030
0000
3200
0000
,  // measure 24
0320
0000
0032
0000
,  // measure 25
0023
0000
0001
0000
,  // measure 26
0001
0000
0001
0000
,  // measure 27
0032
0000
0100
0000
,  // measure 28
0100
1000
0100
0000
,  // measure 29
2003
0000
3020
0000
,  // measure 30
2030
0000
3000
0000
,  // measure 31
0002
0000
2003
0000
,  // measure 32
3001
0000
0000
0000
,  // measure 33
0010
0010
0010
0010
,  // measure 34
0100
0100
0100
0100
,  // measure 35
1000
1000
1000
1000
,  // measure 36
0001
0001
0001
0001
,  // measure 37
1000
1000
1000
1000
,  // measure 38
0100
0100
0100
0100
,  // measure 39
0010
0010
0010
0010
,  // measure 40
0001
0001
0001
0001
,  // measure 41
0001
0010
0001
0010
,  // measure 42
0001
0010
0100
1000
,  // measure 43
0100
1000
0100
1000
,  // measure 44
0100
1000
0001
0010
,  // measure 45
0100
0010
0100
0010
,  // measure 46
0100
0010
0001
1000
,  // measure 47
0010
0100
0010
0100
,  // measure 48
0010
0100
0001
1000
,  // measure 49
0001
1000
0001
0000
,  // measure 50
0001
1000
0100
0000
,  // measure 51
1000
0001
1000
0000
,  // measure 52
0001
1000
0010
0000
,  // measure 53
0010
0100
0010
0000
,  // measure 54
0010
0100
0001
0000
,  // measure 55
0010
0100
0010
0000
,  // measure 56
0010
0100
1000
0000
,  // measure 57
2002
3003
0000
0000
;

//---------------dance-single - Chewi----------------
#NOTES:
     dance-single:
     Chewi:
     Hard:
     11:
     0.477,0.493,0.399,0.019,0.000: // measure 1
0000
0000
0000
0000
,  // measure 2
0000
0000
0000
0000
,  // measure 3
0000
0000
0000
0000
,  // measure 4
0000
0000
0000
0000
,  // measure 5
1001
0000
0000
0000
,  // measure 6
0100
0000
0000
0000
,  // measure 7
0010
0000
0000
0000
,  // measure 8
1000
0000
0000
0000
,  // measure 9
1000
0100
1000
0000
0001
0100
0001
0000
,  // measure 10
1000
0100
0010
0001
1000
0100
0010
0000
,  // measure 11
0001
0010
0001
0000
1000
0100
1000
0000
,  // measure 12
0001
0100
0010
1000
0001
0100
0010
0000
,  // measure 13
1000
0010
1000
0000
0001
0100
0001
0000
,  // measure 14
1000
0100
0010
0001
1000
0100
0010
0000
,  // measure 15
0001
0010
0001
0000
1000
0100
1000
0000
,  // measure 16
0001
1000
0010
0100
0001
1000
0100
0000
,  // measure 17
1000
1100
0001
0101
,  // measure 18
1010
0101
0011
1100
,  // measure 19
0001
0011
1000
1010
,  // measure 20
0101
1001
1100
1001
,  // measure 21
1000
1100
0001
0011
,  // measure 22
1100
1010
1001
0101
,  // measure 23
0010
0101
0010
1100
,  // measure 24
1001
1100
1001
0101
,  // measure 25
0100
0010
0100
0000
0001
0010
0100
1000
,  // measure 26
0010
0101
0010
1100
,  // measure 27
1000
1000
0100
0000
1000
0010
0100
0001
,  // measure 28
0010
0011
1000
1100
,  // measure 29
0001
1000
0100
0000
1000
0010
0100
0001
,  // measure 30
0010
0101
0010
1100
,  // measure 31
1000
0001
1000
0001
0100
0010
0100
0010
,  // measure 32
0110
0000
0000
0000
,  // measure 33
0010
1000
0010
0000
0100
0001
0100
0000
,  // measure 34
0001
0010
0100
0010
0001
0100
0010
0000
,  // measure 35
1000
0010
1000
0000
0010
1000
0010
0000
,  // measure 36
1000
0010
0100
0010
1000
0100
0010
0100
,  // measure 37
1000
0001
0100
0000
0001
1000
0010
0000
,  // measure 38
1000
0001
0010
0100
1000
0001
0010
0100
,  // measure 39
1000
0010
1001
0000
0001
0010
1001
0000
,  // measure 40
1000
0100
1001
0000
0001
0100
1001
0000
,  // measure 41
0001
0100
0001
0000
1000
0010
1000
0000
,  // measure 42
0001
0100
0001
0100
0001
0010
0001
0010
,  // measure 43
0001
0010
0001
0000
1000
0100
1000
0000
,  // measure 44
1000
0100
1000
0010
1000
0100
0010
0001
,  // measure 45
1000
0100
1000
0000
0001
0100
0001
0000
,  // measure 46
1000
0100
0010
0001
1000
0100
1000
0010
,  // measure 47
0100
0001
0010
0000
0001
0100
0010
0000
,  // measure 48
0100
0010
1000
0001
0100
0010
1000
0001
,  // measure 49
1000
0100
0010
0001
1000
0100
0010
0001
,  // measure 50
1000
0100
0010
0001
1000
0100
1100
0000
,  // measure 51
0001
0010
0100
1000
0001
0010
0100
1000
,  // measure 52
0001
0010
0100
1000
0010
0100
0101
0000
,  // measure 53
0100
0010
1000
0001
0100
0010
1000
0001
,  // measure 54
0100
0010
1000
0001
1000
0100
1100
0000
,  // measure 55
0001
0010
0100
1000
0001
0010
0100
1000
,  // measure 56
0001
0010
0100
1000
0010
0100
0101
0000
,  // measure 57
2002
3003
0000
0000
;

//---------------dance-single - Chewi----------------
#NOTES:
     dance-single:
     Chewi:
     Medium:
     7:
     0.337,0.383,0.263,0.097,0.000: // measure 1
0000
0000
0000
0000
,  // measure 2
0000
0000
0000
0000
,  // measure 3
0000
0000
0000
0000
,  // measure 4
0000
0000
0000
0000
,  // measure 5
1001
0000
0000
0000
,  // measure 6
0010
0000
0000
0000
,  // measure 7
0100
0000
0000
0000
,  // measure 8
0010
0000
0000
0000
,  // measure 9
0000
1000
0000
1000
0000
1000
0000
1000
,  // measure 10
0000
0001
0000
0001
0000
0001
0000
0001
,  // measure 11
0000
0010
0000
0010
0000
0010
0000
0010
,  // measure 12
0000
0100
0000
0100
0000
0100
0000
0100
,  // measure 13
0000
1000
0000
0100
0000
1000
0000
0100
,  // measure 14
0000
1000
0000
0010
0000
1000
0000
0010
,  // measure 15
0000
0100
0000
0001
0000
0100
0000
0001
,  // measure 16
0000
0010
0000
0001
0000
0010
0000
0000
,  // measure 17
0001
1000
0100
0010
,  // measure 18
0001
1000
0100
0000
1000
0000
1001
0000
,  // measure 19
1000
0010
0100
0001
,  // measure 20
1000
0001
0010
0000
0100
0000
0110
0000
,  // measure 21
0100
0010
0001
0010
,  // measure 22
0100
1000
0010
0000
1000
0000
1001
0000
,  // measure 23
0100
0010
0100
0001
,  // measure 24
0010
0100
1000
0000
0001
0000
0101
0000
,  // measure 25
0100
0000
0010
0000
1000
0001
1000
0000
,  // measure 26
0001
0011
1000
1010
,  // measure 27
0001
0000
1000
0000
0001
1000
0100
0000
,  // measure 28
0010
0110
0100
0110
,  // measure 29
0100
0010
0001
0100
,  // measure 30
1000
0010
0001
0100
,  // measure 31
0010
0001
0100
0010
,  // measure 32
0110
0000
0000
0000
,  // measure 33
0010
0000
1000
0010
1000
0000
0000
0000
,  // measure 34
0001
0011
1000
1100
,  // measure 35
0001
0000
0100
0001
0100
0000
0000
0000
,  // measure 36
0001
0101
1000
1010
,  // measure 37
0010
0000
0100
0001
0100
0000
0000
0000
,  // measure 38
0001
1001
1000
1001
,  // measure 39
2000
0100
0002
3003
,  // measure 40
0002
0100
2000
3003
,  // measure 41
0010
0000
0010
0000
0100
0010
0100
0000
,  // measure 42
0100
0000
0100
0000
0010
0100
0010
0000
,  // measure 43
1000
1010
0001
0011
,  // measure 44
1000
1010
0011
1010
,  // measure 45
0001
0000
1000
0000
0001
1000
0001
0000
,  // measure 46
1000
0000
0100
0000
1000
0100
1000
0000
,  // measure 47
1000
1100
0001
0101
,  // measure 48
1000
1001
0101
1001
,  // measure 49
0020
0000
0030
0000
0010
0100
0001
0000
,  // measure 50
1000
0000
0001
0000
1000
0100
1000
0000
,  // measure 51
2000
0000
3000
0000
1000
0001
1000
0000
,  // measure 52
0001
0000
0010
0000
0100
1000
0010
0000
,  // measure 53
2000
0000
3000
0000
0010
0100
0001
0000
,  // measure 54
1000
0000
0010
0000
0100
0001
0100
0000
,  // measure 55
0002
0000
0003
0000
1000
0001
0010
0000
,  // measure 56
0001
0000
0010
0000
0100
1000
0001
0000
,  // measure 57
2002
3003
0000
0000
;

//---------------dance-single - Chewi----------------
#NOTES:
     dance-single:
     Chewi:
     Beginner:
     2:
     0.139,0.164,0.010,0.000,0.000: // measure 1
0000
0000
0000
0000
,  // measure 2
0000
0000
0000
0000
,  // measure 3
0000
0000
0000
0000
,  // measure 4
0000
0000
0000
0000
,  // measure 5
1000
0000
0000
0000
,  // measure 6
0010
0000
0000
0000
,  // measure 7
0001
0000
0000
0000
,  // measure 8
0100
0000
0000
0000
,  // measure 9
1000
0000
1000
0000
,  // measure 10
1000
0000
1000
0000
,  // measure 11
0010
0000
0010
0000
,  // measure 12
0010
0000
0010
0000
,  // measure 13
0100
0000
0100
0000
,  // measure 14
0100
0000
0100
0000
,  // measure 15
0001
0000
0001
0000
,  // measure 16
0001
0000
0001
0000
,  // measure 17
1000
0000
0010
0000
,  // measure 18
0010
0000
0010
0000
,  // measure 19
0001
0000
0010
0000
,  // measure 20
0100
0000
0100
0000
,  // measure 21
0100
0000
0010
0000
,  // measure 22
0100
0000
0010
0000
,  // measure 23
1000
0000
0100
0000
,  // measure 24
0010
0000
0001
0000
,  // measure 25
0010
0000
0001
0000
,  // measure 26
0001
0000
0001
0000
,  // measure 27
0001
0000
0100
0000
,  // measure 28
0100
0000
0100
0000
,  // measure 29
1000
0000
0010
0000
,  // measure 30
1000
0000
0000
0000
,  // measure 31
0001
0000
1000
0000
,  // measure 32
0001
0000
0000
0000
,  // measure 33
0010
0000
0010
0000
,  // measure 34
0100
0000
0100
0000
,  // measure 35
1000
0000
1000
0000
,  // measure 36
0001
0000
0001
0000
,  // measure 37
1000
0000
1000
0000
,  // measure 38
0100
0000
0100
0000
,  // measure 39
0010
0000
0010
0000
,  // measure 40
0001
0000
0001
0000
,  // measure 41
0001
0000
0001
0000
,  // measure 42
0001
0000
0100
0000
,  // measure 43
0100
0000
0100
0000
,  // measure 44
0100
0000
0001
0000
,  // measure 45
0100
0000
0100
0000
,  // measure 46
0100
0000
0001
0000
,  // measure 47
0010
0000
0010
0000
,  // measure 48
0010
0000
0001
0000
,  // measure 49
0001
0000
0001
0000
,  // measure 50
0001
0000
0100
0000
,  // measure 51
1000
0000
1000
0000
,  // measure 52
0001
0000
0010
0000
,  // measure 53
0010
0000
0010
0000
,  // measure 54
0010
0000
0001
0000
,  // measure 55
0010
0000
0010
0000
,  // measure 56
0010
0000
1000
0000
,  // measure 57
1001
0000
0000
0000
;
