#TITLE:LOCOMOTION;
#SUBTITLE:;
#ARTIST:ALEXIA;
#TITLETRANSLIT:;
#SUBTITLETRANSLIT:;
#ARTISTTRANSLIT:;
#CREDIT:Chewphoria~;
#BANNER:;
#BACKGROUND:;
#LYRICSPATH:;
#CDTITLE:Dancemania BASS #6.png;
#MUSIC:LOCOMOTION.mp3;
#OFFSET:-11.736;
#SAMPLESTART:11.736;
#SAMPLELENGTH:15.000;
#SELECTABLE:YES;
#BPMS:0.000=135.000;
#STOPS:;
#BGCHANGES:;

//---------------dance-single - ----------------
#NOTES:
     dance-single:
     :
     Hard:
     7:
     0.410,0.404,0.428,0.125,0.000:
1000
1000
1000
0000
0001
0000
1001
0000
,
0001
0001
0001
0000
1000
0000
1001
0000
,
0010
1000
0100
0000
0010
0001
0100
0000
,
2002
0000
0000
3003
,
0001
0001
0001
0000
1000
0000
1001
0000
,
1000
1000
1000
0000
0001
0000
1001
0000
,
0100
0001
0010
0000
0100
1000
0010
0000
,
2002
0000
0000
3003
,
0001
0010
0100
0000
1000
0000
1100
0000
,
1000
0100
0010
0000
0001
0000
0011
0000
,
1000
0001
0100
0000
0010
0000
0110
0000
,
1000
0001
0100
0000
0010
0000
0110
0000
,
1000
1000
0000
0100
0100
0000
0011
0000
,
0000
0001
0010
0000
0001
0100
0001
0000
,
1010
0001
0101
1000
,
1000
0010
0100
0001
0100
0000
1001
0000
,
2100
0100
0100
3100
,
0102
0100
0100
0103
,
0001
1000
0010
0100
0001
1000
0100
0000
,
0010
0011
1000
1100
,
0001
1000
0010
0100
0001
1000
1100
0000
,
0011
0101
1010
1001
,
1000
0000
0100
0010
0001
0000
0010
0000
,
0100
0000
1000
0001
0000
1001
0000
0000
,
0000
1000
1000
0000
0010
0100
0001
0000
,
0110
1001
0110
1001
,
0001
0100
0010
0100
0001
0000
0010
0000
,
0110
0000
0100
1000
0010
1000
0010
0000
,
1001
0000
0110
0000
0010
0001
0010
0100
,
2000
0000
0000
3000
,
0001
0100
0010
1000
0001
0000
1001
0000
,
0110
1000
1100
0110
,
1000
0010
0100
0001
0010
0100
1000
0001
,
1000
1000
1000
1000
,
0010
1000
0001
0000
0010
0001
1000
0000
,
1100
0101
1010
0011
,
2002
0000
0000
3003
,
1000
0010
0100
0000
0001
0000
0000
0000
,
0001
0001
1000
1000
0010
0100
0000
0000
,
0100
0010
1000
0100
0010
0001
0010
0000
,
0010
0010
0100
0100
1000
0001
0000
0000
,
1000
0001
0010
0100
1000
0010
0100
0000
,
0001
0001
1000
1000
0001
0010
0000
0000
,
0100
1000
0010
0100
0001
1000
0010
1000
,
2002
0000
0000
3000
0100
0000
1000
0000
,
0020
0000
0033
0000
;

//---------------dance-single - ----------------
#NOTES:
     dance-single:
     :
     Medium:
     5:
     0.337,0.353,0.345,0.052,0.000:
0001
0010
0100
1100
,
1000
0100
0010
0011
,
0001
0001
0001
0000
1000
1000
1000
0000
,
1001
0000
0000
0000
,
1000
0010
0100
0101
,
0001
0010
0100
1100
,
1000
1000
1000
0000
0001
0001
0001
0000
,
1001
0000
0000
0000
,
0010
0100
0020
0000
0000
0000
1030
0000
,
1000
0001
2000
0000
0000
0000
0000
3000
,
0001
0100
0002
0000
0000
0000
1003
0000
,
0010
1000
0020
0000
0000
0000
1030
0000
,
1001
0000
0110
0000
,
1000
0010
0001
0100
,
1000
0100
1000
0000
1000
0010
1000
0000
,
1001
0101
1001
1010
,
1000
0001
1000
0000
0001
0000
0101
0000
,
0001
1000
0001
0000
1000
0000
1010
0000
,
0001
0010
0100
1000
,
1000
0010
0100
0001
,
1000
0001
1000
0000
0010
0000
0110
0000
,
0100
0010
0100
0000
0001
0000
0101
0000
,
1001
0100
1001
0010
,
1000
0100
0010
0001
0100
0010
1000
0000
,
0001
0101
1000
1100
,
1001
0000
0010
0010
,
1000
0010
1000
0000
0001
0000
0101
0000
,
1000
0100
1000
0000
0001
0000
0011
0000
,
1010
0100
0011
0100
,
2000
0000
0000
3000
,
0001
1000
0001
0000
0100
0000
0010
0000
,
0100
0010
0100
0000
0010
0000
0100
0000
,
0001
1000
0001
0000
1000
0000
0100
0000
,
0000
0100
1000
0000
0001
0000
0101
0000
,
0100
0000
1010
0000
,
1000
0010
0001
0100
,
1000
0000
1000
0000
0001
0001
0001
0000
,
1000
0000
1000
0000
0010
0010
0010
0000
,
0100
0000
0100
0000
0010
0010
0010
0000
,
1000
0000
0001
0000
1000
1000
1000
0000
,
0100
1100
0001
0101
,
0010
1000
0100
0001
,
0010
0011
0010
1010
,
1000
1001
1001
0001
,
0100
0000
0000
0000
1000
0010
0001
0000
,
0010
0000
0000
0000
;

//---------------dance-single - ----------------
#NOTES:
     dance-single:
     :
     Easy:
     2:
     0.219,0.306,0.115,0.052,0.000: // measure 1
1000
1000
1000
0000
,  // measure 2
0001
0001
0001
0000
,  // measure 3
0010
0010
0010
0000
,  // measure 4
0110
0000
0000
0000
,  // measure 5
0010
0010
0010
0000
,  // measure 6
1000
1000
1000
0000
,  // measure 7
0001
0001
0001
0000
,  // measure 8
1001
0000
0000
0000
,  // measure 9
2000
0000
3000
0001
,  // measure 10
0002
0000
0000
0003
,  // measure 11
0020
0000
0030
0010
,  // measure 12
0020
0000
0000
0030
,  // measure 13
1000
1001
0001
1001
,  // measure 14
1000
0100
1000
0100
,  // measure 15
0002
0000
0000
0003
,  // measure 16
0010
0100
0001
1000
,  // measure 17
0000
0000
0000
0000
,  // measure 18
0000
0000
0000
0000
,  // measure 19
1000
0001
0100
0010
,  // measure 20
0000
0000
0000
0000
,  // measure 21
1000
0100
0010
0001
,  // measure 22
0000
0000
0000
0000
,  // measure 23
0001
1001
1000
1001
,  // measure 24
1010
0100
0101
0100
,  // measure 25
0010
1000
0001
0010
,  // measure 26
0100
0000
0000
0000
,  // measure 27
0010
0001
0010
0001
,  // measure 28
0010
1000
0010
1000
,  // measure 29
0001
1000
0001
1000
,  // measure 30
1001
0000
0000
0000
,  // measure 31
1000
0010
0100
0001
,  // measure 32
0001
0001
0001
0001
,  // measure 33
0001
0010
0100
1000
,  // measure 34
1000
1000
1000
1000
,  // measure 35
1001
0000
0100
0000
,  // measure 36
0010
0010
0010
0010
,  // measure 37
1000
0001
1000
0001
,  // measure 38
0100
0010
0100
0010
,  // measure 39
1000
0100
1000
0100
,  // measure 40
0001
0100
0001
0100
,  // measure 41
0001
0010
0001
0010
,  // measure 42
1000
0010
1000
0010
,  // measure 43
1000
0001
1000
0001
,  // measure 44
0010
0100
0010
0100
,  // measure 45
0010
0000
1000
0001
,  // measure 46
1001
0000
0000
0000
;

//---------------dance-single - ----------------
#NOTES:
     dance-single:
     :
     Beginner:
     1:
     0.119,0.188,0.063,0.084,0.000: // measure 1
1000
0000
0001
0000
,  // measure 2
0001
0000
1000
0000
,  // measure 3
0010
0000
0010
0000
,  // measure 4
0010
0000
0000
0000
,  // measure 5
0001
0000
1000
0000
,  // measure 6
1000
0000
0001
0000
,  // measure 7
0100
0000
0100
0000
,  // measure 8
0100
0000
0000
0000
,  // measure 9
2000
0000
0000
3000
,  // measure 10
1000
0000
0000
0000
,  // measure 11
0002
0000
0000
0003
,  // measure 12
0001
0000
0000
0000
,  // measure 13
1001
0000
0100
0000
,  // measure 14
0010
0000
0100
0000
,  // measure 15
0000
0000
0000
1000
,  // measure 16
0000
0001
0000
1000
,  // measure 17
0000
0000
0000
0000
,  // measure 18
0010
0000
0010
0000
,  // measure 19
0001
0001
0001
0000
,  // measure 20
1000
0000
0000
1001
,  // measure 21
0000
1000
0000
0100
,  // measure 22
0000
0010
0000
0001
,  // measure 23
0000
0001
0000
1000
,  // measure 24
0000
0010
0000
0010
,  // measure 25
0000
1000
0000
0001
,  // measure 26
0001
0000
0000
0000
,  // measure 27
0100
0000
1000
0000
,  // measure 28
1000
0000
0001
0000
,  // measure 29
0001
0000
0010
0000
,  // measure 30
1001
0000
0000
0000
,  // measure 31
0020
0000
0000
0030
,  // measure 32
0010
0000
0000
0000
,  // measure 33
0200
0000
0000
0300
,  // measure 34
0100
0000
0000
0000
,  // measure 35
1001
0000
1001
0000
,  // measure 36
1000
1000
1000
0000
,  // measure 37
0002
0000
0000
0000
,  // measure 38
0003
0000
0000
0000
,  // measure 39
2000
0000
0000
0000
,  // measure 40
3000
0000
0000
0000
,  // measure 41
0020
0000
0000
0000
,  // measure 42
0030
0000
0000
0000
,  // measure 43
0200
0000
0000
0000
,  // measure 44
0300
0000
0000
0000
,  // measure 45
1001
0000
1000
0000
,  // measure 46
0001
0000
0000
0000
;
