#TITLE:립스틱 (LIPSTICK);
#SUBTITLE:;
#ARTIST:Orange Caramel;
#TITLETRANSLIT:LIPSTICK;
#SUBTITLETRANSLIT:;
#ARTISTTRANSLIT:;
#GENRE:K-Pop;
#CREDIT:chewi;
#BANNER:LIPSTICK.png;
#BACKGROUND:LIPSTICK-bg.png;
#LYRICSPATH:;
#CDTITLE:cdtitle.png;
#MUSIC:LIPSTICK.ogg;
#OFFSET:-2.405000;
#SAMPLESTART:47.640999;
#SAMPLELENGTH:15.000000;
#SELECTABLE:YES;
#BPMS:0.000000=125.999992
;
#STOPS:
;
#BGCHANGES:-0.500=LIPSTICK.avi=1.000=1=0=0=StretchNoLoop==CrossFade==,
99999=-nosongbg-=1.000=0=0=0 // don't automatically add -songbackground-
;
#KEYSOUNDS:;
#ATTACKS:;

//---------------dance-single - ----------------
#NOTES:
     dance-single:
     :
     Beginner:
     2:
     0.119615,0.127186,0.021198,0.084791,0.000000,69.000000,2.000000,8.000000,0.000000,0.000000,0.000000,0.119615,0.127186,0.021198,0.084791,0.000000,69.000000,2.000000,8.000000,0.000000,0.000000,0.000000:
0000
0000
0000
0000
,
0000
0000
0000
0000
,
0000
0000
0000
0000
,
0000
0000
0000
0000
,
1000
0000
0000
0000
,
1000
0000
0000
0000
,
1000
0000
0000
0000
,
1000
0000
0000
0000
,
1001
0000
0000
0000
,
0001
0000
0000
0000
,
1000
0000
0000
0000
,
0001
0000
0000
0000
,
0110
0000
0000
0000
,
0010
0000
0000
0000
,
0100
0000
0000
0000
,
0010
0000
0000
0000
,
2000
0000
0000
3000
,
1000
1000
1000
0000
,
0002
0000
0000
0003
,
0001
0000
0000
0000
,
0020
0000
0000
0030
,
0010
0010
0010
0000
,
0200
0000
0000
0300
,
0100
0000
0000
0000
,
1000
0000
1000
0000
,
0001
0000
0001
0000
,
1000
0000
1000
0000
,
0001
0000
0001
0000
,
0100
0000
0100
0000
,
0010
0000
0010
0000
,
0100
0000
0100
0000
,
0010
0000
0010
0000
,
0020
0000
0000
0030
,
0010
0010
0000
0000
,
0020
0000
0000
0030
,
0010
0000
0000
0000
,
0200
0000
0000
0300
,
0100
0100
0000
0000
,
0200
0000
0000
0300
,
0100
0100
0000
0000
,
1000
0000
1000
0000
,
0001
0000
0001
0000
,
1000
0000
1000
0000
,
0001
0000
0001
0000
,
0100
0000
0100
0000
,
0010
0000
0010
0000
,
0100
0000
0100
0000
,
0010
0000
0010
0010
,
0010
0000
0000
0000
;

//---------------dance-single - ----------------
#NOTES:
     dance-single:
     :
     Easy:
     4:
     0.186237,0.203498,0.042395,0.169581,0.000000,103.000000,4.000000,16.000000,0.000000,0.000000,0.000000,0.186237,0.203498,0.042395,0.169581,0.000000,103.000000,4.000000,16.000000,0.000000,0.000000,0.000000:
0000
0000
0000
0000
,
0000
0000
0000
0000
,
0000
0000
0000
0000
,
0000
0000
0000
0000
,
2000
0000
0000
3000
,
0002
0000
0000
0003
,
2000
0000
0000
3000
,
0002
0000
0000
0003
,
1001
0000
1000
0000
,
0001
0000
0001
0000
,
0010
0000
0010
0000
,
0100
0000
0100
0000
,
0110
0000
0100
0000
,
0010
0000
0010
0000
,
0001
0000
0001
0000
,
1000
0000
1000
0000
,
0001
0100
1000
0100
,
0001
0100
1000
0000
,
1000
1000
1000
0000
,
0001
0001
0001
0000
,
1000
0010
0001
0010
,
1000
0010
0001
0000
,
0001
0001
0001
0000
,
1000
1000
1000
0000
,
1001
0000
1000
0000
,
0001
0000
1000
0000
,
0001
1000
0001
1000
,
0100
0010
0100
0010
,
0110
0000
0010
0000
,
0010
0000
0100
0000
,
0100
0010
0100
0010
,
0100
1000
0100
1000
,
2000
0000
0000
3000
,
0001
0001
0100
0100
,
0002
0000
0000
0003
,
0100
0010
0100
0010
,
0020
0000
0000
0030
,
1000
0010
1000
0100
,
2000
0000
0000
3000
,
1000
1000
1000
1000
,
2000
0000
0000
3000
,
0002
0000
0000
0003
,
0200
0000
0000
0300
,
0020
0000
0100
0130
,
0200
0000
0000
0300
,
0020
0000
0000
0030
,
2000
0000
0000
3000
,
0002
0000
1000
1000
,
1003
0000
0000
0000
;

//---------------dance-single - ----------------
#NOTES:
     dance-single:
     :
     Medium:
     7:
     0.314937,0.305246,0.381558,0.074192,0.000000,165.000000,36.000000,7.000000,0.000000,0.000000,0.000000,0.314937,0.305246,0.381558,0.074192,0.000000,165.000000,36.000000,7.000000,0.000000,0.000000,0.000000:
0000
0000
0000
0000
,
0000
0000
0000
0000
,
0000
0000
0000
0000
,
0000
0000
0000
0000
,
2000
3100
0002
0103
,
2000
3010
0002
0013
,
2000
3100
0002
0103
,
0100
0100
0100
0100
,
0110
0000
0010
0000
,
1001
0000
1000
0000
,
1100
0000
1000
0000
,
1000
0100
0010
0001
,
0011
0000
0001
0000
,
1001
0000
1000
0000
,
1100
0000
1000
0000
,
1000
0100
0001
0010
,
0100
0001
0010
0100
,
1000
0000
0001
0010
0100
0000
1000
0000
,
0001
0101
1000
1100
,
0001
0011
1000
1010
,
1000
0010
0100
0001
,
0010
0100
0010
0001
0010
0000
0100
0000
,
1000
1010
0001
0011
,
1000
0100
0001
0010
,
0100
0000
0001
0000
0010
0100
1000
0000
,
0002
0003
0010
0000
0100
1000
0001
0000
,
1000
1100
0001
0101
,
1000
1010
0001
0011
,
0010
0000
0100
1000
0010
0000
0100
0000
,
0001
0000
0010
0100
0010
0000
0100
0000
,
1000
1001
0001
0101
,
0100
0110
0010
1010
,
1001
0000
0000
0000
,
0000
0110
1001
0110
,
1001
0000
0000
0000
,
0010
0100
1000
1100
,
0101
0000
0000
0000
,
0000
0011
1010
1100
,
0101
0000
0110
0000
,
1001
0110
1001
0110
,
0100
0000
0010
0000
0100
0010
0100
0000
,
0010
0000
0100
0000
0010
0100
0010
0000
,
1000
0000
0001
0000
1000
0001
1000
0000
,
0001
0010
1000
0100
,
0001
0000
0100
0000
0001
0100
0001
0000
,
1000
0000
0100
0000
1000
0100
1000
0000
,
0100
0000
0010
0000
0100
0010
0100
0000
,
0010
1000
0001
0100
,
0100
0000
0000
0000
;

//---------------dance-single - ----------------
#NOTES:
     dance-single:
     :
     Hard:
     10:
     0.448179,0.405935,0.158983,0.370959,0.000000,246.000000,15.000000,35.000000,0.000000,0.000000,0.000000,0.448179,0.405935,0.158983,0.370959,0.000000,246.000000,15.000000,35.000000,0.000000,0.000000,0.000000:
// measure 0
0000
0000
0000
0000
,  // measure 1
0000
0000
0000
0000
,  // measure 2
0000
0000
0000
0000
,  // measure 3
0000
0000
0000
0000
,  // measure 4
1000
1000
0100
0000
0010
0001
0101
0000
,  // measure 5
0001
0001
0100
0000
0010
1000
1100
0000
,  // measure 6
1000
1000
0001
0000
0001
0001
1000
0000
,  // measure 7
1000
0001
0100
0010
1000
0001
0010
0100
,  // measure 8
0020
0100
0001
0130
,  // measure 9
0002
0100
1000
0103
,  // measure 10
2000
0010
0100
3010
,  // measure 11
0020
0000
0100
0000
1000
0000
0130
0001
,  // measure 12
0200
0001
0010
0301
,  // measure 13
2000
0100
0001
3100
,  // measure 14
0200
0010
1000
0310
,  // measure 15
0020
0000
0001
0000
1000
0000
0031
0100
,  // measure 16
2000
3002
0203
0320
,  // measure 17
1030
0001
0100
0010
0100
0000
0110
0000
,  // measure 18
0100
0100
0101
0000
0010
0010
0010
0000
,  // measure 19
0100
0100
1100
0000
1000
1000
1000
0000
,  // measure 20
1000
0100
0010
0100
1000
0100
1000
0000
,  // measure 21
0001
0010
0100
1000
0001
0000
1001
0000
,  // measure 22
0001
0001
0101
0000
0100
0100
0100
0000
,  // measure 23
0010
0010
1010
0000
1000
1000
1000
0000
,  // measure 24
0010
0100
0010
1000
0010
0000
1010
0000
,  // measure 25
0010
0100
0001
0000
0010
0100
1000
0000
,  // measure 26
0100
0010
0001
0010
0100
0010
0001
0000
,  // measure 27
0010
0110
1000
1001
,  // measure 28
0100
0010
0100
0001
0100
0000
0101
0000
,  // measure 29
0100
0010
1000
0100
1000
0010
1000
0000
,  // measure 30
0100
0010
0100
1000
0100
0000
1100
0000
,  // measure 31
1000
0001
0010
0000
0011
0000
1100
0001
,  // measure 32
2000
0001
0010
3001
,  // measure 33
0001
1000
0001
1000
0100
0010
0100
0010
,  // measure 34
0200
0010
0010
0310
,  // measure 35
0020
0000
0100
0000
0100
0000
0130
0100
,  // measure 36
0200
1000
0001
1300
,  // measure 37
1000
0001
1000
0001
0100
0001
0100
0001
,  // measure 38
0200
1000
0010
0301
,  // measure 39
0001
0100
0001
0100
0010
1000
0010
1000
,  // measure 40
0002
0000
2003
0000
3002
0000
0013
0100
,  // measure 41
2000
0000
3200
0000
2300
0000
3001
0010
,  // measure 42
0200
0000
2300
0000
3002
0000
0103
0010
,  // measure 43
0100
0001
0100
0010
0100
1000
0100
0010
,  // measure 44
0200
0000
0320
0000
2030
0000
3001
0100
,  // measure 45
0020
0000
2030
0000
3002
0000
0013
0100
,  // measure 46
2000
0000
3200
0000
2300
0000
3001
0010
,  // measure 47
0100
0010
1000
0010
0100
0010
0001
0010
;
