#TITLE:ライオン好き;
#SUBTITLE:;
#ARTIST:AKIRA YAMAOKA;
#TITLETRANSLIT:LION SUKI;
#SUBTITLETRANSLIT:;
#ARTISTTRANSLIT:;
#GENRE:;
#CREDIT:Chewi☆;
#MENUCOLOR:#FFFFFF;
#METERTYPE:DDR X;
#BANNER:LION SUKI.png;
#BACKGROUND:LION SUKI-bg.png;
#LYRICSPATH:;
#CDTITLE:./CDTITLES/DanceDanceRevolution skyMIX2 -FREEDOM-.png;
#MUSIC:LION SUKI.mp3;
#OFFSET:-3.744;
#SAMPLESTART:36.623;
#SAMPLELENGTH:15.000;
#SELECTABLE:YES;
#LISTSORT:;
#DISPLAYBPM:146.000;
#BPMS:0.000=146.000;
#STOPS:;
#BGCHANGES:;
#ATTACKS:;

//---------------dance-single - Chewi----------------
#NOTES:
     dance-single:
     Chewi:
     Beginner:
     2:
     0.153,0.172,0.034,0.017,0.000:
0000
0000
0000
0000
,
0000
0000
0000
0000
,
0000
0000
0000
0000
,
0000
0000
0000
0000
,
1000
0000
1000
0000
,
1000
0000
1000
0000
,
0001
0000
0001
0000
,
0001
0000
0001
0000
,
0100
0000
0100
0000
,
0100
0000
0100
0000
,
0010
0000
0010
0000
,
0010
0000
0010
0000
,
1000
0000
0100
0000
,
0001
0000
0100
0000
,
1000
0000
0010
0000
,
0001
0000
0010
0000
,
1000
0000
0100
0000
,
0001
0000
0010
0000
,
0001
0000
0100
0000
,
1000
0000
0010
0000
,
0010
0010
0010
0000
,
0100
0000
0100
0000
,
0100
0000
0000
0000
,
1001
0000
0000
0000
,
1000
1000
1000
0000
,
0001
0000
0001
0000
,
0001
0000
0000
0000
,
0110
0000
0000
0000
,
2000
0000
0000
3000
,
1000
0000
0000
0000
,
0100
0000
0100
0000
,
0010
0000
0010
0000
,
0002
0000
0000
0003
,
0001
0000
0000
0000
,
0100
0000
0100
0000
,
0010
0000
0010
0000
,
0010
0000
1000
0000
,
0100
0000
0010
0000
,
0010
0000
0001
0000
,
0100
0000
0010
0000
,
0010
0000
0100
0000
,
0100
0000
0010
0000
,
0100
0000
0010
0000
,
0010
0000
0100
0000
,
1000
1000
1000
0000
,
0001
0000
0001
0000
,
0001
0001
0001
0000
,
1000
0000
1000
0000
,
0100
0100
0100
0000
,
0100
0000
0100
0000
,
0010
0010
0010
0000
,
0010
0000
0000
0000
,
0100
0000
0100
0000
,
0100
0000
0000
0000
,
0110
0000
0000
0000
,
0010
0000
0000
0000
,
0001
0000
0001
0000
,
0001
0000
0000
0000
,
1000
0000
0000
0000
,
1001
0000
0000
0000
,
1000
0000
0100
0000
,
0010
0000
0001
0000
,
1000
0000
0001
0000
,
1000
0000
0001
0000
,
0001
0000
0100
0000
,
0010
0000
1000
0000
,
0001
0000
0001
0000
,
1000
0000
1000
1000
,
1000
0000
0000
0000
;

//---------------dance-single - Chewi----------------
#NOTES:
     dance-single:
     Chewi:
     Easy:
     5:
     0.230,0.287,0.059,0.110,0.000:
0000
0000
0000
0000
,
0000
0000
0000
0000
,
0000
0000
0000
0000
,
0000
0000
0000
0000
,
0100
1000
1000
0000
,
1000
1000
1000
0000
,
0100
0001
0001
0000
,
0001
0001
0001
0000
,
0010
0100
0100
0000
,
0100
0100
0100
0000
,
0010
0100
0100
0000
,
0010
0010
0010
0000
,
1000
0000
1001
0000
,
0001
0000
1001
0000
,
0001
1000
0001
0000
,
1000
0001
1000
0000
,
0010
0000
0110
0000
,
0100
0000
0110
0000
,
0100
0010
0100
0000
,
0010
0100
0010
0000
,
0010
0000
1000
0010
,
1000
0000
0001
0100
,
0001
0000
0000
0001
,
1000
0000
0000
0000
,
0010
0000
0100
0010
,
0100
0000
1000
0001
,
1000
0000
0000
0001
,
0100
0000
0000
0000
,
0220
0000
0000
0300
,
2000
0000
0000
3030
,
0001
0001
0001
0001
,
0001
0001
0001
0001
,
2002
0000
0000
0003
,
0200
0000
0000
3300
,
0010
0010
0010
0010
,
0010
0010
0010
0010
,
0001
0100
0010
0001
,
0100
0010
0001
0100
,
1000
0001
1000
0001
,
0010
0100
0010
0100
,
1000
0010
0100
1000
,
0010
0100
1000
0010
,
0100
0010
0100
0010
,
1000
0001
1000
0001
,
0002
0000
0013
0000
,
2000
0000
3100
0000
,
0002
0000
0103
0000
,
0200
0000
0310
0000
,
0020
0000
0130
0000
,
1000
1000
1000
0000
,
2000
0000
3001
0000
,
0001
0001
0001
0000
,
0001
0000
0010
1000
,
0100
0000
0100
0001
,
0010
0000
0000
0010
,
0010
0000
0000
0000
,
0100
0000
0100
0001
,
0010
0000
0010
1000
,
0010
0000
0000
1000
,
1000
0000
1000
1001
,
0001
0000
1000
0001
,
0100
0000
1000
0010
,
0001
0000
0000
0100
,
0100
0000
0000
0000
,
0100
0000
0010
0001
,
0010
0000
0001
0001
,
1000
0000
0000
0010
,
0200
0000
0000
0000
,
0310
0000
0000
0000
;

//---------------dance-single - Chewi----------------
#NOTES:
     dance-single:
     Chewi:
     Medium:
     8:
     0.381,0.401,0.464,0.135,0.000:
0000
0000
0000
0000
,
0000
0000
0000
0000
,
0000
0000
0000
0000
,
0000
0000
0000
0000
,
1000
0000
0100
0000
0010
0001
0010
0000
,
0001
0000
0100
0000
0010
1000
0010
0000
,
1000
0001
2000
0000
0000
0000
3000
0000
,
0001
1000
0002
0000
0000
0000
0003
0000
,
1000
0000
0100
0000
0010
0001
0010
0000
,
0001
0000
0100
0000
0010
1000
0010
0000
,
0100
0010
0200
0000
0000
0000
0300
0000
,
0010
0100
0020
0000
0000
0000
0030
0000
,
1000
1100
0001
0101
,
0010
0010
0010
0000
0100
0100
0100
0000
,
0010
0011
0010
1010
,
1000
1000
1000
0000
0001
0001
0001
0000
,
1000
1100
0001
0101
,
0100
0100
0100
0000
0010
0010
0010
0000
,
2000
0002
0000
3000
,
0023
0200
0000
0330
,
0101
0000
0101
1010
,
0101
0000
1001
1100
,
0011
0000
0000
0000
0000
0000
0001
0010
,
0100
1000
0000
0000
0000
0000
0000
0000
,
1100
0000
0011
1010
,
0011
0000
1001
0101
,
1001
0000
0000
0000
0000
0000
0001
0100
,
0010
1000
0000
0000
0010
0000
0010
0000
,
2010
0000
3002
0000
,
0100
1000
0020
0033
,
0001
0010
0001
0000
1000
0100
1000
0000
,
0001
1000
0001
0000
1000
0001
1000
0000
,
1020
0000
0230
0000
,
0001
0010
0002
0303
,
0010
0001
0010
0000
0100
1000
0100
0000
,
1000
0001
1000
0000
0010
0100
0010
0000
,
1000
0100
0001
0010
,
0001
0100
1000
0010
,
0010
1000
0100
0001
,
1000
0001
1000
0100
,
1001
0000
0100
0000
0010
0010
0010
0000
,
1001
0000
0100
0000
0010
0010
0010
0000
,
1000
0000
0100
0000
0001
0100
0001
0000
,
1000
0000
0100
0000
0001
0100
0001
0000
,
0010
0100
0010
0100
0010
0000
0000
0000
,
0100
0100
1001
0000
,
1000
0001
1000
0001
1000
0000
0000
0000
,
0001
0001
1001
0000
,
1000
0010
1000
0010
1000
0000
0000
0000
,
0010
0010
1001
0000
,
1000
0100
0002
0000
0000
0000
0003
0000
,
0001
0010
2000
0000
0000
0000
3000
0000
,
1001
0000
1100
0011
,
1010
0000
1001
0110
,
1001
0000
0000
0000
0000
0000
0001
0100
,
0010
1000
0000
0000
0000
0000
0000
0000
,
1010
0000
0101
1100
,
1001
0000
0011
1010
,
1001
0000
0000
0000
0000
0000
0001
0010
,
0001
0010
0100
1000
0010
0000
0000
0000
,
0101
0000
1001
1010
,
1001
0000
1100
0011
,
0110
0000
0000
0000
0000
0000
0001
0010
,
0100
1000
0010
0100
0010
0000
0000
0000
,
0110
0000
1010
0101
,
0011
0000
0011
1001
,
1100
0000
0000
0000
0000
0000
1000
0100
,
0010
0001
1000
0000
0100
0000
0010
0010
,
0010
0000
0000
0000
;

//---------------dance-single - Chewi----------------
#NOTES:
     dance-single:
     Chewi:
     Hard:
     12:
     0.501,0.516,0.118,0.202,0.051: // measure 1
0000
0000
0000
0000
,  // measure 2
0000
0000
0000
0000
,  // measure 3
0000
0000
0000
0000
,  // measure 4
0000
0000
0000
0000
,  // measure 5
1000
0100
0000
0001
0010
0000
0100
0010
,  // measure 6
0001
1000
0010
0000
0100
0000
0110
0000
,  // measure 7
0010
0000
0000
1000
0020
0000
0000
0000
0000
0000
0000
0000
0030
0000
0000
0000
,  // measure 8
0010
0000
0000
0001
0020
0000
0000
0000
0000
0000
0000
0000
0030
0000
0000
0000
,  // measure 9
0001
0000
0010
0000
0100
1000
0010
0001
,  // measure 10
0100
0000
0010
0000
0100
0100
0100
0000
,  // measure 11
0010
0000
0000
0001
2000
0000
0000
0000
0000
0000
0000
0000
3000
0000
0000
0000
,  // measure 12
1000
0000
0000
0001
0200
0000
0000
0000
0000
0000
0000
0000
0300
0000
0000
0000
,  // measure 13
0010
1000
0100
1000
0010
0000
0100
0000
,  // measure 14
0010
0001
0100
0001
0010
0000
0100
0000
,  // measure 15
0010
0001
1000
0010
0100
0000
0010
0000
,  // measure 16
0100
0001
1000
0100
0010
0000
0001
0000
,  // measure 17
0010
0100
1000
0001
0010
0100
1000
0000
,  // measure 18
1000
0010
0100
0001
1000
0010
0100
0000
,  // measure 19
0001
0000
0000
1000
0002
0000
0000
0000
0000
0000
0000
0000
0003
0000
0000
0000
,  // measure 20
1000
0000
0000
0001
2000
0000
0000
0000
0000
0000
0000
0000
3000
0000
0000
0000
,  // measure 21
0011
0000
0100
1000
0100
0000
0000
0000
,  // measure 22
1100
0000
0010
0001
0010
0000
0001
0100
,  // measure 23
1000
0010
0001
0100
,  // measure 24
0001
0010
1000
0100
,  // measure 25
0011
0000
0100
1000
0100
0000
0000
0000
,  // measure 26
1100
0000
0010
0001
0010
0000
0001
0100
,  // measure 27
1000
0010
0001
0100
,  // measure 28
0001
0010
1000
0100
,  // measure 29
2002
0003
3020
0000
,  // measure 30
0032
0203
2300
3020
,  // measure 31
0130
0001
0100
0001
0010
0001
0010
0001
,  // measure 32
0010
0100
0010
0100
1000
0001
1000
0001
,  // measure 33
2200
3000
0302
0000
,  // measure 34
0023
2030
3200
0302
,  // measure 35
0103
1000
0100
1000
0010
1000
0010
1000
,  // measure 36
0010
0100
0010
0100
0001
1000
0001
1000
,  // measure 37
0001
0010
0100
1000
0100
0010
0001
1000
,  // measure 38
0100
0010
0001
0100
0010
0100
0001
0010
,  // measure 39
0001
0100
0010
1000
0001
0100
0010
1000
,  // measure 40
0010
0100
0001
0010
0100
1000
0001
1000
,  // measure 41
0010
0100
0010
0100
0001
1000
0001
1000
,  // measure 42
0001
0010
0100
0010
0001
0100
1000
0010
,  // measure 43
1000
0100
0010
1000
0100
0001
0010
0100
,  // measure 44
0010
0001
0010
0001
0010
0100
0010
0100
,  // measure 45
0011
0100
0010
1000
0100
1000
0010
0000
,  // measure 46
0001
0100
0010
1000
0002
0010
0103
0000
,  // measure 47
1100
0100
0010
0001
0100
0010
0100
0000
,  // measure 48
0010
0001
0100
0010
2000
0100
3100
0000
,  // measure 49
0010
0001
0010
0100
1000
0010
0100
0001
,  // measure 50
0100
0010
1000
0001
0010
0100
1000
0010
,  // measure 51
1000
0000
0000
0100
2000
0000
0000
0000
0000
0000
0000
0000
3000
0000
0000
0000
,  // measure 52
0001
0000
0000
0100
0002
0000
0000
0000
1003
0010
0100
0001
1000
0010
0100
0001
,  // measure 53
0100
0010
1000
0001
0010
0100
1100
0000
,  // measure 54
1000
0100
0001
0100
1000
0010
0001
0010
,  // measure 55
0100
0001
0010
1000
,  // measure 56
0100
1000
0010
0001
,  // measure 57
0100
0010
0001
0010
0100
1000
1010
0000
,  // measure 58
1000
0100
0010
0100
1000
0010
0100
0001
,  // measure 59
0010
1000
0100
0001
,  // measure 60
0010
0000
0001
0000
0100
0000
1000
1000
,  // measure 61
0010
0100
0001
1000
0100
0010
1001
0000
,  // measure 62
0001
0010
0100
1000
0001
0100
1000
0010
,  // measure 63
0100
0001
0010
1000
,  // measure 64
0010
0001
0100
1000
,  // measure 65
0010
0100
0001
1000
0100
0010
0011
0000
,  // measure 66
0001
0100
0001
0010
0100
1000
0010
1000
,  // measure 67
0100
1000
0100
0000
0001
0010
0001
0000
,  // measure 68
1000
0010
1000
0000
0100
0001
0100
0000
,  // measure 69
0110
0000
0000
0000
;
