#VERSION:0.82;
#TITLE:LIKE A VIRGIN;
#SUBTITLE:;
#ARTIST:VIRGINELLE;
#TITLETRANSLIT:;
#SUBTITLETRANSLIT:;
#ARTISTTRANSLIT:;
#GENRE:Eurobeat;
#ORIGIN:;
#CREDIT:chewi;
#BANNER:LIKE A VIRGIN.png;
#BACKGROUND:LIKE A VIRGIN-bg.png;
#PREVIEWVID:;
#JACKET:LIKE A VIRGIN-jacket.png;
#CDIMAGE:;
#DISCIMAGE:;
#LYRICSPATH:;
#CDTITLE:cdtitle.png;
#MUSIC:LIKE A VIRGIN.ogg;
#OFFSET:-5.092000;
#SAMPLESTART:45.033001;
#SAMPLELENGTH:15.000000;
#SELECTABLE:YES;
#BPMS:0.000=148.000;
#STOPS:;
#DELAYS:;
#WARPS:;
#TIMESIGNATURES:0.000=4=4;
#TICKCOUNTS:0.000=4;
#COMBOS:0.000=1;
#SPEEDS:0.000=1.000=0.000=0;
#SCROLLS:0.000=1.000;
#FAKES:;
#LABELS:0.000=Song Start;
#BGCHANGES:;
#KEYSOUNDS:;
#ATTACKS:
;

//---------------dance-single - ----------------
#NOTEDATA:;
#CHARTNAME:;
#STEPSTYPE:dance-single;
#DESCRIPTION:;
#CHARTSTYLE:;
#DIFFICULTY:Beginner;
#METER:1;
#RADARVALUES:0.093255,0.134054,0.023314,0.000000,0.000000,54.000000,2.000000,0.000000,0.000000,0.000000,0.000000,0.000000,0.000000,0.093255,0.134054,0.023314,0.000000,0.000000,54.000000,2.000000,0.000000,0.000000,0.000000,0.000000,0.000000,0.000000;
#CREDIT:;
#NOTES:
// measure 0
0000
0000
0000
0000
,  // measure 1
0000
0000
0000
0000
,  // measure 2
0000
0000
0000
0000
,  // measure 3
0000
0000
0000
0000
,  // measure 4
0000
0000
0000
0000
,  // measure 5
0000
0000
0000
0000
,  // measure 6
0100
0000
0000
0000
,  // measure 7
0001
0000
0000
0000
,  // measure 8
0100
0000
0000
0000
,  // measure 9
1000
0000
0000
0000
,  // measure 10
0001
0000
0000
0000
,  // measure 11
1001
0000
0000
0000
,  // measure 12
1000
0000
0000
0000
,  // measure 13
0001
0000
0000
0000
,  // measure 14
0100
0000
0100
0000
,  // measure 15
0100
0000
0000
0000
,  // measure 16
0010
0000
0000
0000
,  // measure 17
1000
0000
0000
0000
,  // measure 18
0001
0000
0001
0000
,  // measure 19
0001
0000
0000
0000
,  // measure 20
0010
0000
0000
0000
,  // measure 21
0100
0000
0000
0000
,  // measure 22
0100
0000
0100
0000
,  // measure 23
0100
0000
0000
0000
,  // measure 24
0001
0000
0001
0000
,  // measure 25
1000
0000
1000
0000
,  // measure 26
0100
0000
0100
0000
,  // measure 27
0010
0000
0010
0000
,  // measure 28
0001
0000
0001
0000
,  // measure 29
0010
0000
0010
0000
,  // measure 30
0100
0000
0100
0000
,  // measure 31
1000
0000
1000
0000
,  // measure 32
0001
0000
0001
0000
,  // measure 33
1000
0000
1000
0000
,  // measure 34
0001
0000
0000
0000
,  // measure 35
1000
0000
0000
0000
,  // measure 36
0001
0000
0000
0000
,  // measure 37
1000
0000
0000
0000
,  // measure 38
0001
0000
0000
0000
,  // measure 39
0010
0000
0000
0000
,  // measure 40
0100
0000
0000
0000
,  // measure 41
0100
0000
0000
0000
,  // measure 42
0010
0000
0000
0000
,  // measure 43
0010
0000
0000
0000
,  // measure 44
1000
0000
0000
0000
,  // measure 45
1001
0000
0000
0000
,  // measure 46
0010
0000
0000
0000
;

//---------------dance-single - ----------------
#NOTEDATA:;
#CHARTNAME:;
#STEPSTYPE:dance-single;
#DESCRIPTION:;
#CHARTSTYLE:;
#DIFFICULTY:Easy;
#METER:4;
#RADARVALUES:0.158201,0.214487,0.023314,0.034971,0.000000,90.000000,2.000000,3.000000,0.000000,0.000000,0.000000,0.000000,0.000000,0.158201,0.214487,0.023314,0.034971,0.000000,90.000000,2.000000,3.000000,0.000000,0.000000,0.000000,0.000000,0.000000;
#CREDIT:;
#NOTES:
// measure 0
0000
0000
0000
0000
,  // measure 1
0000
0000
0000
0000
,  // measure 2
0000
0000
0000
0000
,  // measure 3
0000
0000
0000
0000
,  // measure 4
0000
0000
0000
0000
,  // measure 5
0000
0000
0000
0000
,  // measure 6
0001
0000
0100
0000
,  // measure 7
0001
0000
0100
0000
,  // measure 8
0001
0000
1000
0000
,  // measure 9
0001
0000
1000
0000
,  // measure 10
0010
0000
0010
0000
,  // measure 11
0010
0010
0010
0000
,  // measure 12
0100
0100
0100
0000
,  // measure 13
0001
0001
0001
0000
,  // measure 14
1000
1000
1000
0000
,  // measure 15
0100
0010
0100
0000
,  // measure 16
0010
0100
0010
0000
,  // measure 17
0100
0010
0001
0000
,  // measure 18
0010
0010
0010
0000
,  // measure 19
0001
0001
1000
0000
,  // measure 20
1000
1000
0001
0000
,  // measure 21
1000
0001
1000
0000
,  // measure 22
1001
0000
1001
0000
,  // measure 23
0100
0100
0100
0000
,  // measure 24
0100
0000
0010
0000
,  // measure 25
0020
0000
0000
0030
,  // measure 26
0010
1000
0100
0001
,  // measure 27
0010
0000
0000
0000
,  // measure 28
0010
0000
0000
0000
,  // measure 29
0020
0000
0000
0030
,  // measure 30
0010
0001
0100
1000
,  // measure 31
0010
0000
0000
0000
,  // measure 32
0010
0000
0000
0000
,  // measure 33
0100
0000
0100
0000
,  // measure 34
0200
0000
0000
0300
,  // measure 35
1000
0000
0000
0000
,  // measure 36
0001
0000
0100
0000
,  // measure 37
0001
0000
0100
0000
,  // measure 38
0001
0000
1000
0000
,  // measure 39
0001
0000
1000
0000
,  // measure 40
0001
0000
0000
0000
,  // measure 41
1000
0000
0010
0000
,  // measure 42
1000
0000
0010
0000
,  // measure 43
1000
0000
0001
0000
,  // measure 44
1000
0000
0001
0000
,  // measure 45
0100
0100
0100
0100
,  // measure 46
0100
0000
0000
0000
;

//---------------dance-single - ----------------
#NOTEDATA:;
#CHARTNAME:;
#STEPSTYPE:dance-single;
#DESCRIPTION:;
#CHARTSTYLE:;
#DIFFICULTY:Medium;
#METER:8;
#RADARVALUES:0.301414,0.402164,0.198168,0.023314,0.000000,162.000000,17.000000,2.000000,0.000000,0.000000,0.000000,0.000000,0.000000,0.301414,0.402164,0.198168,0.023314,0.000000,162.000000,17.000000,2.000000,0.000000,0.000000,0.000000,0.000000,0.000000;
#CREDIT:;
#NOTES:
// measure 0
0000
0000
0000
0000
,  // measure 1
0000
0000
0000
0000
,  // measure 2
0000
0000
0000
0000
,  // measure 3
0000
0000
0000
0000
,  // measure 4
0000
0000
0000
0000
,  // measure 5
0000
0000
0000
0000
,  // measure 6
0100
0000
0010
0000
1000
0001
1000
0000
,  // measure 7
0100
0000
0010
0000
0001
1000
0001
0000
,  // measure 8
1000
0000
0100
0000
1000
0100
1000
0000
,  // measure 9
1001
0000
0101
0000
,  // measure 10
0110
0000
0000
0000
,  // measure 11
0010
0000
0100
0000
0010
0100
0010
0000
,  // measure 12
0100
0000
0010
0000
0100
0010
0100
0000
,  // measure 13
0010
1000
0100
0000
,  // measure 14
0010
0001
0100
0000
,  // measure 15
0001
0000
0001
0000
1000
0001
1000
0000
,  // measure 16
1000
0000
1000
0000
0001
1000
0001
0000
,  // measure 17
1000
0010
0001
0000
,  // measure 18
1000
0100
0001
0000
,  // measure 19
2000
3100
0010
0011
,  // measure 20
0002
0103
0010
1010
,  // measure 21
1000
0000
0001
0000
1000
0100
1000
0000
,  // measure 22
0001
0000
1000
0000
0001
0100
0001
0000
,  // measure 23
0100
0000
0100
0000
0010
0100
0010
0000
,  // measure 24
1010
0000
1001
0000
,  // measure 25
1100
0100
0010
0001
,  // measure 26
1000
0100
0001
0100
,  // measure 27
1000
0010
0001
0010
,  // measure 28
0010
0010
0010
0000
0100
0100
0100
0000
,  // measure 29
1000
0001
1000
0001
1000
0000
1001
0000
,  // measure 30
0001
0100
1000
0100
,  // measure 31
0001
0010
1000
0010
,  // measure 32
1000
1000
1000
0000
0010
0010
0010
0000
,  // measure 33
0100
0001
0100
0001
0100
0000
0101
0000
,  // measure 34
1001
0000
0000
0000
,  // measure 35
0100
0000
0010
0000
1000
0001
1000
0000
,  // measure 36
0100
0000
0010
0000
0001
1000
0001
0000
,  // measure 37
1000
0000
0100
0000
1000
0100
1000
0000
,  // measure 38
1001
0000
0101
0000
,  // measure 39
0110
0000
0000
0000
,  // measure 40
0010
0000
0100
0000
0001
1000
0001
0000
,  // measure 41
0010
0000
0100
0000
1000
0001
1000
0000
,  // measure 42
0001
0000
0010
0000
0001
0010
0001
0000
,  // measure 43
1001
0000
1010
0000
,  // measure 44
0110
0000
0000
0000
,  // measure 45
0100
0000
0100
0000
0100
0100
0100
0000
,  // measure 46
0010
0000
0000
0000
;

//---------------dance-single - ----------------
#NOTEDATA:;
#CHARTNAME:;
#STEPSTYPE:dance-single;
#DESCRIPTION:;
#CHARTSTYLE:;
#DIFFICULTY:Hard;
#METER:11;
#RADARVALUES:0.439632,0.536218,0.139883,0.034971,0.186511,249.000000,12.000000,3.000000,0.000000,0.000000,0.000000,0.000000,0.000000,0.439632,0.536218,0.139883,0.034971,0.186511,249.000000,12.000000,3.000000,0.000000,0.000000,0.000000,0.000000,0.000000;
#CREDIT:;
#NOTES:
// measure 0
0000
0000
0000
0000
,  // measure 1
0000
0000
0000
0000
,  // measure 2
0000
0000
0000
0000
,  // measure 3
0000
0000
0000
0000
,  // measure 4
0000
0000
0000
0000
,  // measure 5
0000
0000
0000
0000
,  // measure 6
0001
0000
0010
0000
0100
1000
0100
0000
1000
0000
0000
1000
0000
0000
1000
0000
,  // measure 7
0010
0000
0100
0000
0001
1000
0001
0000
0010
0000
0000
0010
0000
0000
0010
0000
,  // measure 8
0100
0000
1000
0000
0001
1000
0001
0000
0100
0000
0000
0100
0000
0000
0100
0000
,  // measure 9
0010
0000
0000
0000
0000
0000
0100
0010
0100
0000
0000
0000
0000
0000
0000
0000
,  // measure 10
1000
0000
0000
0000
0000
0000
0001
1000
0001
0000
0000
0000
0000
0000
0000
0000
,  // measure 11
0010
0001
1000
0100
1000
1000
0000
0000
,  // measure 12
0010
1000
0001
0100
0001
0001
1000
1000
,  // measure 13
0100
0000
0000
0100
0000
0000
0100
0000
0000
0000
0010
0000
0100
0000
0000
0000
,  // measure 14
0010
0000
0000
0010
0000
0000
0010
0000
0000
0000
0100
0000
0010
0000
0000
0000
,  // measure 15
0100
1000
0001
0010
0001
0001
0000
0000
,  // measure 16
0100
0001
1000
0010
1000
1000
0001
0001
,  // measure 17
0010
0000
0000
0010
0000
0000
0010
0000
0000
0000
0100
0000
0010
0000
0000
0000
,  // measure 18
0100
0000
0000
0100
0000
0000
0100
0000
0000
0000
0010
0000
0100
0000
0000
0000
,  // measure 19
1000
0100
1000
0001
0010
0010
0000
0000
,  // measure 20
0001
0010
0001
1000
0100
0100
1000
2000
,  // measure 21
0000
3002
0000
0203
0000
0300
0000
0000
,  // measure 22
0100
0010
1000
0001
1000
0100
0010
0001
,  // measure 23
0100
0000
0010
0000
1000
1000
0001
0001
,  // measure 24
0010
0000
0100
0000
0100
1000
0001
0000
,  // measure 25
0010
0000
0001
0010
0000
1100
0000
0101
,  // measure 26
0000
1100
0000
0000
1000
0001
0100
0010
,  // measure 27
1000
0001
1000
0010
0000
1010
0000
0011
,  // measure 28
0000
1010
0000
1000
0100
1000
0010
1000
,  // measure 29
0001
0000
1000
0000
0001
0000
1000
0000
0001
0100
0001
0100
0001
0000
0100
0000
,  // measure 30
0001
0000
0100
0010
0000
1010
0000
0101
,  // measure 31
0000
1010
0000
0000
1000
0100
0010
0001
,  // measure 32
1000
0100
1000
0001
0000
1001
0000
1100
,  // measure 33
0000
1001
0000
0100
0010
1000
0001
1000
,  // measure 34
0001
0000
0100
0000
0001
0000
0100
0000
0001
0010
0001
0010
0001
0000
0010
0000
,  // measure 35
0001
0000
0010
0000
0100
1000
0100
0000
1000
0000
0000
1000
0000
0000
1000
0000
,  // measure 36
0010
0000
0100
0000
0001
1000
0001
0000
0010
0000
0000
0010
0000
0000
0010
0000
,  // measure 37
0100
0000
1000
0000
0001
1000
0001
0000
0100
0000
0000
0100
0000
0000
0100
0000
,  // measure 38
0010
0000
0000
0000
0000
0000
0100
0010
0100
0000
0000
0000
0000
0000
0000
0000
,  // measure 39
1000
0000
0000
0000
0000
0000
0001
1000
0001
0000
0000
0000
0000
0000
0000
0000
,  // measure 40
1000
0000
0100
0000
0010
0001
0010
0000
0001
0000
0000
0001
0000
0000
0001
0000
,  // measure 41
0100
0000
0010
0000
1000
0001
1000
0000
0100
0000
0000
0100
0000
0000
0100
0000
,  // measure 42
0010
0000
0001
0000
1000
0001
1000
0000
0010
0000
0000
0010
0000
0000
0010
0000
,  // measure 43
0100
0000
0000
0000
0000
0000
0010
0100
0010
0000
0000
0000
0000
0000
0000
0000
,  // measure 44
0001
0000
0000
0000
0000
0000
1000
0001
1000
0000
0000
0000
0000
0000
0000
0000
,  // measure 45
0001
0000
0100
0000
1000
0010
0001
0000
,  // measure 46
0100
0000
0000
0000
;
